VERSION	0.00.00	1.04.00
FES_MODE	0
BPM_DEF	185.000	185.000	185.000	185.000
MET_DEF	4	4
RESOLUTION	384
CLK_DEF	384
COMPATIBLE_CODE	MA2

BPM	0	0	185.000
MET	0	0	4	4

NMTAP	5	0	7
NMTAP	5	192	7
NMTAP	6	0	6
NMTAP	7	0	5
NMTAP	7	192	5
NMTAP	8	0	3
NMTAP	8	0	4
NMTAP	9	0	3
NMTAP	9	192	3
NMTAP	10	0	2
NMTAP	11	0	1
NMTAP	11	192	1
NMTAP	12	0	0
NMTAP	12	0	7
NMTAP	13	0	0
NMTAP	13	192	0
NMTAP	14	0	1
NMTAP	14	192	1
NMTAP	15	0	2
NMTAP	15	192	2
NMTAP	16	0	3
NMTAP	16	0	4
NMTAP	17	0	5
NMTAP	17	192	5
NMTAP	18	0	6
NMTAP	18	0	7
NMTAP	19	0	7
NMTAP	19	192	7
NMTAP	20	0	6
NMTAP	20	192	6
NMTAP	21	0	5
NMTAP	21	192	5
NMTAP	22	0	3
NMTAP	22	0	4
NMTAP	23	0	2
NMTAP	23	192	2
NMTAP	24	0	0
NMTAP	24	0	1
NMTTP	25	0	0	B	0	L1
NMTTP	25	0	1	B	0	L1
NMTTP	27	0	6	B	0	L1
NMTTP	27	0	7	B	0	L1
NMTTP	29	0	5	B	0	L1
NMTTP	30	0	4	B	0	L1
NMTTP	31	0	3	B	0	L1
NMTTP	32	0	2	B	0	L1
NMTHO	33	0	0	384	C	0	L1
BRTAP	35	0	0
NMTAP	35	96	0
NMTAP	35	192	0
NMTAP	36	0	1
NMTAP	36	192	1
NMTAP	37	0	2
NMTAP	37	96	2
NMTAP	37	192	2
NMTAP	38	0	2
NMTAP	38	0	3
NMTAP	39	0	4
NMTAP	39	96	4
NMTAP	39	192	4
NMTAP	40	0	5
NMTAP	40	192	5
NMTAP	41	0	6
NMTAP	41	96	6
NMTAP	41	192	6
EXTAP	42	0	6
EXTAP	42	0	7
BRTAP	43	0	7
NMTAP	43	96	7
NMTAP	43	192	7
NMTAP	44	0	6
NMTAP	44	96	6
NMTAP	44	192	6
NMTAP	45	0	5
NMTAP	45	96	5
NMTAP	45	192	5
NMTAP	46	0	4
NMTAP	46	0	5
NMTAP	47	0	3
NMTAP	47	96	3
NMTAP	47	192	3
NMTAP	48	0	2
NMTAP	48	96	2
NMTAP	48	192	2
NMTAP	49	0	1
NMTAP	49	96	1
NMTAP	49	192	1
NMTAP	50	0	0
NMTAP	50	0	1
BRTAP	51	0	0
NMTAP	51	96	0
NMTAP	51	192	0
NMTAP	52	0	1
NMTAP	52	96	1
NMTAP	52	192	1
NMTAP	53	0	2
NMTAP	53	96	2
NMTAP	53	192	2
NMTAP	54	0	3
NMTAP	54	0	4
NMTAP	55	0	5
NMTAP	55	96	5
NMTAP	55	192	5
NMTAP	56	0	6
NMTAP	56	96	6
NMTAP	56	192	6
EXHLD	57	0	0	384
EXHLD	57	0	7	384
NMHLD	59	0	6	384
NMHLD	59	0	7	384
NMHLD	61	0	4	384
NMHLD	61	0	5	384
NMHLD	63	0	2	384
NMHLD	63	0	3	384
NMHLD	65	0	0	384
NMHLD	65	0	1	384
EXTAP	68	0	0
EXTAP	68	0	7
EXTAP	68	192	0
EXTAP	68	192	7
EXTAP	69	0	0
EXTAP	69	0	7
BRTAP	70	0	1
NMTAP	70	96	1
NMTAP	70	192	1
NMTAP	70	288	1
NMTAP	71	0	2
NMTAP	71	96	2
NMTAP	71	192	2
NMTAP	71	192	3
NMTAP	72	0	4
NMTAP	72	96	4
NMTAP	72	192	4
NMTAP	72	288	4
NMTAP	73	0	5
NMTAP	73	96	5
NMTAP	73	192	4
NMTAP	73	192	5
NMTAP	74	0	6
NMTAP	74	96	6
NMTAP	74	192	6
NMTAP	74	288	6
NMTAP	75	0	0
NMTAP	75	0	7
BRTAP	76	0	7
NMTAP	76	96	7
NMTAP	76	192	7
NMTAP	76	288	7
NMTAP	77	0	6
NMTAP	77	96	6
NMTAP	77	192	6
NMTAP	77	192	7
NMTAP	78	0	5
NMTAP	78	96	5
NMTAP	78	192	5
NMTAP	78	288	5
NMTAP	79	0	4
NMTAP	79	96	4
NMTAP	79	192	3
NMTAP	79	192	4
NMTAP	80	0	2
NMTAP	80	96	2
NMTAP	80	192	2
NMTAP	80	288	2
NMTAP	81	0	0
NMTAP	81	0	1
BRTAP	82	0	0
NMTAP	82	96	0
NMTAP	82	192	1
NMTAP	82	288	1
NMTAP	83	0	2
NMTAP	83	96	2
NMTAP	83	192	2
NMTAP	83	192	3
NMTAP	84	0	4
NMTAP	84	96	4
NMTAP	84	192	5
NMTAP	84	288	5
NMTAP	85	0	6
NMTAP	85	96	6
NMTAP	85	192	6
NMTAP	85	192	7
NMTAP	86	0	7
NMTAP	86	96	7
NMTAP	86	192	6
NMTAP	86	288	6
NMTAP	87	0	5
NMTAP	87	96	5
NMTAP	87	192	4
NMTAP	87	192	5
NMTAP	88	0	3
NMTAP	88	96	3
NMTAP	88	192	2
NMTAP	88	288	2
NMTAP	89	0	1
NMTAP	89	96	1
NMTAP	89	192	0
NMTAP	89	192	1
BRTAP	90	0	0
NMTAP	90	96	0
NMTAP	90	192	1
NMTAP	90	288	1
NMTAP	91	0	2
NMTAP	91	96	2
NMTAP	91	192	3
NMTAP	91	288	3
NMTAP	92	0	4
NMTAP	92	96	4
NMTAP	92	192	5
NMTAP	92	288	5
NMTAP	93	0	6
NMTAP	93	0	7
NMTAP	93	96	6
NMTAP	93	96	7
NMTAP	93	192	6
NMTAP	93	192	7
NMTAP	94	0	7
NMTAP	94	96	7
NMTAP	94	192	6
NMTAP	94	288	6
NMTAP	95	0	5
NMTAP	95	96	5
NMTAP	95	192	4
NMTAP	95	288	4
NMTAP	96	0	3
NMTAP	96	96	3
NMTAP	96	192	2
NMTAP	96	288	2
NMTAP	97	0	0
NMTAP	97	0	1
NMTAP	97	96	0
NMTAP	97	96	1
NMTAP	97	192	0
NMTAP	97	192	1
BRTAP	98	0	1
NMTAP	98	96	1
NMTAP	98	192	2
NMTAP	98	288	2
NMTAP	99	0	3
NMTAP	99	96	3
NMTAP	99	192	4
NMTAP	99	288	4
NMTAP	100	0	5
NMTAP	100	96	5
NMTAP	100	192	6
NMTAP	100	288	6
NMTAP	101	0	0
NMTAP	101	0	7
NMTAP	101	96	0
NMTAP	101	96	7
NMTAP	101	192	0
NMTAP	101	192	7
NMTAP	102	0	0
NMTAP	102	0	1
NMTAP	102	96	0
NMTAP	102	96	1
NMTAP	102	192	0
NMTAP	102	192	1
NMTAP	103	0	6
NMTAP	103	0	7
NMTAP	103	96	6
NMTAP	103	96	7
NMTAP	103	192	6
NMTAP	103	192	7
NMTAP	104	0	0
NMTAP	104	96	0
NMTAP	104	192	7
NMTAP	104	288	7
NMTAP	105	0	0
NMTAP	105	0	7
NMSTR	106	0	7
NMSI_	106	0	7	96	288	3
NMSTR	108	0	1
NMSI_	108	0	1	96	288	5
NMSTR	110	0	6
NMSI_	110	0	6	96	288	2
NMSTR	112	0	0
NMSI_	112	0	0	96	288	4

T_REC_TAP	235
T_REC_BRK	8
T_REC_XTP	8
T_REC_BXX	0
T_REC_HLD	8
T_REC_XHO	2
T_REC_BHO	0
T_REC_BXH	0
T_REC_STR	4
T_REC_BST	0
T_REC_XST	0
T_REC_XBS	0
T_REC_TTP	8
T_REC_THO	1
T_REC_SLD	4
T_REC_BSL	0
T_REC_ALL	278
T_NUM_TAP	255
T_NUM_BRK	8
T_NUM_HLD	11
T_NUM_SLD	4
T_NUM_ALL	278
T_JUDGE_TAP	263
T_JUDGE_HLD	88
T_JUDGE_SLD	4
T_JUDGE_ALL	355
TTM_EACHPAIRS	45
TTM_SCR_TAP	127500
TTM_SCR_BRK	20800
TTM_SCR_HLD	11000
TTM_SCR_SLD	6000
TTM_SCR_ALL	165300
TTM_SCR_S	159600
TTM_SCR_SS	164500
TTM_RAT_ACV	10048

