VERSION	0.00.00	1.04.00
FES_MODE	0
BPM_DEF	170.000	170.000	170.000	170.000
MET_DEF	4	4
RESOLUTION	384
CLK_DEF	384
COMPATIBLE_CODE	MA2

BPM	0	0	170.000
MET	0	0	4	4

NMSTR	2	0	2
NMSI_	2	0	2	96	240	6
NMHLD	2	0	4	1344
CNSI_	2	336	6	0	144	0
CNSI_	3	96	0	0	240	4
CNSCR	3	336	4	0	624	3
NMTAP	6	0	4
NMTAP	6	96	4
NMTAP	6	192	2
NMTAP	6	288	2
NMTAP	7	0	5
NMTAP	7	96	5
NMTAP	7	192	3
NMTAP	7	288	2
NMTAP	7	288	5
NMTAP	8	0	3
NMTAP	8	24	4
NMTAP	8	48	3
NMTAP	8	72	4
NMTAP	8	96	3
NMTAP	8	120	4
NMTAP	8	144	3
NMTAP	8	168	4
NMTAP	8	192	3
NMTAP	8	216	4
NMTAP	8	240	3
NMTAP	8	264	4
NMTAP	8	288	2
NMTAP	8	312	5
NMTAP	8	336	2
NMTAP	8	360	5
BRTAP	9	0	0
NMTAP	9	72	2
NMTAP	9	72	3
NMSTR	9	144	3
NMSXR	9	144	3	96	96	2
NMSTR	9	144	7
NMSXR	9	144	7	96	96	6
NMHLD	10	0	1	96
NMHLD	10	0	5	96
NMTAP	10	192	0
NMTAP	10	192	6
NMTAP	10	264	2
NMTAP	10	264	4
NMTAP	10	336	1
NMTAP	10	336	5
BRSTR	11	0	1
NMSI_	11	0	1	96	48	6
BRTAP	11	0	5
NMTAP	11	96	5
NMSTR	11	144	5
NMSI_	11	144	5	96	48	2
NMTAP	11	240	0
NMSTR	11	288	0
NMSI_	11	288	0	96	48	4
NMSTR	12	0	6
NMSCR	12	0	6	96	48	1
NMTAP	12	96	2
NMSTR	12	144	2
NMSCR	12	144	2	96	48	5
NMTAP	12	240	7
NMTAP	12	288	7
NMHLD	12	336	7	96
NMTAP	13	48	5
NMTAP	13	96	4
NMSTR	13	144	3
NMSI_	13	144	3	96	48	7
NMTAP	13	192	2
NMTAP	13	240	1
NMTAP	13	336	6
NMHLD	14	0	6	96
NMTAP	14	96	4
NMHLD	14	144	4	96
NMTAP	14	240	3
NMHLD	14	288	3	96
NMTAP	15	0	1
NMHLD	15	48	1	96
NMTAP	15	144	7
NMTAP	15	192	7
NMTAP	15	288	0
NMTAP	15	288	6
BRTAP	15	336	0
BRTAP	15	336	6
NMTAP	16	48	2
NMTAP	16	96	3
NMTAP	16	144	4
NMSTR	16	192	3
NMSI_	16	192	3	96	48	0
NMSTR	16	192	5
NMSI_	16	192	5	96	48	0
NMTAP	17	0	1
NMTAP	17	0	7
BRTAP	17	48	1
BRTAP	17	48	7
BRTAP	17	120	3
BRTAP	17	120	4
BRTAP	17	192	1
BRTAP	17	192	5
NMTAP	18	0	2
NMTAP	18	0	3
NMTAP	18	48	1
NMTAP	18	48	4
NMTAP	18	96	3
NMTAP	18	120	2
NMTAP	18	144	4
NMTAP	18	192	2
NMTAP	18	192	3
NMTAP	18	240	1
NMTAP	18	240	4
NMTAP	18	288	3
NMTAP	18	312	2
NMTAP	18	336	4
NMTAP	19	0	2
NMTAP	19	0	3
NMTAP	19	48	1
NMTAP	19	48	4
NMTAP	19	96	3
NMTAP	19	120	2
NMTAP	19	144	4
NMSTR	19	192	2
NMSI_	19	192	2	96	48	4
NMTAP	19	192	3
NMTAP	19	288	4
NMTAP	20	0	4
NMTAP	20	0	5
NMTAP	20	48	3
NMTAP	20	48	6
NMTAP	20	96	4
NMTAP	20	120	5
NMTAP	20	144	3
NMTAP	20	192	4
NMTAP	20	192	5
NMTAP	20	240	3
NMTAP	20	240	6
NMTAP	20	288	4
NMTAP	20	312	5
NMTAP	20	336	3
NMTAP	21	0	4
EXTAP	21	0	6
NMTAP	21	96	0
EXTAP	21	96	7
NMTAP	21	192	1
EXTAP	21	192	3
NMTAP	21	288	3
EXTAP	21	288	4
NMTAP	22	0	4
NMTAP	22	0	6
NMTAP	22	48	3
NMTAP	22	48	5
NMTAP	22	96	2
NMTAP	22	120	2
NMTAP	22	144	4
NMTAP	22	192	1
NMTAP	22	192	3
NMTAP	22	240	2
NMTAP	22	240	4
NMTAP	22	288	5
NMTAP	22	312	5
NMTAP	22	336	3
NMTAP	23	0	4
NMTAP	23	0	6
NMTAP	23	48	3
NMTAP	23	48	5
NMTAP	23	96	2
NMTAP	23	120	2
NMTAP	23	144	4
NMTAP	23	192	2
NMTAP	23	192	4
NMTAP	23	264	0
NMTAP	23	264	6
NMTAP	23	336	1
NMTAP	23	336	5
BRSTR	24	0	1
NMSXR	24	0	1	96	192	6
BRHLD	24	0	5	1056
NMSTR	25	0	6
NMSXR	25	0	6	96	192	0
NMSTR	26	0	0
NMSCR	26	0	0	96	192	7
NMTAP	27	0	6
NMTAP	27	0	7
NMTAP	27	24	6
NMTAP	27	24	7
NMTAP	27	72	4
NMTAP	27	72	5
NMTAP	27	120	2
NMTAP	27	120	3
NMTAP	27	168	1
NMTAP	27	168	5
NMSTR	27	192	1
NMSI_	27	192	1	96	48	3
NMSTR	27	192	5
NMSV_	27	192	5	96	48	0
BRTAP	27	288	1
BRTAP	27	288	5
NMTAP	28	0	2
NMTAP	28	0	7
NMTAP	28	48	6
NMHLD	28	72	6	216
NMTAP	28	144	0
NMTAP	28	192	7
NMTAP	28	240	5
NMSTR	28	288	4
NMSI_	28	288	4	96	48	0
NMTAP	29	0	4
NMSTR	29	0	6
NMSI_	29	0	6	96	48	2
NMSTR	29	96	6
NMSCR	29	96	6	96	96	2
NMTAP	29	96	7
NMTAP	29	192	2
NMTAP	29	216	3
NMTAP	29	240	4
NMTAP	29	264	5
NMTAP	29	288	6
NMTAP	30	0	1
NMTAP	30	0	7
NMTAP	30	48	2
NMHLD	30	72	2	216
NMTAP	30	144	7
NMTAP	30	192	0
NMTAP	30	240	1
NMSTR	30	288	3
NMSUR	30	288	3	96	48	7
NMSTR	31	0	1
NMSUR	31	0	1	96	48	5
NMTAP	31	0	3
NMTAP	31	96	0
NMTAP	31	96	1
NMTAP	31	192	7
NMTAP	31	216	6
NMTAP	31	240	5
NMTAP	31	264	4
NMTAP	31	288	6
NMTAP	31	312	5
NMTAP	31	336	4
NMTAP	31	360	3
NMTAP	32	0	2
NMTAP	32	0	6
NMTAP	32	48	5
NMHLD	32	72	5	168
NMTAP	32	144	3
NMTAP	32	192	4
NMSTR	32	240	6
NMSXR	32	240	6	96	168	7
NMTAP	32	288	7
NMTAP	32	336	0
NMTAP	33	0	1
NMTAP	33	96	0
NMTAP	33	192	7
NMTAP	33	288	1
NMTAP	33	288	7
NMTAP	33	336	2
NMTAP	34	0	3
NMTAP	34	0	6
NMTAP	34	48	5
NMTAP	34	72	4
NMTAP	34	120	2
NMTAP	34	144	3
NMTAP	34	192	2
NMTAP	34	192	4
NMTAP	34	240	3
NMTAP	34	288	3
NMTAP	34	288	5
NMTAP	34	336	4
NMTAP	35	0	3
NMTAP	35	0	4
NMTAP	35	24	2
NMTAP	35	48	1
NMTAP	35	72	0
NMTAP	35	96	3
NMTAP	35	96	7
NMTAP	35	120	4
NMTAP	35	144	5
NMTAP	35	168	6
NMSTR	35	192	2
NMSCL	35	192	2	96	48	7
NMSTR	35	192	7
NMSV_	35	192	7	96	48	4
BRTAP	35	288	2
BRTAP	35	288	7
NMTAP	36	0	0
NMTAP	36	0	5
NMTAP	36	48	1
NMHLD	36	72	1	216
NMTAP	36	144	7
NMTAP	36	192	0
NMTAP	36	240	2
NMSTR	36	288	3
NMSI_	36	288	3	96	48	7
NMSTR	37	0	1
NMSI_	37	0	1	96	48	5
NMTAP	37	0	3
NMTAP	37	96	0
NMSTR	37	96	1
NMSCL	37	96	1	96	96	5
NMTAP	37	192	5
NMTAP	37	216	4
NMTAP	37	240	3
NMTAP	37	264	2
NMTAP	37	288	1
NMTAP	38	0	2
NMTAP	38	0	6
NMTAP	38	48	5
NMHLD	38	72	5	216
NMTAP	38	144	3
NMTAP	38	192	4
NMTAP	38	240	6
NMSTR	38	288	7
NMSI_	38	288	7	96	48	1
NMSI_	38	288	7	96	48	2
BRSTR	39	0	7
NMSI_	39	0	7	96	48	4
NMSI_	39	0	7	96	48	5
BRSTR	39	96	7
NMSF_	39	96	7	96	48	3
BRTAP	39	192	7
NMTAP	39	288	1
NMTAP	39	288	5
NMHLD	40	0	6	72
NMHLD	40	72	4	72
NMTAP	40	144	3
NMTAP	40	192	3
NMTAP	40	240	1
NMTAP	40	288	1
NMTAP	40	336	7
NMTAP	41	0	0
NMTAP	41	0	6
NMTAP	41	72	2
NMTAP	41	72	3
NMTAP	41	144	3
NMTAP	41	144	7
NMTAP	41	192	3
NMTAP	41	192	7
NMSTR	41	288	1
NMSCR	41	288	1	96	16	2
NMSTR	41	288	5
NMSV_	41	288	5	96	48	0
NMTAP	42	0	1
NMTAP	42	0	5
CNSI_	42	16	2	0	32	4
NMSTR	42	96	2
NMSV_	42	96	2	96	48	7
NMSTR	42	96	6
NMSCL	42	96	6	96	16	5
NMTAP	42	192	2
NMTAP	42	192	6
CNSI_	42	208	5	0	32	3
BRTAP	42	288	1
BRTAP	42	288	5
NMHLD	43	0	2	72
NMHLD	43	0	4	72
NMHLD	43	144	3	72
NMHLD	43	144	5	72
NMHLD	43	288	1	72
NMHLD	43	288	3	72
NMHLD	44	48	4	72
NMHLD	44	48	6	72
NMSTR	44	192	4
NMSCL	44	192	4	96	48	2
NMSTR	44	192	6
NMSCL	44	192	6	96	48	4
NMHLD	45	0	1	72
NMHLD	45	72	3	72
NMTTP	45	144	1	E	0	M1
NMTTP	45	168	2	E	0	M1
NMTTP	45	192	3	E	0	M1
NMHLD	45	288	5	72
NMHLD	45	360	4	72
NMSTR	46	48	6
NMSUL	46	48	6	96	192	3
EXSTR	46	192	1
BRSI_	46	192	1	96	48	4
EXTAP	46	288	1
BRTAP	47	0	0
BRTAP	47	0	5
NMTAP	47	48	6
NMTAP	47	72	7
NMTAP	47	120	1
NMTAP	47	144	0
NMTAP	47	192	2
NMTAP	47	192	3
NMTAP	47	240	2
NMTAP	47	240	3
NMTAP	47	288	1
NMTAP	47	312	0
NMTAP	47	360	6
NMTAP	47	360	7
NMHLD	48	48	5	48
NMTAP	48	96	4
NMTAP	48	120	4
NMTAP	48	168	3
NMTAP	48	168	6
NMTAP	48	240	2
NMTAP	48	264	3
NMTAP	48	288	2
NMTAP	48	312	3
NMTAP	48	360	0
NMTAP	48	360	1
NMTAP	49	0	7
NMTAP	49	24	6
NMTAP	49	48	5
NMTAP	49	72	4
NMTAP	49	96	0
NMTAP	49	120	1
NMTAP	49	144	2
NMTAP	49	168	6
NMTAP	49	192	5
NMTAP	49	216	4
NMTAP	49	240	1
NMTAP	49	264	2
NMTAP	49	288	3
NMTAP	49	312	7
NMTAP	49	336	6
NMTAP	49	360	5
NMHLD	50	0	0	48
NMTAP	50	48	7
NMTAP	50	72	7
NMTAP	50	120	0
NMTAP	50	120	6
BRSTR	50	168	1
NMSI_	50	168	1	96	48	5
BRTAP	50	168	5
NMTAP	50	264	7
NMTAP	50	336	6
NMTAP	51	0	4
NMTAP	51	0	6
NMTAP	51	48	5
NMTAP	51	72	4
NMTAP	51	120	2
NMTAP	51	144	3
NMTAP	51	192	1
NMTAP	51	192	3
NMTAP	51	240	2
NMTAP	51	288	4
NMTAP	51	288	6
NMTAP	51	336	5
NMTAP	52	0	3
NMTAP	52	0	4
NMTAP	52	24	5
NMTAP	52	48	6
NMTAP	52	72	7
NMTAP	52	96	0
NMTAP	52	96	1
NMTAP	52	120	2
NMTAP	52	144	3
NMTAP	52	168	4
NMTAP	52	192	5
NMTAP	52	192	6
NMTAP	52	240	5
NMTAP	52	240	6
NMTAP	52	312	4
NMTAP	52	312	7
NMTAP	53	0	2
NMHLD	53	24	2	48
NMHLD	53	72	1	48
NMHLD	53	120	0	48
NMHLD	53	168	7	48
NMHLD	53	216	6	48
NMHLD	53	264	5	48
NMTAP	53	312	4
NMTAP	53	360	6
NMTAP	54	0	3
NMTAP	54	24	2
NMTAP	54	48	1
NMTAP	54	72	5
NMTAP	54	96	6
NMTAP	54	120	7
NMTAP	54	144	2
NMTAP	54	168	1
NMTAP	54	192	0
NMTAP	54	216	4
NMTAP	54	240	5
NMTAP	54	264	6
NMTAP	54	288	0
NMTAP	54	312	0
BRTAP	54	360	1
BRTAP	54	360	7
NMTAP	55	96	3
NMTAP	55	120	4
NMTAP	55	144	3
NMTAP	55	168	4
NMTAP	55	192	3
NMTAP	55	216	4
NMTAP	55	240	3
NMTAP	55	264	4
NMTAP	55	288	3
NMTAP	55	312	4
NMTAP	55	336	3
NMTAP	55	360	4
NMTAP	56	0	3
NMTAP	56	0	5
NMTAP	56	72	3
NMTAP	56	72	5
NMTAP	56	144	2
NMHLD	56	144	6	96
NMTAP	56	240	4
NMTAP	56	264	5
BXSTR	56	288	0
NMSCR	56	288	0	96	96	4
BXTAP	56	288	7
NMSTR	57	0	4
NMSCR	57	0	4	96	96	0
NMTAP	57	96	0
NMTAP	57	192	4
NMTAP	57	288	2
NMSTR	57	288	6
NMSLL	57	288	6	96	96	2
NMSTR	58	0	2
NMSLL	58	0	2	96	96	6
NMTAP	58	96	6
NMTAP	58	192	2
NMTAP	58	288	0
NMSTR	58	288	4
NMSCR	58	288	4	96	96	2
NMTAP	59	0	2
NMSTR	59	96	3
NMSLL	59	96	3	96	64	7
NMTAP	59	192	6
CNSI_	59	256	7	0	32	5
NMSTR	59	288	4
NMSF_	59	288	4	96	192	0
NMHLD	61	0	6	144
NMTAP	61	144	5
NMHLD	61	192	5	144
NMTAP	61	336	4
NMHLD	62	0	4	144
NMTAP	62	144	3
NMTAP	62	192	3
NMTAP	62	288	3
NMTAP	62	288	4
NMHLD	63	0	2	144
NMTAP	63	144	3
NMHLD	63	192	3	144
NMTAP	63	336	1
NMTAP	64	0	1
EXTAP	64	0	3
EXTAP	64	96	6
NMTAP	64	96	7
EXTAP	64	192	4
NMTAP	64	192	6
EXTAP	64	288	0
NMTAP	64	288	1
NMTAP	65	0	1
NMTAP	65	0	3
NMTAP	65	48	2
NMTAP	65	48	4
NMTAP	65	96	5
NMTAP	65	120	5
NMTAP	65	144	3
NMTAP	65	192	4
NMTAP	65	192	6
NMTAP	65	240	3
NMTAP	65	240	5
NMTAP	65	288	2
NMTAP	65	312	2
NMTAP	65	336	4
NMTAP	66	0	1
NMTAP	66	0	3
NMTAP	66	48	2
NMTAP	66	48	4
NMTAP	66	96	5
NMTAP	66	120	5
NMTAP	66	144	3
NMTAP	66	192	3
NMTAP	66	192	5
NMTAP	66	264	1
NMTAP	66	264	7
NMTAP	66	336	2
NMTAP	66	336	6
BRHLD	67	0	2	1056
BRSTR	67	0	6
NMSXL	67	0	6	96	192	1
NMSTR	68	0	1
NMSXL	68	0	1	96	192	7
NMSTR	69	0	7
NMSCL	69	0	7	96	192	0
NMTAP	70	0	0
NMTAP	70	0	1
NMTAP	70	24	0
NMTAP	70	24	1
NMTAP	70	72	2
NMTAP	70	72	3
NMTAP	70	120	4
NMTAP	70	120	5
NMTAP	70	168	6
NMTAP	70	168	7
NMSTR	70	192	6
NMSI_	70	192	6	96	48	2
NMSTR	70	192	7
NMSI_	70	192	7	96	48	3
BRTAP	70	288	6
BRTAP	70	288	7
NMTAP	71	0	1
NMHLD	71	0	4	576
NMTAP	72	48	1
NMTAP	72	120	5
NMSTR	72	192	7
NMSI_	72	192	7	96	48	3
NMTAP	72	216	0
NMTAP	72	240	1
NMTAP	72	264	2
NMTAP	72	288	3
BRTAP	72	288	7
NMTAP	73	0	1
NMTAP	73	0	5
NMTAP	73	48	6
NMHLD	73	72	6	216
NMTAP	73	144	3
NMTAP	73	192	4
NMTAP	73	240	5
NMSTR	73	288	7
NMSUR	73	288	7	96	48	3
NMSTR	74	0	5
NMSUR	74	0	5	96	48	1
NMTAP	74	0	7
NMTAP	74	96	4
NMTAP	74	96	5
NMTAP	74	192	3
NMTAP	74	216	2
NMTAP	74	240	1
NMTAP	74	264	0
NMTAP	74	288	2
NMTAP	74	312	1
NMTAP	74	336	0
NMTAP	74	360	7
NMTAP	75	0	2
NMTAP	75	0	6
NMTAP	75	48	1
NMHLD	75	72	1	168
NMTAP	75	144	7
NMTAP	75	192	0
NMSTR	75	240	2
NMSXR	75	240	2	96	168	3
NMTAP	75	288	3
NMTAP	75	336	4
NMTAP	76	0	5
NMTAP	76	96	4
NMTAP	76	192	3
NMTAP	76	288	3
NMTAP	76	288	5
NMTAP	76	336	6
NMTAP	77	0	2
NMTAP	77	0	7
NMTAP	77	48	1
NMTAP	77	72	0
NMTAP	77	120	6
NMTAP	77	144	7
NMTAP	77	192	0
NMTAP	77	192	6
NMTAP	77	240	7
NMTAP	77	288	1
NMTAP	77	288	7
NMTAP	77	336	0
NMTAP	78	0	0
NMTAP	78	0	7
NMTAP	78	24	6
NMTAP	78	48	5
NMTAP	78	72	4
NMTAP	78	96	3
NMTAP	78	96	7
NMTAP	78	120	0
NMTAP	78	144	1
NMTAP	78	168	2
NMSTR	78	192	3
NMSUR	78	192	3	96	48	0
NMSTR	78	192	7
NMSCL	78	192	7	96	48	4
BRTAP	78	288	3
BRTAP	78	288	7
NMTAP	79	0	1
NMTAP	79	0	5
NMTAP	79	48	2
NMHLD	79	72	2	216
NMTAP	79	144	4
NMTAP	79	192	3
NMTAP	79	240	1
NMSTR	79	288	0
NMSI_	79	288	0	96	48	4
NMTAP	80	0	0
NMSTR	80	0	2
NMSI_	80	0	2	96	48	6
NMSTR	80	96	2
NMSCR	80	96	2	96	96	6
NMTAP	80	96	3
NMTAP	80	192	6
NMTAP	80	216	7
NMTAP	80	240	0
NMTAP	80	264	1
NMTAP	80	288	2
NMTAP	81	0	1
NMTAP	81	0	5
NMTAP	81	48	6
NMHLD	81	72	6	216
NMTAP	81	144	0
NMTAP	81	192	7
NMTAP	81	240	5
NMSTR	81	288	4
NMSI_	81	288	4	96	48	2
NMSCL	81	288	4	96	48	1
BRSTR	82	0	4
NMSI_	82	0	4	96	48	6
NMSCR	82	0	4	96	48	7
BRSTR	82	96	4
NMSF_	82	96	4	96	48	0
BRTAP	82	192	4
NMTAP	82	288	1
NMTAP	82	288	7
NMHLD	83	0	2	72
NMHLD	83	72	0	72
NMTAP	83	144	7
NMTAP	83	192	7
NMTAP	83	240	5
NMTAP	83	288	5
NMTAP	83	336	4
NMTAP	84	0	3
NMTAP	84	0	5
NMTAP	84	72	6
NMTAP	84	72	7
NMTAP	84	144	0
NMTAP	84	144	4
NMTAP	84	192	0
NMTAP	84	192	4
NMSTR	84	288	2
NMSI_	84	288	2	96	48	6
NMSTR	84	288	3
NMSI_	84	288	3	96	48	7
NMTAP	85	0	2
NMTAP	85	0	3
NMSTR	85	96	4
NMSI_	85	96	4	96	48	0
NMSTR	85	96	5
NMSI_	85	96	5	96	48	1
NMTAP	85	192	4
NMTAP	85	192	5
NMSTR	85	288	2
NMSXR	85	288	2	96	192	7
NMSTR	85	288	3
NMSXL	85	288	3	96	192	6
NMTTP	86	0	2	A	0	M1
NMTTP	86	0	3	A	0	M1
NMTTP	86	0	3	D	1	M1
NMTAP	86	288	0
NMTAP	86	288	5
NMHLD	87	0	5	72
NMHLD	87	72	7	72
NMTAP	87	144	0
NMTAP	87	192	0
NMTAP	87	240	2
NMTAP	87	288	2
NMTAP	87	336	3
NMTAP	88	0	2
NMTAP	88	0	4
NMTAP	88	72	5
NMTAP	88	72	6
NMTAP	88	144	1
NMTAP	88	144	7
NMTAP	88	192	1
NMTAP	88	192	7
NMSTR	88	288	2
NMSCL	88	288	2	96	48	7
NMSTR	88	288	6
NMSUR	88	288	6	96	48	3
NMTAP	89	0	2
NMTAP	89	0	6
NMSTR	89	96	1
NMSUL	89	96	1	96	48	4
NMSTR	89	96	5
NMSCR	89	96	5	96	48	0
NMTAP	89	192	1
NMTAP	89	192	5
NMTAP	89	288	3
NMTAP	89	288	7
NMTAP	90	0	2
NMTAP	90	24	0
NMTAP	90	48	2
NMTAP	90	72	0
NMTAP	90	96	3
NMTAP	90	120	7
NMTAP	90	144	3
NMTAP	90	168	7
NMSTR	90	192	3
NMSI_	90	192	3	96	48	7
BRTAP	90	288	3
BRTAP	90	288	6
NMHLD	91	0	5	384
NMTAP	91	144	4
NMTAP	91	192	4
NMTAP	91	288	3
NMHLD	92	0	2	384
NMTAP	92	144	3
NMTAP	92	192	3
NMTAP	92	288	4
NMTTP	93	0	5	B	0	M1
NMTTP	93	0	5	A	0	M1
NMTTP	93	96	4	B	0	M1
NMTTP	93	96	4	A	0	M1
NMTTP	93	192	3	B	0	M1
NMTTP	93	192	3	A	0	M1
NMTTP	93	288	2	B	0	M1
NMTTP	93	288	2	A	0	M1
NMTTP	94	0	0	B	0	M1
NMTTP	94	0	0	C	0	M1
NMTTP	94	0	1	B	0	M1
NMTTP	94	0	6	B	0	M1
NMTTP	94	0	7	B	0	M1

T_REC_TAP	533
T_REC_BRK	30
T_REC_XTP	9
T_REC_BXX	1
T_REC_HLD	52
T_REC_XHO	0
T_REC_BHO	2
T_REC_BXH	0
T_REC_STR	65
T_REC_BST	8
T_REC_XST	1
T_REC_XBS	1
T_REC_TTP	19
T_REC_THO	0
T_REC_SLD	78
T_REC_BSL	1
T_REC_ALL	800
T_NUM_TAP	627
T_NUM_BRK	43
T_NUM_HLD	52
T_NUM_SLD	78
T_NUM_ALL	800
T_JUDGE_TAP	667
T_JUDGE_HLD	218
T_JUDGE_SLD	79
T_JUDGE_ALL	964
TTM_EACHPAIRS	166
TTM_SCR_TAP	313500
TTM_SCR_BRK	111800
TTM_SCR_HLD	52000
TTM_SCR_SLD	117000
TTM_SCR_ALL	594300
TTM_SCR_S	572300
TTM_SCR_SS	590000
TTM_RAT_ACV	10072

