VERSION	0.00.00	1.04.00
FES_MODE	0
BPM_DEF	170.000	170.000	170.000	170.000
MET_DEF	4	4
RESOLUTION	384
CLK_DEF	384
COMPATIBLE_CODE	MA2

BPM	0	0	170.000
MET	0	0	4	4

NMSTR	2	0	6
NMSXL	2	0	6	96	384	3
NMTAP	3	288	1
NMSTR	4	0	1
NMSXR	4	0	1	96	384	4
NMHLD	5	288	6	96
NMTAP	6	0	4
NMTAP	6	96	4
NMTAP	6	192	3
NMTAP	6	288	3
NMTAP	7	0	5
NMTAP	7	96	5
NMTAP	7	192	1
NMTAP	7	288	1
NMSTR	8	0	7
NMSCL	8	0	7	96	288	0
NMTTP	9	0	0	C	1	M1
BRTAP	10	0	0
BRTAP	10	0	1
NMSTR	10	96	0
NMSUR	10	96	0	96	96	5
NMSTR	10	96	1
NMSCR	10	96	1	96	96	4
NMTAP	11	0	6
NMTAP	11	0	7
NMTAP	11	96	5
NMHLD	11	144	5	96
NMTAP	11	240	4
NMTAP	11	336	2
NMHLD	12	0	2	96
NMTAP	12	96	3
NMTAP	12	144	3
NMTAP	12	240	1
NMHLD	12	288	1	96
NMTAP	13	0	0
NMTAP	13	96	2
NMTAP	13	96	3
NMTAP	13	192	4
NMTAP	13	192	5
NMTAP	13	288	6
NMTAP	13	288	7
NMSTR	14	0	0
NMSLR	14	0	0	96	144	4
NMSTR	15	0	7
NMSLL	15	0	7	96	144	3
NMTAP	16	0	1
NMTAP	16	48	1
NMTAP	16	96	0
NMTAP	16	192	6
NMTAP	16	240	6
NMTAP	16	288	7
NMTAP	17	0	0
NMTAP	17	0	7
NMTAP	17	48	0
NMTAP	17	48	7
NMTAP	17	120	1
NMTAP	17	120	6
NMHLD	17	192	2	96
NMHLD	17	192	5	96
NMSTR	18	0	6
NMSI_	18	0	6	96	48	2
NMSTR	18	192	1
NMSI_	18	192	1	96	48	5
NMTAP	19	0	6
NMSTR	19	96	7
NMSUL	19	96	7	96	96	3
NMTAP	19	288	2
NMSTR	20	0	1
NMSI_	20	0	1	96	48	5
NMSTR	20	192	6
NMSI_	20	192	6	96	48	2
NMHLD	21	0	1	96
NMHLD	21	96	3	96
NMHLD	21	192	4	96
NMTAP	21	288	6
NMSTR	22	0	7
NMSCL	22	0	7	96	96	4
NMSTR	22	192	3
NMSCL	22	192	3	96	96	0
NMTAP	23	0	7
NMTAP	23	96	4
NMTAP	23	96	6
NMTAP	23	192	3
NMTAP	23	192	4
NMTAP	23	288	1
NMTAP	23	288	3
NMSTR	24	0	0
NMSXL	24	0	0	96	288	4
NMHLD	25	0	5	192
NMHLD	25	192	7	192
NMHLD	26	0	1	192
NMTAP	26	192	3
NMTAP	26	288	2
NMTAP	26	288	5
NMTAP	27	0	3
NMTAP	27	24	4
NMTAP	27	72	2
NMTAP	27	72	5
NMTAP	27	120	2
NMTAP	27	120	5
NMTAP	27	168	3
NMTAP	27	192	4
BXTAP	27	288	1
BXTAP	27	288	6
NMTAP	28	0	0
NMTAP	28	0	1
NMTAP	28	48	0
NMTAP	28	48	1
NMTAP	28	144	2
NMTAP	28	144	3
NMTAP	28	192	2
NMTAP	28	192	3
NMTAP	28	288	5
NMTAP	28	336	5
NMTAP	29	0	4
NMSTR	29	96	3
NMSI_	29	96	3	96	48	7
NMTAP	29	96	6
BXTAP	29	288	0
BXTAP	29	288	5
NMTAP	30	0	6
NMTAP	30	0	7
NMTAP	30	48	6
NMTAP	30	48	7
NMTAP	30	144	4
NMTAP	30	144	5
NMTAP	30	192	4
NMTAP	30	192	5
NMTAP	30	288	2
NMTAP	30	336	2
NMTAP	31	0	3
NMTAP	31	96	1
NMSTR	31	96	4
NMSI_	31	96	4	96	48	0
NMHLD	31	288	2	96
NMHLD	32	0	0	96
NMHLD	32	96	7	96
NMHLD	32	192	5	96
NMTAP	32	288	4
NMTAP	33	0	3
NMTAP	33	0	6
NMTAP	33	96	2
NMTAP	33	96	3
NMTAP	33	192	1
NMTAP	33	192	4
NMHLD	33	288	5	96
NMHLD	34	0	7	96
NMHLD	34	96	0	96
NMHLD	34	192	2	96
NMSTR	34	288	3
NMSLL	34	288	3	96	192	7
NMSLR	34	288	3	96	192	7
BRTAP	35	288	0
BRTAP	35	288	6
NMTAP	36	0	6
NMTAP	36	0	7
NMTAP	36	48	6
NMTAP	36	48	7
NMTAP	36	144	4
NMTAP	36	144	5
NMTAP	36	192	4
NMTAP	36	192	5
NMTAP	36	288	2
NMTAP	36	336	2
NMTAP	37	0	3
NMTAP	37	96	1
NMSTR	37	96	4
NMSI_	37	96	4	96	48	0
BXTAP	37	288	2
BXTAP	37	288	7
NMTAP	38	0	0
NMTAP	38	0	1
NMTAP	38	48	0
NMTAP	38	48	1
NMTAP	38	144	2
NMTAP	38	144	3
NMTAP	38	192	2
NMTAP	38	192	3
NMTAP	38	288	3
NMTAP	38	288	4
BRTAP	39	0	4
BRTAP	39	0	6
BRTAP	39	96	1
BRTAP	39	96	3
BRTAP	39	192	0
BRTAP	39	192	7
NMHLD	39	288	5	96
NMHLD	40	0	7	96
NMHLD	40	96	0	96
NMHLD	40	192	2	96
NMTAP	40	288	3
NMSTR	41	0	5
NMSCL	41	0	5	96	96	2
NMSTR	41	192	1
NMSCL	41	192	1	96	96	6
NMHLD	42	0	5	96
NMHLD	42	96	7	96
NMHLD	42	192	0	96
NMSTR	42	288	2
NMSI_	42	288	2	96	96	5
CNSI_	43	96	5	0	96	1
CNSI_	43	192	1	0	96	6
NMTAP	44	192	0
NMTAP	44	192	7
NMTAP	44	240	0
NMTAP	44	240	7
NMTAP	44	288	1
NMTAP	44	288	6
NMHLD	45	0	3	144
NMSTR	45	0	5
NMSI_	45	0	5	96	96	0
NMSTR	45	288	2
NMSI_	45	288	2	96	96	7
NMHLD	45	288	4	144
NMTAP	46	192	3
NMTAP	46	192	5
NMTAP	46	288	2
NMTAP	46	288	4
NMHLD	47	0	1	72
NMHLD	47	72	2	72
NMTAP	47	144	3
NMTAP	47	240	4
NMTAP	47	240	5
NMTAP	47	288	4
NMTAP	47	288	5
EXTAP	48	0	6
EXTAP	48	48	6
NMTAP	48	96	0
NMTAP	48	144	0
NMTAP	48	192	7
NMTAP	48	240	7
NMTAP	48	288	1
NMTAP	48	336	1
NMTAP	49	0	0
NMTAP	49	0	1
NMTAP	49	96	6
NMTAP	49	96	7
NMTAP	49	192	0
NMTAP	49	192	2
NMTAP	49	288	5
NMTAP	49	288	7
NMTAP	50	0	1
NMTAP	50	0	3
NMTAP	50	96	4
NMTAP	50	96	5
NMHLD	50	192	6	72
NMHLD	50	264	5	72
NMTAP	50	336	4
NMHLD	51	0	1	72
NMHLD	51	72	2	72
NMTAP	51	144	3
NMSTR	51	192	3
NMSCL	51	192	3	96	240	4
NMTTP	51	288	0	C	1	M1
EXTAP	52	288	0
EXTAP	52	288	7
NMTAP	53	0	6
NMTAP	53	48	6
NMTAP	53	96	4
NMTAP	53	144	4
NMTAP	53	192	5
NMTAP	53	240	5
NMTAP	53	288	1
NMTAP	53	336	1
NMTAP	54	0	3
NMTAP	54	48	3
NMTAP	54	96	0
NMTAP	54	144	0
NMTAP	54	192	7
NMTAP	54	240	7
NMSTR	54	288	2
NMSUR	54	288	2	96	288	5
NMTAP	56	0	6
NMTAP	56	0	7
NMTAP	56	72	0
NMTAP	56	72	5
NMHLD	56	144	1	96
NMHLD	56	144	4	96
BRTAP	56	288	2
BRTAP	56	288	3
NMHLD	57	0	1	384
NMTTP	57	96	1	E	0	M1
NMTTP	57	192	2	E	0	M1
NMTTP	57	288	3	E	0	M1
NMHLD	58	0	6	384
NMTTP	58	96	7	E	0	M1
NMTTP	58	192	6	E	0	M1
NMTTP	58	288	5	E	0	M1
NMSTR	59	0	1
NMSV_	59	0	1	96	96	4
NMSTR	59	192	5
NMSV_	59	192	5	96	96	0
NMHLD	60	0	1	192
NMTAP	60	336	2
NMTAP	60	336	3
NMHLD	61	0	2	72
NMHLD	61	0	3	72
NMTAP	61	144	3
NMTAP	61	144	4
NMHLD	61	192	3	72
NMHLD	61	192	4	72
NMTAP	61	336	4
NMTAP	61	336	5
NMHLD	62	0	4	72
NMHLD	62	0	5	72
NMTAP	62	144	4
NMTAP	62	144	5
NMTAP	62	192	4
NMTAP	62	192	5
NMTAP	62	288	6
NMTAP	62	336	6
NMHLD	63	0	4	72
NMHLD	63	0	5	72
NMTAP	63	144	3
NMTAP	63	144	4
NMHLD	63	192	3	72
NMHLD	63	192	4	72
NMTAP	63	336	2
NMTAP	63	336	3
NMTAP	64	0	2
NMTAP	64	0	3
NMSTR	64	96	0
NMSI_	64	96	0	96	48	4
NMSTR	64	96	1
NMSI_	64	96	1	96	48	4
EXTAP	64	288	3
EXTAP	64	288	5
NMHLD	65	0	6	72
NMHLD	65	72	5	72
NMTAP	65	144	4
NMHLD	65	192	3	72
NMHLD	65	264	2	72
NMTAP	65	336	1
NMTAP	66	0	1
NMTAP	66	96	0
NMTAP	66	96	1
NMTAP	66	192	2
NMTAP	66	192	3
NMSTR	66	288	4
BRSI_	66	288	4	96	96	0
NMTAP	66	288	5
CNSI_	67	96	0	0	96	6
CNSI_	67	192	6	0	96	2
NMHLD	68	0	1	192
NMHLD	68	192	3	192
NMTAP	69	0	4
NMTAP	69	96	4
NMTAP	69	192	2
NMTAP	69	192	5
NMTAP	69	288	2
NMTAP	69	288	5
NMTAP	70	0	3
NMTAP	70	24	4
NMTAP	70	72	2
NMTAP	70	72	5
NMTAP	70	120	1
NMTAP	70	120	6
NMTAP	70	168	0
NMTAP	70	192	7
BRSTR	70	288	2
NMSLR	70	288	2	96	336	0
BRSTR	70	288	6
NMSLL	70	288	6	96	336	0
BXTAP	72	48	1
BXTAP	72	48	7
BXTAP	72	120	3
BXTAP	72	120	5
BXTAP	72	192	2
BXTAP	72	192	6
BRTAP	72	288	1
BRTAP	72	288	5
NMTAP	73	0	2
NMTAP	73	0	3
NMTAP	73	48	2
NMTAP	73	48	3
NMTAP	73	144	0
NMTAP	73	144	1
NMTAP	73	192	0
NMTAP	73	192	1
NMTAP	73	288	5
NMTAP	73	336	5
NMTAP	74	0	4
NMSTR	74	96	3
NMSI_	74	96	3	96	48	1
NMSTR	74	96	6
NMSI_	74	96	6	96	48	4
EXHLD	74	288	1	96
NMTAP	75	0	0
NMTAP	75	48	0
NMTAP	75	144	6
NMHLD	75	192	6	96
NMTAP	75	288	7
NMTAP	76	0	4
NMTAP	76	0	6
NMTAP	76	96	7
NMTAP	76	192	1
NMTAP	76	192	3
NMTAP	76	288	0
NMTAP	76	336	0
NMTAP	77	0	4
NMTAP	77	48	4
NMTAP	77	96	2
NMTAP	77	144	2
NMHLD	77	192	6	96
NMTAP	77	288	4
NMTTP	78	0	5	B	0	M1
NMTTP	78	0	5	E	0	M1
NMTTP	78	0	6	E	0	M1
NMTTP	78	96	2	B	0	M1
NMTTP	78	96	2	E	0	M1
NMTTP	78	96	3	E	0	M1
NMTTP	78	192	0	B	0	M1
NMTTP	78	192	0	E	1	M1
NMTTP	78	192	7	B	0	M1
NMTAP	79	0	4
NMTAP	79	0	5
NMTAP	79	48	4
NMTAP	79	48	5
NMTAP	79	144	6
NMTAP	79	144	7
NMTAP	79	192	6
NMTAP	79	192	7
NMTAP	79	288	2
NMTAP	79	336	2
NMTAP	80	0	3
NMSTR	80	96	0
NMSLR	80	96	0	96	96	4
NMTAP	80	96	7
NMTAP	80	288	5
NMTAP	81	0	2
NMTAP	81	0	3
NMTAP	81	48	2
NMTAP	81	48	3
NMTAP	81	144	0
NMTAP	81	144	1
NMTAP	81	192	0
NMTAP	81	192	1
NMTAP	81	288	4
NMTAP	81	288	5
BRTAP	82	0	0
BRTAP	82	0	2
BRTAP	82	96	4
BRTAP	82	96	6
BRTAP	82	192	0
BRTAP	82	192	7
NMSTR	82	288	0
NMSI_	82	288	0	96	48	4
NMSTR	82	288	1
NMSI_	82	288	1	96	48	4
NMSTR	83	96	6
NMSI_	83	96	6	96	48	3
NMSTR	83	96	7
NMSI_	83	96	7	96	48	3
NMTAP	83	288	0
NMTAP	83	288	1
BRTAP	84	0	0
BRTAP	84	0	1
BRTAP	84	96	4
BRTAP	84	96	5
BRTAP	84	192	6
BRTAP	84	192	7
BRTAP	84	288	2
BRTAP	84	288	3
NMHLD	85	0	1	96
NMHLD	85	96	3	96
NMHLD	85	192	4	96
NMSTR	85	288	6
BRSCR	85	288	6	96	240	4
NMTTP	86	0	0	C	1	M1
NMHLD	87	0	1	192
NMTAP	87	96	3
NMHLD	87	192	6	96
NMTAP	87	288	4
BRTAP	88	0	4
BRTAP	88	0	5
BRTAP	88	96	6
BRTAP	88	96	7
BRTAP	88	192	0
BRTAP	88	192	1
BRTAP	88	288	2
BRTAP	88	288	3
NMSTR	89	0	1
NMSCR	89	0	1	96	96	4
NMSTR	89	192	5
NMSCR	89	192	5	96	96	0
NMTAP	90	0	2
NMTAP	90	96	2
NMTAP	90	192	1
NMTAP	90	192	3
NMHLD	91	0	3	144
NMHLD	91	0	5	144
NMHLD	91	192	2	144
NMHLD	91	192	4	144
NMTAP	92	0	2
NMTAP	92	0	3
NMTAP	92	96	2
NMTAP	92	96	4
NMTAP	92	192	3
NMTAP	92	192	5
NMTAP	92	288	4
NMTAP	92	288	5
NMHLD	93	0	3	384
NMSTR	93	0	6
NMSLR	93	0	6	96	96	2
CNSI_	93	192	2	0	96	7
BRTAP	94	0	0

T_REC_TAP	270
T_REC_BRK	37
T_REC_XTP	6
T_REC_BXX	12
T_REC_HLD	68
T_REC_XHO	1
T_REC_BHO	0
T_REC_BXH	0
T_REC_STR	42
T_REC_BST	2
T_REC_XST	0
T_REC_XBS	0
T_REC_TTP	18
T_REC_THO	0
T_REC_SLD	43
T_REC_BSL	2
T_REC_ALL	501
T_NUM_TAP	336
T_NUM_BRK	53
T_NUM_HLD	69
T_NUM_SLD	43
T_NUM_ALL	501
T_JUDGE_TAP	387
T_JUDGE_HLD	176
T_JUDGE_SLD	45
T_JUDGE_ALL	608
TTM_EACHPAIRS	132
TTM_SCR_TAP	168000
TTM_SCR_BRK	137800
TTM_SCR_HLD	69000
TTM_SCR_SLD	64500
TTM_SCR_ALL	439300
TTM_SCR_S	421000
TTM_SCR_SS	434000
TTM_RAT_ACV	10122

