VERSION	0.00.00	1.04.00
FES_MODE	0
BPM_DEF	170.000	170.000	170.000	170.000
MET_DEF	4	4
RESOLUTION	384
CLK_DEF	384
COMPATIBLE_CODE	MA2

BPM	0	0	170.000
MET	0	0	4	4

NMHLD	2	0	2	192
NMHLD	2	192	3	192
NMHLD	3	0	4	192
NMTAP	3	192	5
NMHLD	4	0	5	192
NMHLD	4	192	4	192
NMHLD	5	0	3	192
NMTAP	5	192	2
NMHLD	6	0	1	192
NMHLD	6	192	2	192
NMHLD	7	0	3	192
NMTAP	7	192	4
NMHLD	8	0	6	192
NMHLD	8	192	5	192
NMHLD	9	0	4	192
NMTAP	9	192	3
NMTAP	10	0	5
NMTAP	10	96	5
NMTAP	10	192	4
NMTAP	10	192	5
NMTAP	11	0	6
NMTAP	11	96	6
NMTAP	11	192	6
NMTAP	11	192	7
NMTAP	12	0	0
NMTAP	12	96	0
NMTAP	12	192	0
NMTAP	12	192	1
NMTAP	13	0	2
NMTAP	13	0	3
NMTAP	13	96	2
NMTAP	13	96	3
NMTAP	13	192	2
NMTAP	13	192	3
NMTAP	14	0	2
NMTAP	14	96	2
NMTAP	14	192	2
NMTAP	14	192	3
NMTAP	15	0	1
NMTAP	15	96	1
NMTAP	15	192	0
NMTAP	15	192	1
NMTAP	16	0	7
NMTAP	16	96	7
NMTAP	16	192	6
NMTAP	16	192	7
NMTAP	17	0	4
NMTAP	17	0	5
NMTAP	17	96	4
NMTAP	17	96	5
NMTAP	17	192	4
NMTAP	17	192	5
NMTTP	18	0	6	B	0	L1
NMTTP	18	96	5	B	0	L1
NMTTP	18	192	4	B	0	L1
NMTTP	19	0	1	B	0	L1
NMTTP	19	96	2	B	0	L1
NMTTP	19	192	3	B	0	L1
NMTTP	20	0	6	B	0	L1
NMTTP	20	96	5	B	0	L1
NMTTP	20	192	4	B	0	L1
NMTTP	20	288	3	B	0	L1
NMTTP	21	0	2	B	0	L1
NMTTP	21	96	1	B	0	L1
NMTTP	21	192	0	C	0	L1
NMTTP	22	0	0	B	0	L1
NMTTP	22	96	1	B	0	L1
NMTTP	22	192	2	B	0	L1
NMTTP	22	192	3	B	0	L1
NMTTP	23	0	7	B	0	L1
NMTTP	23	96	6	B	0	L1
NMTTP	23	192	4	B	0	L1
NMTTP	23	192	5	B	0	L1
NMTTP	24	0	2	B	0	L1
NMTTP	24	0	3	E	0	L1
NMTTP	24	192	0	B	0	L1
NMTTP	24	192	1	E	0	L1
NMTTP	25	0	6	B	0	L1
NMTTP	25	0	7	E	0	L1
NMTTP	25	192	4	B	0	L1
NMTTP	25	192	5	E	0	L1
NMTHO	26	0	0	384	C	1	L1
EXTAP	28	0	1
EXTAP	28	96	1
NMTAP	28	192	0
NMTAP	28	192	1
NMTAP	28	288	0
NMTAP	28	288	1
NMTAP	29	0	7
NMTAP	29	96	7
NMTAP	29	192	6
NMTAP	29	192	7
NMTAP	30	0	5
NMTAP	30	96	5
NMTAP	30	192	6
NMTAP	30	192	7
NMTAP	30	288	6
NMTAP	30	288	7
NMTAP	31	0	0
NMTAP	31	96	0
NMTAP	31	192	0
NMTAP	31	192	1
NMTAP	32	0	1
NMTAP	32	96	1
NMTAP	32	192	2
NMTAP	32	192	3
NMTAP	32	288	2
NMTAP	32	288	3
NMTAP	33	0	4
NMTAP	33	96	4
NMTAP	33	192	4
NMTAP	33	192	5
NMTAP	34	0	6
NMTAP	34	96	6
NMTAP	34	192	4
NMTAP	34	192	5
NMTAP	34	288	4
NMTAP	34	288	5
NMTAP	35	0	3
NMTAP	35	96	3
BXTAP	35	192	2
BXTAP	35	192	3
NMTAP	36	0	1
NMTAP	36	96	1
NMTAP	36	192	1
NMTAP	36	288	0
NMTAP	36	288	1
NMTAP	37	0	2
NMTAP	37	96	2
NMTAP	37	192	2
NMTAP	37	288	2
NMTAP	37	288	3
NMTAP	38	0	4
NMTAP	38	96	4
NMTAP	38	192	4
NMTAP	38	288	4
NMTAP	38	288	5
NMTAP	39	0	6
NMTAP	39	0	7
NMTAP	39	96	6
NMTAP	39	96	7
NMTAP	39	192	6
NMTAP	39	192	7
NMTAP	40	0	7
NMTAP	40	96	6
NMTAP	40	192	5
NMTAP	40	288	4
NMTAP	41	0	3
NMTAP	41	96	2
NMTAP	41	192	0
NMTAP	41	192	1
NMTAP	42	0	0
NMTAP	42	96	1
NMTAP	42	192	2
NMTAP	42	288	3
NMTAP	43	0	4
NMTAP	43	96	5
NMTAP	43	192	6
NMTAP	43	192	7
NMTAP	44	0	0
NMTAP	44	0	7
NMTAP	44	96	0
NMTAP	44	96	7
NMTAP	44	192	0
NMTAP	44	192	7
NMTAP	45	0	0
NMTAP	45	0	1
NMTAP	45	96	0
NMTAP	45	96	1
NMTAP	45	192	0
NMTAP	45	192	1
NMTAP	46	0	6
NMTAP	46	0	7
NMTAP	46	96	6
NMTAP	46	96	7
NMTAP	46	192	6
NMTAP	46	192	7
NMTAP	47	0	5
NMTAP	47	96	5
NMTAP	47	192	5
NMTAP	47	288	5
NMTAP	48	0	6
NMTAP	48	96	6
NMTAP	48	192	6
NMTAP	48	288	6
NMTAP	49	0	7
NMTAP	49	96	7
NMTAP	49	192	7
NMTAP	49	288	7
NMTAP	50	0	0
NMTAP	50	0	1
NMTAP	51	0	2
NMTAP	51	96	2
NMTAP	51	192	2
NMTAP	51	288	2
NMTAP	52	0	1
NMTAP	52	96	1
NMTAP	52	192	1
NMTAP	52	288	1
NMTAP	53	0	0
NMTAP	53	96	0
NMTAP	53	192	0
NMTAP	53	288	0
NMTAP	54	0	6
NMTAP	54	0	7
NMHLD	55	0	5	192
NMTAP	55	192	4
NMTAP	56	0	5
NMTAP	56	96	5
NMTAP	56	192	4
NMTAP	56	192	5
NMHLD	57	0	2	192
NMTAP	57	192	3
NMTAP	58	0	2
NMTAP	58	96	2
NMTAP	58	192	2
NMTAP	58	192	3
NMHLD	59	0	4	192
NMTAP	59	192	3
BXTAP	60	0	3
BXTAP	60	0	4
NMSTR	61	0	2
NMSI_	61	0	2	96	192	5
NMSTR	62	0	6
NMSI_	62	0	6	96	192	3
NMSTR	63	0	1
NMSI_	63	0	1	96	192	4
NMSTR	64	0	5
NMSI_	64	0	5	96	192	0
NMSTR	65	0	1
NMSI_	65	0	1	96	192	5
NMSTR	66	0	7
NMSI_	66	0	7	96	192	3
NMSTR	67	0	1
NMSXR	67	0	1	96	480	4
NMSTR	69	0	6
NMSXL	69	0	6	96	480	3
NMTAP	71	0	2
NMTAP	71	96	2
NMTAP	71	192	0
NMTAP	71	192	1
NMTAP	71	288	0
NMTAP	71	288	1
NMTAP	72	0	7
NMTAP	72	96	7
NMTAP	72	192	6
NMTAP	72	192	7
NMTAP	73	0	5
NMTAP	73	48	5
NMTAP	73	96	5
NMTAP	73	192	6
NMTAP	73	192	7
NMTAP	73	288	6
NMTAP	73	288	7
NMTAP	74	0	0
NMTAP	74	48	0
NMTAP	74	96	0
NMTAP	74	192	0
NMTAP	74	192	1
NMTAP	75	0	1
NMTAP	75	48	1
NMTAP	75	96	1
NMTAP	75	192	2
NMTAP	75	192	3
NMTAP	75	288	2
NMTAP	75	288	3
NMTAP	76	0	4
NMTAP	76	48	4
NMTAP	76	96	4
NMTAP	76	192	4
NMTAP	76	192	5
NMTAP	77	0	6
NMTAP	77	48	6
NMTAP	77	96	6
NMTAP	77	192	4
NMTAP	77	192	5
NMTAP	77	288	4
NMTAP	77	288	5
NMTAP	78	0	3
NMTAP	78	48	3
NMTAP	78	96	3
EXTAP	78	192	2
EXTAP	78	192	3
NMTAP	79	0	2
NMTAP	79	48	2
NMTAP	79	96	2
NMTAP	79	192	0
NMTAP	79	192	1
NMTAP	79	288	0
NMTAP	79	288	1
NMTAP	80	0	7
NMTAP	80	48	7
NMTAP	80	96	7
NMTAP	80	192	6
NMTAP	80	192	7
NMTAP	80	288	6
NMTAP	80	288	7
NMTAP	81	0	5
NMTAP	81	48	5
NMTAP	81	96	5
NMTAP	81	192	6
NMTAP	81	192	7
NMTAP	81	288	6
NMTAP	81	288	7
NMTAP	82	0	0
NMTAP	82	48	0
NMTAP	82	96	0
BRTAP	82	192	0
BRTAP	82	192	1
NMTAP	83	0	1
NMTAP	83	48	1
NMTAP	83	96	1
NMTAP	83	192	2
NMTAP	83	192	3
NMTAP	83	288	2
NMTAP	83	288	3
NMTAP	84	0	4
NMTAP	84	48	4
NMTAP	84	96	4
NMTAP	84	192	4
NMTAP	84	192	5
NMTAP	84	288	4
NMTAP	84	288	5
NMTAP	85	0	6
NMTAP	85	48	6
NMTAP	85	96	6
NMTAP	85	192	4
NMTAP	85	192	5
NMTAP	85	288	4
NMTAP	85	288	5
NMTAP	86	0	3
NMTAP	86	48	3
NMTAP	86	96	3
NMTAP	86	192	2
NMTAP	86	192	3
NMTAP	87	0	2
NMTAP	87	48	2
NMTAP	87	96	2
NMTAP	87	192	1
NMTAP	87	240	1
NMTAP	87	288	1
NMTAP	88	0	0
NMTAP	88	48	0
NMTAP	88	96	0
NMTAP	88	192	6
NMTAP	88	192	7
NMTAP	89	0	5
NMTAP	89	48	5
NMTAP	89	96	5
NMTAP	89	192	6
NMTAP	89	240	6
NMTAP	89	288	6
NMTAP	90	0	7
NMTAP	90	48	7
NMTAP	90	96	7
NMTAP	90	192	0
NMTAP	90	192	1
EXSTR	91	0	0
NMSI_	91	0	0	96	192	5
EXSTR	91	0	1
NMSI_	91	0	1	96	192	4
EXSTR	92	0	6
NMSI_	92	0	6	96	192	3
EXSTR	92	0	7
NMSI_	92	0	7	96	192	2
EXSTR	93	0	0
NMSI_	93	0	0	96	192	5
EXSTR	93	0	1
NMSI_	93	0	1	96	192	4
EXTAP	94	0	6
EXTAP	94	0	7

T_REC_TAP	286
T_REC_BRK	2
T_REC_XTP	6
T_REC_BXX	4
T_REC_HLD	15
T_REC_XHO	0
T_REC_BHO	0
T_REC_BXH	0
T_REC_STR	8
T_REC_BST	0
T_REC_XST	6
T_REC_XBS	0
T_REC_TTP	29
T_REC_THO	1
T_REC_SLD	14
T_REC_BSL	0
T_REC_ALL	371
T_NUM_TAP	335
T_NUM_BRK	6
T_NUM_HLD	16
T_NUM_SLD	14
T_NUM_ALL	371
T_JUDGE_TAP	341
T_JUDGE_HLD	68
T_JUDGE_SLD	14
T_JUDGE_ALL	423
TTM_EACHPAIRS	78
TTM_SCR_TAP	167500
TTM_SCR_BRK	15600
TTM_SCR_HLD	16000
TTM_SCR_SLD	21000
TTM_SCR_ALL	220100
TTM_SCR_S	212950
TTM_SCR_SS	219500
TTM_RAT_ACV	10027

