VERSION	0.00.00	1.04.00
FES_MODE	0
BPM_DEF	170.000	170.000	170.000	170.000
MET_DEF	4	4
RESOLUTION	384
CLK_DEF	384
COMPATIBLE_CODE	MA2

BPM	0	0	170.000
MET	0	0	4	4

NMTAP	2	0	0
NMTAP	3	0	0
NMTAP	4	0	7
NMTAP	5	0	7
NMTAP	6	0	0
NMTAP	6	192	0
NMTAP	7	0	0
NMTAP	8	0	7
NMTAP	8	192	7
NMTAP	9	0	0
NMTAP	9	0	7
NMTAP	10	0	0
NMTAP	10	192	0
NMTAP	11	0	1
NMTAP	11	192	1
NMTAP	12	0	2
NMTAP	12	192	2
NMTAP	13	0	3
NMTAP	13	0	4
NMTAP	14	0	4
NMTAP	14	192	4
NMTAP	15	0	5
NMTAP	15	192	5
NMTAP	16	0	6
NMTAP	16	192	6
BRTAP	17	0	0
BRTAP	17	0	7
NMSTR	18	0	6
NMSI_	18	0	6	96	288	2
NMSTR	20	0	0
NMSI_	20	0	0	96	288	4
NMSTR	22	0	7
NMSI_	22	0	7	96	288	3
NMSTR	24	0	1
NMSI_	24	0	1	96	288	5
NMSTR	26	0	6
NMSI_	26	0	6	96	288	2
NMTAP	28	0	0
NMTAP	28	96	0
NMTAP	28	192	0
NMTAP	29	0	1
NMTAP	29	96	1
NMTAP	29	192	1
NMTAP	30	0	2
NMTAP	30	96	2
NMTAP	30	192	2
NMTAP	31	0	2
NMTAP	31	0	3
NMTAP	32	0	4
NMTAP	32	96	4
NMTAP	32	192	4
NMTAP	33	0	5
NMTAP	33	96	5
NMTAP	33	192	5
NMTAP	34	0	6
NMTAP	34	96	6
NMTAP	34	192	6
EXTAP	35	0	6
EXTAP	35	0	7
NMTAP	36	0	7
NMTAP	36	96	7
NMTAP	36	192	7
NMTAP	37	0	6
NMTAP	37	96	6
NMTAP	37	192	6
NMTAP	38	0	5
NMTAP	38	96	5
NMTAP	38	192	5
NMTAP	39	0	4
NMTAP	39	96	4
NMTAP	39	192	3
NMTAP	39	192	4
NMTAP	40	0	2
NMTAP	40	96	2
NMTAP	40	192	2
NMTAP	41	0	1
NMTAP	41	96	1
NMTAP	41	192	1
NMTAP	42	0	0
NMTAP	42	96	0
NMTAP	42	192	0
NMTAP	42	192	7
NMTAP	43	0	6
NMTAP	43	96	6
NMTAP	43	192	6
EXTAP	44	0	0
EXTAP	44	0	7
NMTAP	45	0	1
NMTAP	45	96	1
NMTAP	45	192	1
EXTAP	46	0	0
EXTAP	46	0	7
NMHLD	47	0	0	192
NMHLD	47	0	1	192
NMTAP	48	0	0
NMTAP	48	0	1
NMTAP	48	192	0
NMTAP	48	192	1
NMHLD	49	0	2	192
NMHLD	49	0	3	192
NMTAP	50	0	2
NMTAP	50	0	3
NMTAP	50	192	2
NMTAP	50	192	3
NMHLD	51	0	4	192
NMHLD	51	0	5	192
NMTAP	52	0	4
NMTAP	52	0	5
NMTAP	52	192	4
NMTAP	52	192	5
NMHLD	53	0	6	192
NMHLD	53	0	7	192
NMTAP	54	0	6
NMTAP	54	0	7
NMTAP	54	192	6
NMTAP	54	192	7
EXHLD	55	0	0	192
EXHLD	55	0	7	192
NMTAP	56	0	0
NMTAP	56	0	7
NMTAP	57	0	1
NMTAP	57	96	1
NMTAP	57	192	1
NMTAP	58	0	0
NMTAP	58	0	7
NMTAP	58	192	0
NMTAP	58	192	7
NMTAP	59	0	6
NMTAP	59	96	6
NMTAP	59	192	6
BRTAP	60	0	0
BRTAP	60	0	7
NMTTP	61	0	7	B	0	L1
NMTTP	62	0	0	B	0	L1
NMTTP	63	0	6	B	0	L1
NMTTP	64	0	1	B	0	L1
NMTTP	65	0	5	B	0	L1
NMTTP	66	0	2	B	0	L1
NMTTP	67	0	4	B	0	L1
NMTTP	68	0	3	B	0	L1
NMTHO	69	0	0	384	C	1	L1
NMHLD	71	0	0	384
NMHLD	71	0	7	384
NMTAP	73	0	1
NMTAP	73	96	1
NMTAP	73	192	1
NMTAP	73	288	1
NMTAP	74	0	2
NMTAP	74	96	2
NMTAP	74	192	2
NMTAP	74	192	3
NMTAP	75	0	4
NMTAP	75	96	4
NMTAP	75	192	4
NMTAP	75	288	4
NMTAP	76	0	5
NMTAP	76	96	5
NMTAP	76	192	4
NMTAP	76	192	5
NMTAP	77	0	6
NMTAP	77	96	6
NMTAP	77	192	6
NMTAP	77	288	6
NMTAP	78	0	7
NMTAP	78	96	7
NMTAP	78	192	0
NMTAP	78	192	7
NMTAP	79	0	7
NMTAP	79	96	7
NMTAP	79	192	7
NMTAP	79	288	7
NMTAP	80	0	6
NMTAP	80	96	6
NMTAP	80	192	6
NMTAP	80	192	7
NMTAP	81	0	5
NMTAP	81	96	5
NMTAP	81	192	5
NMTAP	81	288	5
NMTAP	82	0	4
NMTAP	82	96	4
NMTAP	82	192	3
NMTAP	82	192	4
NMTAP	83	0	3
NMTAP	83	96	3
NMTAP	83	192	3
NMTAP	83	288	3
NMTAP	84	0	2
NMTAP	84	96	2
NMTAP	84	192	2
NMTAP	84	192	3
NMTAP	85	0	1
NMTAP	85	96	1
NMTAP	85	192	1
NMTAP	85	288	1
BRTAP	86	0	0
BRTAP	86	0	7
NMTAP	87	0	6
NMTAP	87	0	7
NMTAP	87	96	6
NMTAP	87	96	7
NMTAP	87	192	6
NMTAP	87	192	7
NMTAP	88	0	0
NMTAP	88	0	1
NMTAP	88	96	0
NMTAP	88	96	1
NMTAP	88	192	0
NMTAP	88	192	1
NMTAP	89	0	7
NMTAP	89	96	7
NMTAP	89	192	0
NMTAP	89	288	0
BRTAP	90	0	0
BRTAP	90	0	7
NMTTP	91	0	0	B	0	L1
NMTTP	91	0	7	B	0	L1
NMTTP	92	0	1	B	0	L1
NMTTP	92	0	6	B	0	L1
NMTTP	93	0	2	B	0	L1
NMTTP	93	0	5	B	0	L1
NMTTP	94	0	0	C	1	L1
NMTTP	94	0	3	B	0	L1
NMTTP	94	0	4	B	0	L1

T_REC_TAP	170
T_REC_BRK	8
T_REC_XTP	6
T_REC_BXX	0
T_REC_HLD	10
T_REC_XHO	2
T_REC_BHO	0
T_REC_BXH	0
T_REC_STR	5
T_REC_BST	0
T_REC_XST	0
T_REC_XBS	0
T_REC_TTP	17
T_REC_THO	1
T_REC_SLD	5
T_REC_BSL	0
T_REC_ALL	224
T_NUM_TAP	198
T_NUM_BRK	8
T_NUM_HLD	13
T_NUM_SLD	5
T_NUM_ALL	224
T_JUDGE_TAP	206
T_JUDGE_HLD	64
T_JUDGE_SLD	5
T_JUDGE_ALL	275
TTM_EACHPAIRS	41
TTM_SCR_TAP	99000
TTM_SCR_BRK	20800
TTM_SCR_HLD	13000
TTM_SCR_SLD	7500
TTM_SCR_ALL	140300
TTM_SCR_S	135350
TTM_SCR_SS	139500
TTM_RAT_ACV	10057

