VERSION	0.00.00	1.04.00
FES_MODE	0
BPM_DEF	156.000	156.000	156.000	156.000
MET_DEF	4	4
RESOLUTION	384
CLK_DEF	384
COMPATIBLE_CODE	MA2

BPM	0	0	156.000
MET	0	0	4	4

NMSTR	2	0	2
NMSXR	2	0	2	96	192	7
NMTAP	2	96	3
NMTAP	2	144	3
NMTAP	2	240	4
NMTAP	2	288	4
NMSTR	3	0	4
NMSUR	3	0	4	96	192	7
NMTAP	3	96	0
NMTAP	3	144	0
NMTAP	3	240	3
NMTAP	3	288	3
NMSTR	4	0	2
NMSXL	4	0	2	96	192	5
NMTAP	4	96	7
NMTAP	4	144	7
NMTAP	4	240	0
NMTAP	4	288	0
NMSTR	5	0	7
NMSCL	5	0	7	96	96	4
NMTAP	5	144	1
NMHLD	5	192	1	96
NMTTP	5	240	4	E	0	M1
NMTTP	5	264	3	E	0	M1
NMTTP	5	288	2	E	0	M1
NMTTP	5	312	1	E	0	M1
NMTTP	5	336	0	E	0	M1
NMTTP	5	360	7	E	0	M1
EXSTR	6	0	0
NMSI_	6	0	0	96	48	4
EXTAP	6	0	5
NMTAP	6	96	0
NMSTR	6	192	3
NMSI_	6	192	3	96	48	7
NMTAP	6	192	5
NMTAP	6	264	5
NMTAP	6	288	3
NMTAP	6	336	5
NMTAP	7	0	0
NMSTR	7	0	6
NMSI_	7	0	6	96	48	2
NMTAP	7	72	0
NMTAP	7	96	6
NMTAP	7	144	0
NMTAP	7	192	0
NMSTR	7	192	3
NMSI_	7	192	3	96	48	6
NMTAP	7	264	0
NMTAP	7	288	3
NMTAP	7	336	0
NMSTR	8	0	0
NMSCL	8	0	0	96	48	5
NMTAP	8	24	1
NMTAP	8	48	2
NMTAP	8	72	3
NMTAP	8	96	0
NMTAP	8	96	4
NMSTR	8	192	7
NMSCL	8	192	7	96	48	4
NMTAP	8	216	0
NMTAP	8	240	1
NMTAP	8	264	2
NMTAP	8	288	3
NMTAP	8	288	7
NMTAP	9	0	4
NMTAP	9	24	3
NMTAP	9	48	5
NMTAP	9	72	2
NMTAP	9	96	6
NMTAP	9	120	1
NMTAP	9	144	7
NMTAP	9	168	0
NMTAP	9	192	6
NMTAP	9	216	1
NMTAP	9	240	5
NMTAP	9	264	2
NMSTR	9	288	4
NMSCL	9	288	4	96	288	5
NMTAP	9	304	3
NMTAP	9	320	4
NMTAP	9	336	3
NMTAP	9	352	4
NMTAP	9	368	3
BRTAP	10	0	4
NMSTR	10	288	2
BRSLL	10	288	2	96	144	4
NMSTR	11	96	6
NMSI_	11	96	6	96	96	3
NMSSR	11	96	6	96	96	2
NMTAP	12	0	1
NMTAP	12	0	4
NMTAP	12	48	2
NMTAP	12	72	3
NMTAP	12	96	2
NMTAP	12	144	4
NMTAP	12	168	3
NMTAP	12	192	4
NMTAP	12	240	2
NMTAP	12	264	3
NMTAP	12	288	2
NMTAP	12	336	4
NMTAP	12	360	3
NMTAP	13	0	5
NMTAP	13	48	2
NMTAP	13	72	3
NMTAP	13	96	1
NMTAP	13	144	4
NMTAP	13	168	3
NMTAP	13	192	5
NMTAP	13	240	1
NMTAP	13	264	3
NMTAP	13	288	2
NMTAP	13	336	3
NMTAP	13	336	4
NMTAP	14	0	5
NMTAP	14	24	4
NMTAP	14	48	5
NMTAP	14	72	4
BRTAP	14	96	6
NMTAP	14	144	2
NMTAP	14	168	3
NMTAP	14	192	1
NMTAP	14	240	5
NMTAP	14	264	4
NMTAP	14	288	6
NMTAP	14	336	3
NMTAP	14	360	4
NMTAP	15	0	2
NMTAP	15	48	6
NMTAP	15	72	4
NMTAP	15	96	6
NMTAP	15	144	3
NMTAP	15	144	5
NMTAP	15	192	4
NMTAP	15	216	4
NMTAP	15	240	4
NMTAP	15	264	4
NMTAP	15	288	3
NMTAP	15	288	5
NMTAP	16	0	1
NMTAP	16	0	7
NMTAP	16	48	1
NMTAP	16	72	0
NMTAP	16	96	2
NMTAP	16	144	7
NMTAP	16	168	0
NMTAP	16	192	6
NMTAP	16	240	1
NMTAP	16	264	0
NMTAP	16	288	1
NMTAP	16	336	6
NMTAP	16	360	7
NMTAP	17	0	6
NMTAP	17	48	5
NMTAP	17	72	4
NMTAP	17	96	5
NMTAP	17	144	2
NMTAP	17	168	3
NMHLD	17	192	2	48
NMHLD	17	264	1	48
NMHLD	17	264	3	48
NMTAP	17	336	0
NMTAP	17	336	4
NMSTR	18	0	0
NMSCL	18	0	0	96	192	1
NMHLD	18	0	4	672
NMSTR	19	0	7
NMSCR	19	0	7	96	96	3
CNSLR	19	192	3	0	96	0
NMSTR	20	0	1
NMSCR	20	0	1	96	48	4
NMTAP	20	0	7
NMTAP	20	48	0
NMTAP	20	48	6
NMTAP	20	96	1
NMTAP	20	96	7
NMTAP	20	144	6
NMHLD	20	168	6	48
NMTAP	20	216	4
NMTAP	20	240	5
NMTAP	20	264	3
NMSTR	20	288	4
NMSI_	20	288	4	96	48	0
NMTAP	20	312	2
NMTAP	20	336	3
NMSTR	21	0	1
NMSCL	21	0	1	96	48	6
NMTAP	21	0	4
NMTAP	21	48	2
NMTAP	21	96	1
NMTAP	21	96	5
NMTAP	21	144	4
NMHLD	21	168	4	72
NMTAP	21	216	6
NMTAP	21	240	6
NMTAP	21	288	5
NMTAP	21	288	7
NMTAP	21	336	0
NMTAP	21	336	6
NMTAP	22	0	1
NMSTR	22	0	7
NMSCL	22	0	7	96	48	4
NMTAP	22	48	0
NMTAP	22	48	2
NMTAP	22	96	1
NMTAP	22	96	7
NMTAP	22	144	0
NMHLD	22	168	0	48
NMTAP	22	216	3
NMTAP	22	240	2
NMTAP	22	264	4
NMSTR	22	288	3
NMSI_	22	288	3	96	48	7
NMTAP	22	312	5
NMTAP	22	336	4
NMTAP	23	0	3
NMSTR	23	0	6
NMSCR	23	0	6	96	48	1
NMTAP	23	48	5
NMTAP	23	96	2
NMTAP	23	96	6
NMTAP	23	144	3
NMHLD	23	168	3	48
NMTAP	23	216	0
NMTAP	23	240	2
NMTAP	23	264	7
NMTAP	23	288	1
NMTAP	23	312	6
NMTAP	23	336	0
NMTAP	23	360	5
BRSTR	24	0	7
NMSCR	24	0	7	96	192	4
NMTTP	24	96	5	B	0	M1
NMTTP	24	192	0	C	0	M1
NMTAP	24	288	1
NMTAP	24	312	0
NMTAP	24	336	7
NMTAP	24	360	6
BXSTR	25	0	5
NMSCR	25	0	5	96	192	3
NMTTP	25	96	2	B	0	M1
NMTTP	25	192	0	C	0	M1
NMTAP	25	288	6
NMTAP	25	312	7
NMTAP	25	336	0
NMTAP	25	360	1
NMSTR	26	0	2
NMSCL	26	0	2	96	48	7
NMTAP	26	48	2
NMSTR	26	96	5
NMSCL	26	96	5	96	48	2
NMTAP	26	144	5
NMSTR	26	192	0
NMSI_	26	192	0	96	48	4
NMTAP	26	240	0
NMTAP	26	288	7
NMTAP	26	336	7
NMTAP	27	0	3
NMTAP	27	24	5
NMTAP	27	48	1
NMTAP	27	72	7
NMTAP	27	96	2
NMTAP	27	120	4
NMTAP	27	144	0
NMTAP	27	168	6
NMTAP	27	192	1
NMTAP	27	216	2
NMTAP	27	240	3
NMTAP	27	264	4
NMTAP	27	288	5
NMTAP	27	312	6
NMTAP	27	336	7
NMTAP	27	360	0
BRSTR	28	0	1
NMSXR	28	0	1	96	192	4
BRTAP	28	0	5
NMTAP	29	0	2
NMTAP	29	0	6
NMSTR	29	192	0
NMSI_	29	192	0	96	48	4
NMSTR	29	192	7
NMSI_	29	192	7	96	48	3
NMTAP	29	288	0
NMTAP	29	288	7
NMTTP	30	0	0	B	0	M1
NMTTP	30	0	0	E	1	M1
NMTTP	30	0	1	E	0	M1
NMTTP	30	0	1	D	0	M1
NMTTP	30	0	7	B	0	M1
NMTTP	30	0	7	E	0	M1
NMTTP	30	0	7	D	0	M1
NMTAP	30	144	3
NMTAP	30	144	4
NMTAP	30	192	3
NMHLD	30	192	4	72
NMHLD	30	264	2	72
NMTAP	30	336	3
NMTAP	31	0	2
NMTAP	31	48	1
NMTAP	31	48	6
NMSTR	31	96	7
NMSI_	31	96	7	96	48	3
NMTAP	31	112	0
NMTAP	31	128	7
NMTAP	31	144	0
BRTAP	31	192	1
BRTAP	31	192	7
NMTAP	31	336	2
NMTAP	31	360	3
NMHLD	32	0	2	144
NMTAP	32	144	3
NMTAP	32	168	2
NMTAP	32	192	3
NMTAP	32	240	3
NMTAP	32	264	4
NMTAP	32	312	4
NMTAP	32	336	5
NMTAP	33	0	3
NMTAP	33	0	6
NMTAP	33	48	5
NMSTR	33	96	3
NMSF_	33	96	3	96	48	7
NMTAP	33	96	4
NMTAP	33	144	2
BRTAP	33	192	3
NMTAP	33	336	6
NMTAP	33	360	4
NMHLD	34	0	5	96
NMTAP	34	96	4
NMTAP	34	144	5
NMTAP	34	192	3
NMTAP	34	192	5
NMTAP	34	264	5
NMTAP	34	288	4
NMTAP	34	336	5
NMTAP	35	0	3
NMTAP	35	0	5
NMTAP	35	48	5
NMTAP	35	96	4
NMSTR	35	96	5
NMSI_	35	96	5	96	48	3
NMTAP	35	144	5
NMTAP	35	192	2
NMTAP	35	192	5
NMTAP	35	288	1
NMTAP	35	288	4
NMTAP	35	336	2
NMTAP	35	360	3
NMTAP	36	0	1
NMTAP	36	72	2
NMTAP	36	96	2
NMTAP	36	96	4
NMTAP	36	144	2
NMTAP	36	168	3
NMTAP	36	192	1
NMTAP	36	264	2
NMTAP	36	288	2
NMTAP	36	288	4
NMTAP	36	336	1
NMTAP	36	360	3
NMTAP	37	0	2
NMTAP	37	48	1
NMTAP	37	48	4
NMTAP	37	96	2
NMTAP	37	112	3
NMTAP	37	128	2
NMTAP	37	144	3
NMTAP	37	192	1
NMTAP	37	192	4
NMSTR	37	288	2
NMSV_	37	288	2	96	48	7
NMSTR	37	288	6
NMSI_	37	288	6	96	48	3
BRTAP	38	0	2
BRSTR	38	0	6
NMSCR	38	0	6	96	48	1
NMSTR	38	96	2
NMSCR	38	96	2	96	48	5
NMTAP	38	96	6
NMTAP	38	192	2
NMSTR	38	192	6
NMSI_	38	192	6	96	48	2
NMSTR	38	288	0
NMSI_	38	288	0	96	48	4
NMTAP	38	288	6
NMSTR	39	0	0
NMSCR	39	0	0	96	24	1
NMSTR	39	0	4
NMSCR	39	0	4	96	24	5
NMTAP	39	96	0
NMSTR	39	96	4
NMSF_	39	96	4	96	48	0
CNSI_	39	120	1	0	24	3
CNSI_	39	120	5	0	24	7
BRTAP	39	192	4
NMTAP	39	288	2
NMTAP	39	288	6
NMTAP	39	336	1
NMTAP	39	336	7
NMTAP	39	352	2
NMTAP	39	352	6
NMTAP	39	368	3
NMTAP	39	368	5
NMSTR	40	0	4
NMSI_	40	0	4	96	48	0
NMSTR	40	96	1
NMSI_	40	96	1	96	48	5
NMTAP	40	96	4
NMTAP	40	192	1
NMSTR	40	192	7
NMSCL	40	192	7	96	48	4
NMSTR	40	288	2
NMSCL	40	288	2	96	48	7
NMTAP	40	288	7
NMSTR	41	0	2
NMSI_	41	0	2	96	48	4
NMSTR	41	0	5
NMSI_	41	0	5	96	48	7
NMTAP	41	96	2
NMSTR	41	96	5
NMSF_	41	96	5	96	48	1
BRTAP	41	192	5
NMTAP	41	288	3
NMTAP	41	288	7
NMTAP	41	336	3
NMTAP	41	336	7
NMTAP	41	352	2
NMTAP	41	352	6
NMTAP	41	368	1
NMTAP	41	368	5
NMSTR	42	0	0
NMSCR	42	0	0	96	48	3
NMSTR	42	0	4
NMSCR	42	0	4	96	48	7
NMSTR	42	96	0
NMSI_	42	96	0	96	48	4
NMTAP	42	96	4
NMTAP	42	192	0
NMSTR	42	192	6
NMSI_	42	192	6	96	48	1
NMSTR	42	288	2
NMSV_	42	288	2	96	48	5
NMTAP	42	288	6
NMSTR	43	0	2
NMSCL	43	0	2	96	48	0
NMSTR	43	0	6
NMSCL	43	0	6	96	48	3
NMSTR	43	96	2
NMSI_	43	96	2	96	48	6
NMTAP	43	96	6
NMTAP	43	192	2
NMSTR	43	192	4
NMSI_	43	192	4	96	48	0
NMTAP	43	288	1
BRTAP	43	288	4
NMHLD	44	0	3	48
NMHLD	44	0	7	48
NMHLD	44	72	4	48
NMHLD	44	72	5	48
NMTAP	44	144	6
NMTAP	44	144	7
NMHLD	44	192	0	48
NMHLD	44	192	4	48
NMHLD	44	264	2	48
NMHLD	44	264	3	48
NMTAP	44	336	0
NMTAP	44	336	1
NMTAP	45	0	0
NMTAP	45	0	1
NMTAP	45	48	2
NMTAP	45	48	7
NMTAP	45	96	0
NMTAP	45	96	1
NMTAP	45	112	2
NMTAP	45	112	7
NMTAP	45	128	3
NMTAP	45	128	6
NMTAP	45	144	4
NMTAP	45	144	5
BRTAP	45	192	2
BRTAP	45	192	6
BXHLD	46	0	2	96
BXHLD	46	0	4	96
NMTAP	46	144	1
NMHLD	46	192	1	72
NMHLD	46	264	2	72
NMTAP	46	336	3
NMHLD	47	0	4	96
NMHLD	47	0	5	96
NMTAP	47	144	6
NMHLD	47	192	6	72
NMHLD	47	264	5	72
NMTAP	47	336	4
NMHLD	48	0	2	96
NMHLD	48	0	3	96
NMTAP	48	144	1
NMHLD	48	192	1	72
NMHLD	48	264	3	72
NMTAP	48	336	4
NMHLD	49	0	4	96
NMHLD	49	0	5	96
NMTAP	49	144	6
NMHLD	49	192	6	72
NMHLD	49	264	5	72
NMTAP	49	336	4
NMTAP	50	0	2
NMTAP	50	24	3
NMTAP	50	48	2
NMTAP	50	72	3
NMTAP	50	96	1
NMTAP	50	120	4
NMTAP	50	144	1
NMTAP	50	168	4
NMTAP	50	192	0
NMTAP	50	216	5
NMTAP	50	240	0
NMTAP	50	264	5
NMTAP	50	288	7
NMTAP	50	312	6
NMTAP	50	336	7
NMTAP	50	360	6
NMTAP	51	0	1
NMTAP	51	24	0
NMTAP	51	48	1
NMTAP	51	72	0
NMTAP	51	96	2
NMTAP	51	120	7
NMTAP	51	144	2
NMTAP	51	168	7
NMTAP	51	192	3
NMTAP	51	216	6
NMTAP	51	240	3
NMTAP	51	264	6
NMTAP	51	288	4
NMTAP	51	312	5
NMTAP	51	336	4
NMTAP	51	360	5
NMTAP	52	0	3
NMTAP	52	24	4
NMTAP	52	48	2
NMTAP	52	72	5
NMTAP	52	96	1
NMTAP	52	120	6
NMTAP	52	144	0
NMTAP	52	168	7
NMTAP	52	192	1
NMTAP	52	216	6
NMTAP	52	240	2
NMTAP	52	264	5
NMTAP	52	288	3
NMTAP	52	304	4
NMTAP	52	320	3
NMTAP	52	336	4
NMTAP	52	352	3
NMTAP	52	368	4
BRHLD	53	0	2	192
BRHLD	53	0	5	192
NMTTP	53	288	3	B	0	M1
NMTTP	53	288	3	E	0	M1
NMTTP	53	288	4	B	0	M1
NMTTP	53	288	4	E	1	M1
NMTTP	53	288	5	E	0	M1
BRSTR	54	0	0
NMSI_	54	0	0	96	48	4
NMTAP	54	24	7
NMTAP	54	48	1
NMTAP	54	72	6
NMSTR	54	96	0
NMSI_	54	96	0	96	48	5
NMTAP	54	144	7
NMTAP	54	168	7
NMSTR	54	192	0
NMSI_	54	192	0	96	48	2
NMTAP	54	216	6
NMTAP	54	264	6
NMSTR	54	288	0
NMSI_	54	288	0	96	48	4
NMTAP	54	336	6
NMTAP	54	352	5
NMTAP	54	368	4
NMSTR	55	0	0
NMSCR	55	0	0	96	48	3
NMTAP	55	48	7
NMTAP	55	64	6
NMTAP	55	80	5
NMTAP	55	96	0
NMTAP	55	144	7
NMTAP	55	192	5
NMTAP	55	208	4
NMTAP	55	224	6
NMTAP	55	240	4
BRSTR	55	288	0
NMSI_	55	288	0	96	48	4
BRTAP	55	288	7
NMTAP	56	0	0
BRSTR	56	0	6
NMSI_	56	0	6	96	48	3
NMTAP	56	48	7
NMTAP	56	72	7
NMSTR	56	96	1
NMSI_	56	96	1	96	48	4
NMTAP	56	96	6
NMTAP	56	144	0
NMTAP	56	192	1
BRSTR	56	192	7
NMSI_	56	192	7	96	48	3
NMTAP	56	240	6
NMTAP	56	264	6
NMTAP	56	288	0
NMTAP	56	288	7
NMTAP	56	336	1
BRSTR	57	0	2
NMSI_	57	0	2	96	48	0
NMTAP	57	0	5
NMTAP	57	48	3
NMTAP	57	72	3
NMSTR	57	96	2
NMSI_	57	96	2	96	48	5
BRSTR	57	96	6
NMSI_	57	96	6	96	48	1
NMTAP	57	144	4
BRTAP	57	192	2
BRTAP	57	192	6
BRTAP	57	288	3
BRTAP	57	288	7
BRSTR	58	0	7
NMSI_	58	0	7	96	48	3
NMTAP	58	24	0
NMTAP	58	48	6
NMTAP	58	72	1
NMSTR	58	96	7
NMSI_	58	96	7	96	48	2
NMTAP	58	144	0
NMTAP	58	168	0
NMSTR	58	192	7
NMSI_	58	192	7	96	48	5
NMTAP	58	216	1
NMTAP	58	264	1
NMSTR	58	288	7
NMSI_	58	288	7	96	48	3
NMTAP	58	336	1
NMTAP	58	352	2
NMTAP	58	368	3
NMSTR	59	0	7
NMSCL	59	0	7	96	48	4
NMTAP	59	48	0
NMTAP	59	64	1
NMTAP	59	80	2
NMTAP	59	96	7
NMTAP	59	144	0
NMTAP	59	192	2
NMTAP	59	208	3
NMTAP	59	224	1
NMTAP	59	240	3
BRTAP	59	288	0
BRTAP	59	288	4
NMTAP	60	0	5
NMTAP	60	24	5
NMTAP	60	48	4
NMHLD	60	72	6	48
NMTAP	60	120	0
NMTAP	60	144	7
NMTAP	60	168	1
NMTAP	60	192	3
NMTAP	60	216	3
NMTAP	60	240	2
NMHLD	60	264	5	48
NMTAP	60	312	4
NMTAP	60	336	5
BRTAP	61	0	3
BRTAP	61	0	6
NMTAP	61	48	1
NMTAP	61	48	4
BRTAP	61	96	3
NMTAP	61	112	2
NMTAP	61	128	4
NMTAP	61	144	3
BRSTR	61	192	1
NMSI_	61	192	1	96	48	5
BRSTR	61	192	5
NMSI_	61	192	5	96	48	1
NMSTR	62	0	3
NMSI_	62	0	3	96	48	0
NMSTR	62	0	4
NMSI_	62	0	4	96	48	7
NMTAP	62	48	2
NMTAP	62	48	5
BRTAP	62	96	3
BRTAP	62	96	4
NMSTR	62	192	2
NMSCL	62	192	2	96	48	7
NMTAP	62	192	5
NMTAP	62	240	3
NMTAP	62	288	2
NMSTR	62	288	7
NMSI_	62	288	7	96	48	3
NMTAP	62	304	6
NMTAP	62	320	5
NMTAP	62	336	4
BRSTR	63	0	4
NMSI_	63	0	4	96	48	0
NMTAP	63	48	5
BRSTR	63	96	1
NMSI_	63	96	1	96	48	4
NMTAP	63	96	4
NMTAP	63	144	2
NMTAP	63	168	2
NMTAP	63	192	1
BRSTR	63	192	5
NMSCL	63	192	5	96	48	2
NMSCR	63	192	5	96	48	0
NMTAP	63	240	6
BRTAP	63	288	5
NMSTR	64	0	2
NMSI_	64	0	2	96	48	7
NMTAP	64	0	7
NMTAP	64	48	3
NMTAP	64	96	2
NMSTR	64	96	5
NMSI_	64	96	5	96	48	1
NMTAP	64	144	4
NMTAP	64	168	4
NMSTR	64	192	2
NMSCL	64	192	2	96	48	7
NMTAP	64	192	5
NMTAP	64	240	3
NMTAP	64	288	2
NMSTR	64	288	7
NMSI_	64	288	7	96	48	3
NMTAP	64	304	6
NMTAP	64	320	5
NMTAP	64	336	4
BRSTR	65	0	4
NMSI_	65	0	4	96	48	0
NMTAP	65	48	5
BRSTR	65	96	1
NMSI_	65	96	1	96	48	5
NMTAP	65	96	4
NMTAP	65	144	2
NMTAP	65	168	2
NMTAP	65	192	1
BRSTR	65	192	7
NMSI_	65	192	7	96	48	2
NMSI_	65	192	7	96	48	4
NMTAP	65	240	6
BRTAP	65	288	7
NMTAP	66	0	3
NMSTR	66	0	5
NMSCR	66	0	5	96	48	0
NMTAP	66	48	1
NMTAP	66	96	0
NMTAP	66	96	5
NMTAP	66	112	1
NMTAP	66	128	2
NMTAP	66	144	3
NMTAP	66	192	3
NMSTR	66	192	6
NMSCL	66	192	6	96	48	3
NMTAP	66	240	0
NMTAP	66	240	1
NMTAP	66	288	3
NMTAP	66	288	6
NMTAP	66	304	2
NMTAP	66	320	1
NMTAP	66	336	0
NMSTR	67	0	1
NMSCR	67	0	1	96	48	4
NMTAP	67	0	5
NMTAP	67	48	0
NMTAP	67	48	7
NMTAP	67	96	1
NMSTR	67	96	4
NMSUL	67	96	4	96	48	0
NMTAP	67	112	5
NMTAP	67	128	6
NMTAP	67	144	7
NMTAP	67	192	0
NMTAP	67	208	7
NMTAP	67	224	6
NMTAP	67	240	5
NMTAP	67	288	1
NMTAP	67	288	5
NMTAP	67	300	2
NMTAP	67	300	6
NMTAP	67	312	3
NMTAP	67	312	7
NMTAP	67	324	0
NMTAP	67	324	4
NMTAP	67	336	5
NMTAP	67	348	6
NMTAP	67	360	7
NMTAP	67	372	0
BXHLD	68	0	1	96
BXHLD	68	0	5	96
NMTAP	68	144	6
NMTAP	68	160	7
NMTAP	68	176	6
BRHLD	68	192	0	120
BRHLD	68	192	5	120
NMTAP	68	336	2
NMTAP	68	352	3
NMTAP	68	368	2
BRHLD	69	0	1	48
BRTAP	69	0	4
NMTAP	69	48	3
NMHLD	69	72	3	48
NMTAP	69	120	2
NMHLD	69	144	2	48
NMTAP	69	192	1
NMTAP	69	208	0
NMTAP	69	224	7
NMTAP	69	240	6
NMTAP	69	256	5
NMTAP	69	272	4
NMTAP	69	288	1
NMTAP	69	288	3
NMTAP	69	304	0
NMTAP	69	320	7
NMTAP	69	336	6
NMTAP	69	352	5
NMTAP	69	368	4
BRSTR	70	0	3
NMSXR	70	0	3	96	192	0
BRSTR	70	0	7
NMSXR	70	0	7	96	192	4
NMSTR	71	0	0
NMSCR	71	0	0	96	192	5
NMTTP	71	96	0	C	0	M1
NMTAP	71	240	6
NMTAP	71	288	6
NMSTR	72	0	7
NMSCL	72	0	7	96	192	2
NMTTP	72	96	0	C	0	M1
NMTAP	72	240	0
NMSTR	72	288	0
NMSXL	72	288	0	96	288	4
NMTAP	73	0	4
NMTAP	73	48	4
NMTAP	73	96	5
NMTAP	73	144	5
NMTAP	73	192	6
NMTAP	73	240	6
NMTAP	73	288	7
NMTAP	74	0	6
NMTAP	74	24	6
NMTAP	74	48	4
NMTAP	74	72	5
NMTAP	74	96	3
NMTAP	74	120	4
NMTAP	74	144	2
NMTAP	74	168	2
NMTAP	74	192	4
NMTAP	74	216	3
NMTAP	74	240	5
NMTAP	74	264	4
NMTAP	74	288	6
NMTAP	74	312	6
NMTAP	74	336	4
NMTAP	74	336	5
NMTAP	75	0	1
NMTAP	75	24	1
NMTAP	75	48	3
NMTAP	75	72	2
NMTAP	75	96	4
NMTAP	75	120	3
NMTAP	75	144	5
NMTAP	75	168	5
NMTAP	75	192	3
NMTAP	75	216	4
NMTAP	75	240	2
NMTAP	75	264	3
NMTAP	75	288	1
NMTAP	75	312	1
NMTAP	75	336	2
NMTAP	75	336	4
NMTAP	76	0	7
NMTAP	76	24	7
NMTAP	76	48	3
NMTAP	76	72	3
NMTAP	76	96	5
NMTAP	76	120	5
NMTAP	76	144	1
NMTAP	76	168	1
NMTAP	76	192	3
NMTAP	76	216	3
NMTAP	76	240	7
NMTAP	76	264	7
NMTAP	76	288	5
NMTAP	76	312	5
NMTAP	76	336	0
NMTAP	77	0	2
NMTAP	77	24	4
NMTAP	77	48	2
NMTAP	77	72	4
NMTAP	77	96	1
NMTAP	77	120	5
NMTAP	77	144	1
NMTAP	77	168	5
NMTAP	77	192	0
NMTAP	77	208	6
NMTAP	77	224	0
NMTAP	77	240	6
NMTAP	77	256	0
NMTAP	77	272	6
NMTAP	77	288	1
NMTAP	77	304	7
NMTAP	77	320	1
NMTAP	77	336	7
NMTAP	77	352	1
NMTAP	77	368	7
BRHLD	78	0	2	96
BRHLD	78	0	6	96
BRTAP	78	144	3
BRTAP	78	144	5
BRTAP	78	168	3
BRTAP	78	168	5
BRTAP	78	192	3
BRTAP	78	192	5
BRTAP	78	264	2
BRTAP	78	264	3
NMTAP	78	336	1
NMTAP	78	352	0
NMTAP	78	368	1
BRHLD	79	0	0	48
BRHLD	79	72	1	48
BRHLD	79	72	7	48
BRTAP	79	144	2
BRTAP	79	144	6
BRTAP	79	168	2
BRTAP	79	168	6
BRTAP	79	192	2
BRTAP	79	192	6
BRTAP	79	264	4
BRTAP	79	264	5
BRTAP	79	336	6
BRTAP	79	336	7
BRTAP	79	360	6
BRTAP	79	360	7
BRTAP	80	0	0
BRTAP	80	0	5
NMTAP	80	96	2
NMTAP	80	96	7
BRTAP	80	144	0
BRTAP	80	144	1
BRTAP	80	168	0
BRTAP	80	168	1
BRTAP	80	192	2
BRTAP	80	192	7
BRTAP	80	264	3
BRTAP	80	264	6
BRTAP	80	336	4
BRHLD	80	336	5	96
BRTAP	81	48	3
NMTAP	81	64	4
NMTAP	81	80	2
BRTAP	81	96	3
BRTAP	81	192	0
BRTAP	81	192	6
NMTAP	81	264	1
NMTAP	81	264	5
NMSTR	81	288	1
NMSI_	81	288	1	96	48	4
NMSTR	81	288	5
NMSI_	81	288	5	96	48	0
NMTAP	81	336	2
NMTAP	81	336	6
BRTAP	82	0	1
BRTAP	82	0	5
NMTAP	82	96	3
NMTAP	82	96	7
NMTAP	82	144	6
NMTAP	82	168	4
NMTAP	82	192	5
NMTAP	82	216	2
NMTAP	82	240	3
NMTAP	82	264	1
NMTAP	82	288	5
NMTAP	82	312	4
NMTAP	82	336	6
NMTAP	83	0	1
NMTAP	83	12	0
NMTAP	83	24	1
NMTAP	83	36	0
NMTAP	83	48	1
NMTAP	83	60	0
NMTAP	83	72	1
NMTAP	83	84	0
NMTAP	83	96	1
NMTAP	83	144	2
NMTAP	83	168	3
NMTAP	83	192	1
NMTAP	83	216	6
NMTAP	83	240	7
NMTAP	83	264	5
NMTAP	83	288	2
NMTAP	83	312	3
NMTAP	83	336	1
NMTAP	84	0	6
NMTAP	84	12	7
NMTAP	84	24	6
NMTAP	84	36	7
NMTAP	84	48	6
NMTAP	84	60	7
NMTAP	84	72	6
NMTAP	84	84	7
NMTAP	84	96	6
NMTAP	84	144	5
NMTAP	84	168	4
BRTAP	84	192	6
NMTAP	84	216	1
NMTAP	84	240	0
BRTAP	84	264	2
NMTAP	84	288	5
NMTAP	84	312	4
BRTAP	84	336	6
BRTAP	85	0	1
NMHLD	85	0	7	16
NMTAP	85	8	0
NMTAP	85	24	6
NMTAP	85	32	5
NMTAP	85	40	4
NMTAP	85	48	3
BRTAP	85	96	1
NMTAP	85	96	5
NMHLD	85	144	0	16
BRTAP	85	144	6
NMTAP	85	152	7
NMTAP	85	168	1
NMTAP	85	176	2
NMTAP	85	184	3
NMTAP	85	192	4
BRTAP	85	240	3
NMTAP	85	240	6
BRTAP	85	288	2
NMHLD	85	288	7	80
NMTAP	85	296	1
NMTAP	85	304	0
NMTAP	85	320	6
NMTAP	85	328	5
NMTAP	85	336	4
NMTAP	85	344	3
NMTAP	85	352	2
NMTAP	85	360	1
NMTAP	85	368	0
NMTTP	85	376	7	B	0	M1
NMTTP	86	0	0	C	1	M1
NMTTP	86	8	3	B	0	M1
NMTTP	86	16	3	A	0	M1

T_REC_TAP	682
T_REC_BRK	72
T_REC_XTP	1
T_REC_BXX	0
T_REC_HLD	42
T_REC_XHO	0
T_REC_BHO	11
T_REC_BXH	4
T_REC_STR	79
T_REC_BST	20
T_REC_XST	1
T_REC_XBS	1
T_REC_TTP	28
T_REC_THO	0
T_REC_SLD	103
T_REC_BSL	1
T_REC_ALL	1045
T_NUM_TAP	791
T_NUM_BRK	109
T_NUM_HLD	42
T_NUM_SLD	103
T_NUM_ALL	1045
T_JUDGE_TAP	884
T_JUDGE_HLD	109
T_JUDGE_SLD	104
T_JUDGE_ALL	1097
TTM_EACHPAIRS	166
TTM_SCR_TAP	395500
TTM_SCR_BRK	283400
TTM_SCR_HLD	42000
TTM_SCR_SLD	154500
TTM_SCR_ALL	875400
TTM_SCR_S	838600
TTM_SCR_SS	864500
TTM_RAT_ACV	10126

