VERSION	0.00.00	1.04.00
FES_MODE	0
BPM_DEF	156.000	156.000	156.000	156.000
MET_DEF	4	4
RESOLUTION	384
CLK_DEF	384
COMPATIBLE_CODE	MA2

BPM	0	0	156.000
MET	0	0	4	4

NMHLD	2	0	2	96
NMHLD	2	0	4	96
NMTAP	2	144	2
NMHLD	2	144	4	240
NMSTR	3	0	1
NMSCR	3	0	1	96	192	4
NMHLD	4	0	3	96
NMHLD	4	0	5	96
NMHLD	4	144	3	432
NMTAP	4	144	5
NMTHO	5	0	0	192	C	0	M1
BRTAP	6	0	0
BRTAP	6	0	7
NMTAP	6	96	6
NMTAP	6	144	6
NMTAP	6	192	3
NMTAP	6	192	5
NMTAP	6	288	1
NMTAP	6	336	1
NMTAP	7	0	2
NMTAP	7	0	4
NMTAP	7	96	5
NMTAP	7	144	5
NMTAP	7	192	0
NMTAP	7	192	6
NMTAP	7	288	1
NMTAP	7	288	7
NMTAP	8	0	1
NMTAP	8	48	1
NMTAP	8	96	7
NMTAP	8	144	7
NMTAP	8	192	0
NMTAP	8	240	0
NMTAP	8	288	6
NMTAP	8	336	6
NMTAP	9	0	0
NMTAP	9	24	7
NMTAP	9	48	0
NMTAP	9	72	7
NMTAP	9	96	0
NMTAP	9	120	7
NMTAP	9	144	0
NMTAP	9	168	7
NMTAP	9	192	0
NMTAP	9	216	7
NMTAP	9	240	0
NMTAP	9	264	7
NMSTR	9	288	0
BRSI_	9	288	0	96	48	4
BXHLD	10	0	6	384
NMTHO	11	0	0	192	C	1	M1
NMTTP	11	192	1	B	0	M1
NMTTP	11	192	2	B	0	M1
NMTTP	11	192	2	E	0	M1
NMTTP	11	192	5	B	0	M1
NMTTP	11	192	6	B	0	M1
NMTTP	11	192	6	E	0	M1
BRTAP	12	0	0
BRTAP	12	0	7
NMTAP	12	96	0
NMTAP	12	96	7
NMTAP	12	192	4
NMTAP	12	192	5
NMTAP	12	288	2
NMTAP	12	288	3
NMTAP	13	0	0
NMTAP	13	0	1
NMTAP	13	96	0
NMTAP	13	96	1
NMTAP	13	192	2
NMTAP	13	192	3
NMTAP	13	288	4
NMTAP	13	288	5
NMTAP	14	0	6
NMTAP	14	0	7
NMTAP	14	96	6
NMTAP	14	96	7
NMTAP	14	192	0
NMTAP	14	192	1
NMTAP	14	288	2
NMTAP	14	288	3
NMTAP	15	0	4
NMTAP	15	0	5
NMTAP	15	96	4
NMTAP	15	96	5
EXTAP	15	192	3
EXTAP	15	216	4
EXTAP	15	240	3
EXTAP	15	264	4
EXTAP	15	288	3
NMHLD	16	0	2	96
NMTAP	16	0	3
NMTAP	16	96	3
NMTAP	16	192	3
NMHLD	16	192	4	96
NMTAP	16	288	3
NMHLD	17	0	1	96
NMTAP	17	0	3
NMTAP	17	96	3
NMTAP	17	192	3
NMHLD	17	192	5	96
NMSTR	17	288	3
NMSCL	17	288	3	96	96	0
NMSTR	18	96	6
NMSCL	18	96	6	96	96	3
NMSTR	18	288	1
NMSCL	18	288	1	96	96	6
NMHLD	19	96	5	96
NMTAP	19	192	4
NMTAP	19	240	4
BRTAP	19	288	3
BRTAP	19	288	6
EXTAP	20	0	0
NMTAP	20	48	0
NMHLD	20	96	1	72
NMTAP	20	96	4
NMTAP	20	168	3
NMTAP	20	240	2
NMTAP	20	240	4
NMTAP	20	288	2
NMTAP	20	288	4
NMTAP	21	0	7
NMTAP	21	48	7
NMTAP	21	96	3
NMHLD	21	96	6	72
NMTAP	21	168	4
NMTAP	21	240	3
NMTAP	21	240	5
NMTAP	21	288	3
NMTAP	21	288	5
NMTAP	22	0	0
NMTAP	22	48	0
NMHLD	22	96	1	72
NMTAP	22	96	4
NMTAP	22	168	3
NMTAP	22	240	2
NMTAP	22	240	4
NMSTR	22	288	2
NMSCL	22	288	2	96	96	7
NMTAP	22	288	4
NMSTR	23	96	5
NMSCL	23	96	5	96	96	2
NMTAP	23	192	7
NMTAP	23	288	0
NMHLD	24	0	1	96
NMHLD	24	96	3	96
NMHLD	24	192	2	96
NMTAP	24	288	7
NMTAP	24	336	7
NMHLD	25	0	0	96
NMHLD	25	96	6	96
NMHLD	25	192	4	96
NMTAP	25	288	5
NMTAP	25	336	5
NMTAP	26	0	3
NMTAP	26	48	3
NMTAP	26	96	5
NMTAP	26	144	5
NMTAP	26	192	1
NMTAP	26	240	1
NMTAP	26	288	6
NMTAP	26	336	6
NMTAP	27	0	0
NMTAP	27	48	0
NMTAP	27	96	1
NMTAP	27	96	7
NMTAP	27	144	1
NMTAP	27	144	7
NMSTR	27	192	2
NMSI_	27	192	2	96	48	7
NMSTR	27	192	6
NMSI_	27	192	6	96	48	3
BXHLD	28	0	0	384
BXTAP	28	0	4
NMTHO	29	0	0	192	C	1	M1
BRTAP	30	0	1
BRTAP	30	0	7
NMTAP	30	144	5
NMHLD	30	192	5	72
NMHLD	30	264	4	72
NMTAP	30	336	3
NMTAP	31	0	3
NMSTR	31	96	1
NMSI_	31	96	1	96	48	3
NMHLD	31	96	4	96
EXTAP	31	336	5
EXTAP	31	360	4
BXHLD	32	0	5	144
NMTAP	32	144	3
NMHLD	32	192	3	72
NMHLD	32	264	2	72
NMTAP	32	336	1
NMTAP	33	0	0
NMTAP	33	0	1
NMSTR	33	96	2
NMSCL	33	96	2	96	48	7
NMHLD	33	96	7	96
NMTAP	33	336	6
NMTAP	33	360	7
NMHLD	34	0	6	96
NMTAP	34	96	0
NMTAP	34	144	0
NMHLD	34	192	0	72
NMHLD	34	264	1	72
NMTAP	34	336	2
NMTAP	35	0	2
NMTAP	35	0	3
NMSTR	35	96	3
BRSCL	35	96	3	96	48	0
NMSTR	35	96	6
BRSCL	35	96	6	96	48	3
NMTAP	35	336	0
NMTAP	35	360	7
NMHLD	36	0	0	72
NMHLD	36	72	1	72
NMTAP	36	144	2
NMHLD	36	192	4	72
NMHLD	36	264	5	72
NMTAP	36	336	6
NMTAP	37	0	6
NMTAP	37	0	7
NMSTR	37	96	0
BRSI_	37	96	0	96	48	4
NMSTR	37	96	5
BRSI_	37	96	5	96	48	0
BRTAP	37	288	3
BRTAP	37	288	7
EXTAP	38	0	1
EXTAP	38	0	5
NMTAP	38	96	6
NMTAP	38	96	7
NMTAP	38	192	1
NMTAP	38	192	2
NMTAP	38	288	4
NMTAP	38	288	5
NMTAP	39	0	2
NMTAP	39	0	3
NMTAP	39	96	5
NMTAP	39	96	6
NMTAP	39	192	0
NMTAP	39	192	2
NMTAP	39	288	6
NMTAP	39	288	7
NMTAP	39	336	6
NMTAP	39	336	7
BRTAP	40	0	6
BRTAP	40	0	7
NMTAP	40	96	2
NMTAP	40	96	3
NMTAP	40	192	0
NMTAP	40	192	7
NMTAP	40	288	4
NMTAP	40	288	5
NMTAP	41	0	0
NMTAP	41	0	2
NMTAP	41	96	6
NMTAP	41	96	7
NMTAP	41	192	1
NMTAP	41	192	3
NMTAP	41	288	4
NMTAP	41	288	6
NMTAP	41	336	4
NMTAP	41	336	6
BRTAP	42	0	4
BRTAP	42	0	6
NMTAP	42	96	0
NMTAP	42	96	7
NMTAP	42	192	2
NMTAP	42	192	3
NMTAP	42	288	0
NMTAP	42	288	7
NMTAP	43	0	5
NMTAP	43	0	6
NMTAP	43	96	2
NMTAP	43	96	3
NMTAP	43	192	4
NMTAP	43	192	5
NMTAP	43	288	1
NMTAP	43	288	2
NMHLD	44	0	5	72
NMHLD	44	72	6	72
NMTAP	44	144	7
NMHLD	44	192	2	72
NMHLD	44	264	1	72
NMTAP	44	336	0
NMTAP	45	0	7
NMTAP	45	48	7
NMSTR	45	96	0
NMSI_	45	96	0	96	48	4
NMSTR	45	96	6
NMSI_	45	96	6	96	48	2
BRHLD	46	0	1	768
NMTTP	46	192	2	E	0	M1
NMTTP	46	288	3	E	0	M1
NMTTP	47	0	3	B	0	M1
NMTTP	47	0	4	E	0	M1
NMTAP	47	192	2
NMTAP	47	288	0
NMHLD	48	0	7	768
NMTTP	48	192	7	E	0	M1
NMTTP	48	288	6	E	0	M1
NMTTP	49	0	4	B	0	M1
NMTTP	49	0	5	E	0	M1
NMTAP	49	192	6
NMTAP	49	288	0
NMTAP	50	0	1
NMTAP	50	48	1
NMTAP	50	96	3
NMTAP	50	144	3
NMTAP	50	192	4
NMTAP	50	240	4
NMTAP	50	288	6
NMTAP	50	336	6
NMTAP	51	0	2
NMTAP	51	48	2
NMTAP	51	96	0
NMTAP	51	144	0
NMTAP	51	192	7
NMTAP	51	240	7
NMTAP	51	288	5
NMTAP	51	336	5
NMTAP	52	0	3
NMTAP	52	24	4
NMTAP	52	48	3
NMTAP	52	72	4
NMTAP	52	96	3
NMTAP	52	120	4
NMTAP	52	144	3
NMTAP	52	168	4
NMTAP	52	192	2
NMTAP	52	216	5
NMTAP	52	240	2
NMTAP	52	264	5
NMTAP	52	288	2
NMTTP	53	0	0	C	1	M1
NMTTP	53	0	2	B	0	M1
NMTTP	53	0	5	B	0	M1
NMSTR	53	288	0
NMSI_	53	288	0	96	48	4
NMTAP	53	288	7
BRSTR	54	0	5
NMSI_	54	0	5	96	48	0
NMSTR	54	96	1
NMSI_	54	96	1	96	48	4
NMSTR	54	192	6
NMSI_	54	192	6	96	48	3
NMSTR	54	288	2
NMSI_	54	288	2	96	48	7
NMSTR	55	0	4
NMSI_	55	0	4	96	48	1
NMSTR	55	96	0
NMSCL	55	96	0	96	96	3
BRTAP	55	192	7
NMSTR	56	0	0
NMSI_	56	0	0	96	48	5
NMTAP	56	0	1
NMSTR	56	96	2
NMSI_	56	96	2	96	48	7
NMSTR	56	192	4
NMSI_	56	192	4	96	48	1
NMTAP	56	288	3
NMTAP	57	0	0
NMTAP	57	48	0
NMSTR	57	96	1
NMSI_	57	96	1	96	48	6
NMSTR	57	96	2
NMSI_	57	96	2	96	48	5
BRTAP	57	288	4
BRTAP	57	288	7
NMTAP	58	0	2
NMSTR	58	0	3
NMSI_	58	0	3	96	48	6
NMSTR	58	96	1
NMSI_	58	96	1	96	48	4
NMSTR	58	192	7
NMSI_	58	192	7	96	48	2
NMSTR	58	288	0
NMSI_	58	288	0	96	48	5
NMSTR	59	0	3
NMSI_	59	0	3	96	48	6
NMSTR	59	96	2
NMSI_	59	96	2	96	48	7
NMTAP	59	192	7
BRTAP	59	288	0
BRTAP	59	288	5
NMSTR	60	0	1
NMSI_	60	0	1	96	48	4
NMSTR	60	0	4
NMSI_	60	0	4	96	48	7
NMSTR	60	192	3
NMSCL	60	192	3	96	48	0
NMSTR	60	192	6
NMSCL	60	192	6	96	48	3
BRTAP	61	0	7
BRTAP	61	96	0
BRSTR	61	96	6
NMSI_	61	96	6	96	48	3
BRSTR	61	192	1
BRSF_	61	192	1	96	48	5
EXTAP	62	0	3
EXTAP	62	0	7
EXTAP	62	48	3
EXTAP	62	48	7
BRTAP	62	96	2
BRTAP	62	96	6
NMTAP	62	192	1
NMTAP	62	216	0
NMTAP	62	240	1
NMTAP	62	288	2
NMTAP	62	288	7
NMTAP	63	0	6
NMTAP	63	24	7
NMTAP	63	48	6
NMTAP	63	96	0
NMTAP	63	96	5
NMTAP	63	192	2
NMTAP	63	192	3
NMTAP	63	240	3
NMTAP	63	240	4
NMTAP	63	288	4
NMTAP	63	288	5
NMTAP	64	0	6
NMTAP	64	24	7
NMTAP	64	48	6
NMTAP	64	96	0
NMTAP	64	96	5
NMTAP	64	192	1
NMTAP	64	216	0
NMTAP	64	240	1
NMTAP	64	288	2
NMTAP	64	288	7
NMHLD	65	0	4	48
NMHLD	65	0	6	48
NMHLD	65	96	3	48
NMHLD	65	96	4	48
NMHLD	65	192	1	48
NMHLD	65	192	3	48
BRTAP	65	288	0
BRTAP	65	288	7
NMTAP	66	0	5
NMTAP	66	24	4
NMTAP	66	48	5
NMTAP	66	96	2
NMTAP	66	120	3
NMTAP	66	144	2
NMTAP	66	192	6
NMTAP	66	216	5
NMTAP	66	240	6
BRTAP	66	288	4
BRTAP	66	288	7
NMTAP	67	0	1
NMTAP	67	24	0
NMTAP	67	48	1
NMTAP	67	96	6
NMTAP	67	120	7
NMTAP	67	144	6
NMTAP	67	192	1
NMTAP	67	216	2
NMTAP	67	240	1
BRTAP	67	288	0
BRTAP	67	288	3
BRTAP	68	0	6
BRSTR	68	0	7
NMSI_	68	0	7	96	48	2
NMSTR	68	96	3
NMSI_	68	96	3	96	48	6
BRSTR	68	192	4
NMSI_	68	192	4	96	48	1
NMSTR	68	288	0
NMSI_	68	288	0	96	48	5
BRTAP	69	0	3
NMTAP	69	48	3
NMTAP	69	96	3
NMTAP	69	144	3
BRTAP	69	192	2
BRTAP	69	192	4
NMTAP	69	240	3
NMTAP	69	240	5
NMTAP	69	288	4
NMSTR	69	288	6
NMSI_	69	288	6	96	48	2
BRSTR	70	0	0
NMSCR	70	0	0	96	672	7
CNSUR	72	0	7	0	288	1
NMTHO	73	0	0	192	C	0	M1
NMHLD	74	0	0	96
NMHLD	74	96	1	96
NMHLD	74	192	2	96
NMHLD	74	288	3	96
NMHLD	75	0	7	96
NMHLD	75	96	6	96
NMHLD	75	192	5	96
NMHLD	75	288	4	96
NMTAP	76	0	1
NMTAP	76	48	1
NMTAP	76	96	3
NMTAP	76	144	3
NMTAP	76	192	5
NMTAP	76	240	5
NMTAP	76	288	7
NMTAP	76	336	7
NMTAP	77	0	5
NMTAP	77	48	5
NMTAP	77	96	3
NMTAP	77	144	3
NMTAP	77	192	1
NMTAP	77	240	1
NMTAP	77	288	7
NMTAP	77	336	7
BRTAP	78	0	0
BRTAP	78	0	6
NMTAP	78	144	2
NMTAP	78	168	3
NMHLD	78	192	1	72
NMTAP	78	264	0
NMTAP	78	336	6
NMTAP	78	360	7
NMHLD	79	0	5	72
NMTAP	79	72	4
NMTAP	79	144	2
NMTAP	79	168	3
NMHLD	79	192	1	72
NMTAP	79	264	0
NMTAP	79	336	2
NMTAP	79	336	7
BRHLD	80	0	3	96
BRHLD	80	0	6	96
NMTAP	80	144	5
NMTAP	80	168	4
NMHLD	80	192	6	72
NMHLD	80	264	7	72
NMTAP	80	336	0
NMTAP	81	0	1
NMTAP	81	48	2
NMTAP	81	48	3
NMTAP	81	96	2
NMSTR	81	96	3
NMSCR	81	96	3	96	120	1
BRTAP	81	192	1
BXTAP	82	0	2
BXTAP	82	0	7
NMSTR	82	96	1
NMSI_	82	96	1	96	48	4
NMTAP	82	144	1
NMSTR	82	192	0
NMSI_	82	192	0	96	48	5
NMTAP	82	240	0
NMSTR	82	288	2
NMSI_	82	288	2	96	48	7
NMTAP	82	336	2
BRTAP	83	0	6
NMSTR	83	96	5
NMSI_	83	96	5	96	48	0
NMTAP	83	144	5
NMSTR	83	192	4
NMSI_	83	192	4	96	48	1
NMTAP	83	240	4
NMSTR	83	288	6
NMSI_	83	288	6	96	48	3
NMTAP	83	336	6
BRTAP	84	0	2
NMTAP	84	96	0
NMTAP	84	96	1
NMTAP	84	144	2
NMTAP	84	144	7
NMTAP	84	192	3
NMTAP	84	192	6
NMTAP	84	240	5
NMTAP	84	264	4
NMTAP	84	288	5
NMTAP	84	312	4
NMTAP	84	336	5
NMTAP	85	0	2
NMTAP	85	24	3
NMTAP	85	48	2
NMTAP	85	72	3
NMTAP	85	96	2
NMTAP	85	120	3
NMTAP	85	144	2
NMTAP	85	168	3
NMTAP	85	192	2
NMTAP	85	216	1
NMTAP	85	240	0
NMTAP	85	264	7
NMTAP	85	288	6
NMTAP	85	312	5
NMTAP	85	336	4
NMTAP	85	360	3
NMTTP	86	0	0	B	0	M1
NMTTP	86	0	0	C	1	M1
NMTTP	86	0	0	E	0	M1
NMTAP	86	0	2
NMTTP	86	0	7	B	0	M1

T_REC_TAP	341
T_REC_BRK	38
T_REC_XTP	14
T_REC_BXX	3
T_REC_HLD	57
T_REC_XHO	0
T_REC_BHO	3
T_REC_BXH	3
T_REC_STR	48
T_REC_BST	6
T_REC_XST	0
T_REC_XBS	0
T_REC_TTP	21
T_REC_THO	4
T_REC_SLD	48
T_REC_BSL	6
T_REC_ALL	592
T_NUM_TAP	424
T_NUM_BRK	59
T_NUM_HLD	61
T_NUM_SLD	48
T_NUM_ALL	592
T_JUDGE_TAP	471
T_JUDGE_HLD	187
T_JUDGE_SLD	54
T_JUDGE_ALL	712
TTM_EACHPAIRS	115
TTM_SCR_TAP	212000
TTM_SCR_BRK	153400
TTM_SCR_HLD	61000
TTM_SCR_SLD	72000
TTM_SCR_ALL	498400
TTM_SCR_S	477750
TTM_SCR_SS	492500
TTM_RAT_ACV	10119

