VERSION	0.00.00	1.04.00
FES_MODE	0
BPM_DEF	156.000	156.000	156.000	156.000
MET_DEF	4	4
RESOLUTION	384
CLK_DEF	384
COMPATIBLE_CODE	MA2

BPM	0	0	156.000
MET	0	0	4	4

NMHLD	2	0	2	192
NMHLD	2	192	3	192
NMHLD	3	0	4	192
NMTAP	3	192	5
NMHLD	4	0	5	192
NMHLD	4	192	4	192
NMHLD	5	0	3	192
NMTAP	5	192	2
NMTAP	6	0	3
NMTAP	6	96	3
NMTAP	6	192	2
NMTAP	6	288	2
NMTAP	7	0	1
NMTAP	7	96	1
NMTAP	7	192	0
NMTAP	7	288	0
NMTAP	8	0	7
NMTAP	8	96	7
NMTAP	8	192	6
NMTAP	8	288	6
NMTAP	9	0	5
NMTAP	9	96	5
NMTAP	9	192	4
NMTAP	9	288	4
BRTAP	10	0	3
BRTAP	10	0	4
NMHLD	11	0	3	192
NMHLD	11	0	4	192
NMTAP	12	0	5
NMTAP	12	96	5
NMTAP	12	192	6
NMTAP	12	192	7
NMTAP	12	288	6
NMTAP	12	288	7
NMTAP	13	0	0
NMTAP	13	96	0
NMTAP	13	192	0
NMTAP	13	192	1
NMTAP	14	0	2
NMTAP	14	96	2
NMTAP	14	192	0
NMTAP	14	192	1
NMTAP	14	288	0
NMTAP	14	288	1
NMTAP	15	0	7
NMTAP	15	96	7
NMTAP	15	192	6
NMTAP	15	192	7
NMTAP	16	0	6
NMTAP	16	96	6
NMTAP	16	192	4
NMTAP	16	192	5
NMTAP	16	288	4
NMTAP	16	288	5
NMTAP	17	0	3
NMTAP	17	96	3
NMTAP	17	192	2
NMTAP	17	192	3
NMTAP	18	0	1
NMTAP	18	96	1
NMTAP	18	192	2
NMTAP	18	192	3
NMTAP	18	288	2
NMTAP	18	288	3
NMTAP	19	0	4
NMTAP	19	96	4
NMTAP	19	192	4
NMTAP	19	192	5
NMTAP	20	0	6
NMTAP	20	96	6
NMTAP	20	192	6
NMTAP	20	288	6
NMTAP	20	288	7
NMTAP	21	0	5
NMTAP	21	96	5
NMTAP	21	192	5
NMTAP	21	288	4
NMTAP	21	288	5
NMTAP	22	0	3
NMTAP	22	96	3
NMTAP	22	192	3
NMTAP	22	288	2
NMTAP	22	288	3
NMTAP	23	0	1
NMTAP	23	96	1
NMTAP	23	192	0
NMTAP	23	192	1
NMTAP	24	0	1
NMTAP	24	96	1
NMTAP	24	192	1
NMTAP	24	288	0
NMTAP	24	288	1
NMTAP	25	0	2
NMTAP	25	96	2
NMTAP	25	192	2
NMTAP	25	288	2
NMTAP	25	288	3
NMTAP	26	0	4
NMTAP	26	96	4
NMTAP	26	192	4
NMTAP	26	288	4
NMTAP	26	288	5
NMTAP	27	0	6
NMTAP	27	96	6
NMTAP	27	192	6
NMTAP	27	192	7
BXTAP	28	0	0
BXTAP	28	0	7
NMHLD	29	0	0	192
NMHLD	29	0	7	192
NMHLD	30	0	6	192
NMHLD	30	192	7	192
NMHLD	31	0	0	192
NMTAP	31	192	1
NMHLD	32	0	1	192
NMHLD	32	192	0	192
NMHLD	33	0	7	192
NMTAP	33	192	6
NMHLD	34	0	6	192
NMHLD	34	192	5	192
NMHLD	35	0	4	192
NMTAP	35	192	3
NMHLD	36	0	1	192
NMHLD	36	192	2	192
NMHLD	37	0	3	192
NMTAP	37	192	4
BRTAP	38	0	2
NMTAP	38	48	2
NMTAP	38	96	2
NMTAP	38	192	1
NMTAP	38	288	1
NMTAP	39	0	0
NMTAP	39	48	0
NMTAP	39	96	0
NMTAP	39	192	6
NMTAP	39	192	7
NMTAP	40	0	5
NMTAP	40	48	5
NMTAP	40	96	5
NMTAP	40	192	6
NMTAP	40	288	6
NMTAP	41	0	7
NMTAP	41	48	7
NMTAP	41	96	7
NMTAP	41	192	0
NMTAP	41	192	1
NMTAP	42	0	1
NMTAP	42	48	1
NMTAP	42	96	1
NMTAP	42	192	2
NMTAP	42	288	2
NMTAP	43	0	3
NMTAP	43	48	3
NMTAP	43	96	3
NMTAP	43	192	4
NMTAP	43	192	5
NMTAP	44	0	6
NMTAP	44	48	6
NMTAP	44	96	6
NMTAP	44	192	5
NMTAP	44	288	5
NMTAP	45	0	4
NMTAP	45	48	4
NMTAP	45	96	4
NMTAP	45	192	2
NMTAP	45	192	3
NMTTP	46	0	1	B	0	L1
NMTTP	46	96	2	B	0	L1
NMTTP	46	192	3	B	0	L1
NMTTP	47	0	6	B	0	L1
NMTTP	47	96	5	B	0	L1
NMTTP	47	192	4	B	0	L1
NMTTP	48	0	1	B	0	L1
NMTTP	48	96	2	B	0	L1
NMTTP	48	192	3	B	0	L1
NMTTP	48	288	4	B	0	L1
NMTTP	49	0	5	B	0	L1
NMTTP	49	96	6	B	0	L1
NMTTP	49	192	0	C	0	L1
NMTTP	50	0	7	B	0	L1
NMTTP	50	96	6	B	0	L1
NMTTP	50	192	5	B	0	L1
NMTTP	50	288	4	B	0	L1
NMTTP	51	0	3	B	0	L1
NMTTP	51	96	2	B	0	L1
NMTTP	51	192	1	B	0	L1
NMTTP	51	288	0	B	0	L1
NMTHO	52	0	0	384	C	1	L1
NMTAP	54	0	7
NMTAP	54	48	7
NMTAP	54	96	7
NMTAP	54	192	0
NMTAP	54	192	7
NMTAP	54	288	0
NMTAP	54	288	7
NMTAP	55	0	0
NMTAP	55	48	0
NMTAP	55	96	0
NMTAP	55	192	0
NMTAP	55	192	1
NMTAP	55	288	0
NMTAP	55	288	1
NMTAP	56	0	2
NMTAP	56	48	2
NMTAP	56	96	2
NMTAP	56	192	0
NMTAP	56	192	1
NMTAP	56	288	0
NMTAP	56	288	1
NMTAP	57	0	7
NMTAP	57	48	7
NMTAP	57	96	7
NMTAP	57	192	6
NMTAP	57	192	7
NMTAP	58	0	6
NMTAP	58	48	6
NMTAP	58	96	6
NMTAP	58	192	4
NMTAP	58	192	5
NMTAP	58	288	4
NMTAP	58	288	5
NMTAP	59	0	3
NMTAP	59	48	3
NMTAP	59	96	3
NMTAP	59	192	2
NMTAP	59	192	3
NMTAP	59	288	2
NMTAP	59	288	3
NMTAP	60	0	1
NMTAP	60	48	1
NMTAP	60	96	1
NMTAP	60	192	2
NMTAP	60	192	3
NMTAP	60	288	2
NMTAP	60	288	3
NMTAP	61	0	4
NMTAP	61	48	4
NMTAP	61	96	4
BXTAP	61	192	4
BXTAP	61	192	5
NMTAP	62	0	5
NMTAP	62	48	5
NMTAP	62	96	5
NMTAP	62	192	6
NMTAP	62	240	6
NMTAP	62	288	6
NMTAP	63	0	7
NMTAP	63	48	7
NMTAP	63	96	7
NMTAP	63	192	0
NMTAP	63	192	1
NMTAP	63	288	0
NMTAP	63	288	1
NMTAP	64	0	2
NMTAP	64	48	2
NMTAP	64	96	2
NMTAP	64	192	1
NMTAP	64	240	1
NMTAP	64	288	1
NMTAP	65	0	0
NMTAP	65	48	0
NMTAP	65	96	0
NMTAP	65	192	6
NMTAP	65	192	7
NMTAP	66	0	6
NMTAP	66	48	6
NMTAP	66	96	6
NMTAP	66	192	5
NMTAP	66	240	5
NMTAP	66	288	5
NMTAP	67	0	4
NMTAP	67	48	4
NMTAP	67	96	4
NMTAP	67	192	2
NMTAP	67	192	3
NMTAP	67	288	2
NMTAP	67	288	3
NMTAP	68	0	1
NMTAP	68	48	1
NMTAP	68	96	1
NMTAP	68	192	2
NMTAP	68	240	2
NMTAP	68	288	2
NMTAP	69	0	3
NMTAP	69	48	3
NMTAP	69	96	3
NMTAP	69	192	4
NMTAP	69	192	5
NMSTR	70	0	6
NMSI_	70	0	6	96	192	3
NMSTR	71	0	1
NMSI_	71	0	1	96	192	5
NMSTR	72	0	6
NMSI_	72	0	6	96	192	2
NMSTR	73	0	0
NMSI_	73	0	0	96	192	4
NMSTR	74	0	5
NMSCR	74	0	5	96	192	0
NMSTR	75	0	1
NMSCR	75	0	1	96	192	4
NMSTR	76	0	6
NMSI_	76	0	6	96	192	3
NMTAP	77	0	2
NMTAP	77	192	3
NMTAP	77	192	4
BRTAP	78	0	2
BRTAP	78	0	3
NMTAP	78	96	2
NMTAP	78	96	3
NMTAP	78	192	1
NMTAP	78	240	1
NMTAP	78	288	1
NMTAP	79	0	0
NMTAP	79	0	7
NMTAP	79	96	0
NMTAP	79	96	7
NMTAP	79	192	6
NMTAP	79	240	6
NMTAP	79	288	6
BRTAP	80	0	4
BRTAP	80	0	5
NMTAP	80	96	4
NMTAP	80	96	5
NMTAP	80	192	6
NMTAP	80	240	6
NMTAP	80	288	6
NMTAP	81	0	0
NMTAP	81	0	7
NMTAP	81	48	0
NMTAP	81	48	7
NMTAP	81	96	0
NMTAP	81	96	7
NMTAP	81	192	1
NMTAP	81	192	6
NMTAP	82	0	7
NMTAP	82	96	6
NMTAP	82	192	5
NMTAP	82	288	4
NMTAP	83	0	3
NMTAP	83	96	2
NMTAP	83	192	1
NMTAP	83	288	0
NMTAP	84	0	0
NMTAP	84	0	7
NMTAP	84	48	0
NMTAP	84	48	7
NMTAP	84	96	0
NMTAP	84	96	7
NMTAP	84	192	1
NMTAP	84	192	6
NMTAP	84	240	1
NMTAP	84	240	6
NMTAP	84	288	1
NMTAP	84	288	6
NMTAP	85	0	2
NMTAP	85	0	5
NMTAP	85	48	2
NMTAP	85	48	5
NMTAP	85	96	2
NMTAP	85	96	5
NMTAP	85	192	3
NMTAP	85	192	4
NMTAP	85	240	3
NMTAP	85	240	4
NMTAP	85	288	3
NMTAP	85	288	4
BRTAP	86	0	2
BRTAP	86	0	5

T_REC_TAP	297
T_REC_BRK	9
T_REC_XTP	0
T_REC_BXX	4
T_REC_HLD	22
T_REC_XHO	0
T_REC_BHO	0
T_REC_BXH	0
T_REC_STR	7
T_REC_BST	0
T_REC_XST	0
T_REC_XBS	0
T_REC_TTP	21
T_REC_THO	1
T_REC_SLD	7
T_REC_BSL	0
T_REC_ALL	368
T_NUM_TAP	325
T_NUM_BRK	13
T_NUM_HLD	23
T_NUM_SLD	7
T_NUM_ALL	368
T_JUDGE_TAP	338
T_JUDGE_HLD	96
T_JUDGE_SLD	7
T_JUDGE_ALL	441
TTM_EACHPAIRS	72
TTM_SCR_TAP	162500
TTM_SCR_BRK	33800
TTM_SCR_HLD	23000
TTM_SCR_SLD	10500
TTM_SCR_ALL	229800
TTM_SCR_S	221650
TTM_SCR_SS	228500
TTM_RAT_ACV	10056

