VERSION	0.00.00	1.04.00
FES_MODE	0
BPM_DEF	156.000	156.000	156.000	156.000
MET_DEF	4	4
RESOLUTION	384
CLK_DEF	384
COMPATIBLE_CODE	MA2

BPM	0	0	156.000
MET	0	0	4	4

NMSTR	2	0	7
NMSI_	2	0	7	96	288	4
NMSTR	4	0	3
NMSI_	4	0	3	96	288	0
NMTAP	6	0	7
NMTAP	6	192	7
NMTAP	7	0	7
NMTAP	7	96	7
NMTAP	7	192	7
NMTAP	8	0	0
NMTAP	8	192	0
NMTAP	9	0	0
NMTAP	9	96	0
NMTAP	9	192	0
BRTAP	10	0	0
BRTAP	10	0	7
NMTAP	12	0	0
NMTAP	12	96	0
NMTAP	12	192	0
NMTAP	13	0	1
NMTAP	13	96	1
NMTAP	13	192	1
NMTAP	14	0	2
NMTAP	14	96	2
NMTAP	14	192	2
NMTAP	15	0	3
NMTAP	15	96	3
NMTAP	15	192	3
NMTAP	16	0	4
NMTAP	16	96	4
NMTAP	16	192	4
NMTAP	17	0	5
NMTAP	17	96	5
NMTAP	17	192	5
NMTAP	18	0	6
NMTAP	18	96	6
NMTAP	18	192	6
NMTAP	19	0	6
NMTAP	19	0	7
NMHLD	20	0	6	192
NMHLD	20	0	7	192
NMTAP	21	0	6
NMTAP	21	0	7
NMHLD	22	0	4	192
NMHLD	22	0	5	192
NMTAP	23	0	4
NMTAP	23	0	5
NMHLD	24	0	2	192
NMHLD	24	0	3	192
NMTAP	25	0	2
NMTAP	25	0	3
NMHLD	26	0	0	192
NMHLD	26	0	1	192
NMTAP	27	0	0
NMTAP	27	0	1
BRTAP	28	0	0
BRTAP	28	0	7
NMSTR	30	0	0
NMSI_	30	0	0	96	288	4
NMSTR	32	0	7
NMSI_	32	0	7	96	288	3
NMSTR	34	0	1
NMSI_	34	0	1	96	288	5
NMSTR	36	0	6
NMSI_	36	0	6	96	288	2
NMTAP	38	0	0
NMTAP	38	96	0
NMTAP	38	192	0
NMTAP	39	0	0
NMTAP	39	0	1
NMTAP	39	192	0
NMTAP	39	192	1
NMTAP	40	0	2
NMTAP	40	96	2
NMTAP	40	192	2
NMTAP	41	0	3
NMTAP	41	0	4
NMTAP	41	192	3
NMTAP	41	192	4
NMTAP	42	0	4
NMTAP	42	96	4
NMTAP	42	192	4
NMTAP	43	0	4
NMTAP	43	0	5
NMTAP	43	192	4
NMTAP	43	192	5
NMTAP	44	0	6
NMTAP	44	96	6
NMTAP	44	192	6
NMTAP	45	0	0
NMTAP	45	0	7
NMTTP	46	0	6	B	0	L1
NMTTP	46	0	7	B	0	L1
NMTTP	47	0	4	B	0	L1
NMTTP	47	0	5	B	0	L1
NMTTP	48	0	2	B	0	L1
NMTTP	48	0	3	B	0	L1
NMTTP	49	0	0	B	0	L1
NMTTP	49	0	1	B	0	L1
NMTTP	50	0	2	B	0	L1
NMTTP	50	0	3	B	0	L1
NMTTP	50	0	3	E	0	L1
NMTTP	51	0	4	B	0	L1
NMTTP	51	0	5	B	0	L1
NMTTP	51	0	5	E	0	L1
NMTHO	52	0	0	384	C	1	L1
BRTAP	54	0	0
NMTAP	54	96	0
NMTAP	54	192	1
NMTAP	54	288	1
NMTAP	55	0	2
NMTAP	55	96	2
NMTAP	55	192	2
NMTAP	55	192	3
NMTAP	56	0	4
NMTAP	56	96	4
NMTAP	56	192	5
NMTAP	56	288	5
NMTAP	57	0	6
NMTAP	57	96	6
NMTAP	57	192	6
NMTAP	57	192	7
NMTAP	58	0	7
NMTAP	58	96	7
NMTAP	58	192	6
NMTAP	58	288	6
NMTAP	59	0	5
NMTAP	59	96	5
NMTAP	59	192	3
NMTAP	59	192	4
NMTAP	60	0	3
NMTAP	60	96	3
NMTAP	60	192	2
NMTAP	60	288	2
NMTAP	61	0	1
NMTAP	61	96	1
NMTAP	61	192	0
NMTAP	61	192	7
BRTAP	62	0	0
NMTAP	62	96	0
NMTAP	62	192	1
NMTAP	62	288	1
NMTAP	63	0	2
NMTAP	63	96	2
NMTAP	63	192	3
NMTAP	63	288	3
NMTAP	64	0	4
NMTAP	64	96	4
NMTAP	64	192	5
NMTAP	64	288	5
NMTAP	65	0	6
NMTAP	65	0	7
NMTAP	65	96	6
NMTAP	65	96	7
NMTAP	65	192	6
NMTAP	65	192	7
NMTAP	66	0	6
NMTAP	66	96	6
NMTAP	66	192	5
NMTAP	66	288	5
NMTAP	67	0	4
NMTAP	67	96	4
NMTAP	67	192	3
NMTAP	67	288	3
NMTAP	68	0	2
NMTAP	68	96	2
NMTAP	68	192	1
NMTAP	68	288	1
BRTAP	69	0	0
BRTAP	69	0	7
NMHLD	70	0	0	192
NMTAP	71	0	1
NMTAP	71	96	1
NMTAP	71	192	1
NMHLD	72	0	2	192
NMTAP	73	0	3
NMTAP	73	96	3
NMTAP	73	192	3
NMHLD	74	0	4	192
NMTAP	75	0	5
NMTAP	75	96	5
NMTAP	75	192	5
NMHLD	76	0	6	192
NMTAP	77	0	7
NMTAP	77	96	7
NMTAP	77	192	7
NMTAP	78	0	6
NMTAP	78	0	7
NMTAP	78	96	6
NMTAP	78	96	7
NMTAP	78	192	6
NMTAP	78	192	7
NMTAP	79	0	4
NMTAP	79	0	5
NMTAP	79	96	4
NMTAP	79	96	5
NMTAP	79	192	4
NMTAP	79	192	5
NMTAP	80	0	2
NMTAP	80	0	3
NMTAP	80	96	2
NMTAP	80	96	3
NMTAP	80	192	2
NMTAP	80	192	3
NMTAP	81	0	0
NMTAP	81	0	1
NMTAP	81	96	0
NMTAP	81	96	1
NMTAP	81	192	0
NMTAP	81	192	1
NMTAP	82	0	2
NMTAP	82	96	2
NMTAP	82	192	3
NMTAP	82	288	3
NMTAP	83	0	4
NMTAP	83	96	4
NMTAP	83	192	5
NMTAP	83	288	5
NMTAP	84	0	3
NMTAP	84	0	4
NMTAP	84	96	3
NMTAP	84	96	4
NMTAP	84	192	2
NMTAP	84	192	5
NMTAP	84	288	2
NMTAP	84	288	5
NMTAP	85	0	1
NMTAP	85	0	6
NMTAP	85	96	1
NMTAP	85	96	6
NMTAP	85	192	0
NMTAP	85	192	7
NMTAP	85	288	0
NMTAP	85	288	7
BRTAP	86	0	0
BRTAP	86	0	7

T_REC_TAP	187
T_REC_BRK	10
T_REC_XTP	0
T_REC_BXX	0
T_REC_HLD	12
T_REC_XHO	0
T_REC_BHO	0
T_REC_BXH	0
T_REC_STR	6
T_REC_BST	0
T_REC_XST	0
T_REC_XBS	0
T_REC_TTP	14
T_REC_THO	1
T_REC_SLD	6
T_REC_BSL	0
T_REC_ALL	236
T_NUM_TAP	207
T_NUM_BRK	10
T_NUM_HLD	13
T_NUM_SLD	6
T_NUM_ALL	236
T_JUDGE_TAP	217
T_JUDGE_HLD	56
T_JUDGE_SLD	6
T_JUDGE_ALL	279
TTM_EACHPAIRS	47
TTM_SCR_TAP	103500
TTM_SCR_BRK	26000
TTM_SCR_HLD	13000
TTM_SCR_SLD	9000
TTM_SCR_ALL	151500
TTM_SCR_S	146000
TTM_SCR_SS	150500
TTM_RAT_ACV	10066

