VERSION	0.00.00	1.04.00
FES_MODE	0
BPM_DEF	242.000	242.000	242.000	242.000
MET_DEF	4	4
RESOLUTION	384
CLK_DEF	384
COMPATIBLE_CODE	MA2

BPM	0	0	242.000
MET	0	0	4	4

NMHLD	3	0	2	192
NMHLD	3	0	4	1152
NMHLD	4	0	3	192
NMTTP	5	0	4	B	0	M1
NMTTP	5	192	5	E	0	M1
NMTTP	6	0	4	E	0	M1
NMHLD	6	192	3	1536
NMTAP	6	192	4
NMHLD	7	0	5	192
NMHLD	8	0	4	192
NMTTP	9	0	3	B	0	M1
NMTTP	9	192	3	E	0	M1
NMTHO	10	0	0	192	C	0	M1
NMTTP	11	0	0	E	0	M1
NMTTP	11	192	0	C	0	M1
NMTTP	12	0	4	E	0	M1
NMTTP	12	192	3	E	0	M1
NMTTP	12	192	5	E	0	M1
NMHLD	13	0	4	96
NMHLD	13	96	2	96
NMTAP	13	192	3
NMTHO	13	288	0	192	C	0	M1
NMTAP	13	288	4
NMTAP	14	192	7
NMTAP	14	240	7
NMTAP	14	288	0
NMSTR	14	288	7
NMSI_	14	288	7	96	48	3
BRTAP	15	0	1
NMSTR	15	48	1
NMSI_	15	48	1	96	48	5
BRTAP	15	144	6
NMSTR	15	192	6
NMSI_	15	192	6	96	48	2
BRTAP	15	288	0
NMSTR	15	336	0
NMSI_	15	336	0	96	48	4
BRTAP	16	48	7
NMTAP	16	96	7
NMTAP	16	192	0
NMTAP	16	192	6
NMTAP	16	240	0
NMTAP	16	240	6
NMSTR	16	288	1
NMSI_	16	288	1	96	48	5
NMTAP	16	288	5
BRTAP	17	0	6
NMSTR	17	48	6
NMSI_	17	48	6	96	48	2
BRTAP	17	144	0
NMSTR	17	192	0
NMSI_	17	192	0	96	48	4
BRTAP	17	288	7
NMTAP	17	336	7
NMHLD	18	48	4	24
NMHLD	18	96	4	24
NMHLD	18	144	4	24
NMHLD	18	192	3	24
NMHLD	18	192	5	24
NMHLD	18	240	2	24
NMHLD	18	240	6	24
EXTAP	18	288	1
EXSTR	18	288	7
NMSI_	18	288	7	96	48	3
NMTAP	19	0	1
NMTAP	19	0	7
NMSTR	19	48	0
NMSCL	19	48	0	96	96	5
NMSLL	19	48	0	96	96	4
NMSTR	19	288	3
NMSI_	19	288	3	96	48	7
NMTAP	20	0	3
NMTAP	20	0	5
NMSTR	20	48	4
NMSCL	20	48	4	96	96	1
NMSLL	20	48	4	96	96	0
NMSTR	20	288	6
NMSI_	20	288	6	96	48	2
NMTAP	21	0	0
NMTAP	21	0	6
NMSTR	21	48	7
NMSCL	21	48	7	96	96	4
NMSLL	21	48	7	96	96	3
NMHLD	21	288	7	96
NMTAP	22	0	3
NMTAP	22	48	3
NMTAP	22	96	3
NMTAP	22	144	3
NMTAP	22	192	2
NMTAP	22	192	4
NMSTR	22	288	0
NMSI_	22	288	0	96	48	5
NMTAP	23	0	0
NMTAP	23	0	6
NMSTR	23	48	7
NMSI_	23	48	7	96	48	2
NMSLR	23	48	7	96	96	3
CNSI_	23	192	2	0	48	4
NMSTR	23	288	5
NMSI_	23	288	5	96	48	2
NMTAP	24	0	3
NMTAP	24	0	5
NMSTR	24	48	4
NMSI_	24	48	4	96	48	7
NMSLR	24	48	4	96	96	0
CNSI_	24	192	7	0	48	1
NMSTR	24	288	2
NMSI_	24	288	2	96	48	5
NMTAP	25	0	2
NMTAP	25	0	4
NMSTR	25	48	3
NMSI_	25	48	3	96	48	0
NMSLL	25	48	3	96	96	7
CNSI_	25	192	0	0	48	6
NMSTR	25	288	4
NMSI_	25	288	4	96	48	0
NMTAP	26	0	3
BRTAP	26	0	4
NMTAP	26	192	2
NMTAP	26	216	4
NMTAP	26	240	2
NMTAP	26	264	4
BRTAP	26	288	1
EXHLD	27	0	2	144
EXHLD	27	0	3	48
EXTAP	27	60	4
EXTAP	27	72	5
EXHLD	27	84	6	156
EXTAP	27	192	2
EXTAP	27	204	1
EXTAP	27	216	0
EXTAP	27	228	7
BXTAP	27	288	5
EXHLD	28	0	4	48
EXHLD	28	0	5	144
EXTAP	28	60	3
EXTAP	28	72	2
EXHLD	28	84	1	156
EXTAP	28	192	5
EXTAP	28	204	6
EXTAP	28	216	7
EXTAP	28	228	0
BXTAP	28	288	2
EXHLD	29	0	0	144
EXHLD	29	0	1	48
EXTAP	29	60	2
EXTAP	29	72	3
EXHLD	29	84	4	144
EXTAP	29	192	0
EXTAP	29	204	7
EXTAP	29	216	6
EXTAP	29	228	5
BXTAP	29	288	3
NMTAP	30	0	2
NMTAP	30	48	2
NMTAP	30	96	7
NMTAP	30	144	7
NMTAP	30	192	0
NMTAP	30	192	6
NMTAP	30	288	2
NMTAP	30	288	7
NMHLD	31	0	0	48
NMHLD	31	0	1	144
NMTAP	31	60	7
NMTAP	31	72	6
NMHLD	31	84	5	156
NMTAP	31	192	1
NMTAP	31	204	2
NMTAP	31	216	3
NMTAP	31	228	4
BRTAP	31	288	7
NMHLD	32	0	6	144
NMHLD	32	0	7	48
NMTAP	32	60	0
NMTAP	32	72	1
NMHLD	32	84	2	156
NMTAP	32	192	6
NMTAP	32	204	5
NMTAP	32	216	4
NMTAP	32	228	3
BRTAP	32	288	0
NMTAP	33	0	2
NMTAP	33	0	7
NMHLD	33	48	2	48
NMHLD	33	48	7	48
NMTAP	33	144	3
NMTAP	33	144	6
NMHLD	33	192	3	48
NMHLD	33	192	6	48
NMTAP	33	288	2
NMTAP	33	288	5
NMHLD	33	336	2	48
NMHLD	33	336	5	48
NMTAP	34	48	3
NMTAP	34	48	4
NMHLD	34	96	3	48
NMHLD	34	96	4	48
NMTAP	34	192	3
NMTAP	34	216	4
NMTAP	34	240	3
BRTAP	34	288	1
BRTAP	34	288	6
EXHLD	35	0	5	48
EXTAP	35	48	4
NMHLD	35	96	5	48
NMTAP	35	144	4
NMHLD	35	192	5	48
NMTAP	35	240	3
NMHLD	35	288	5	48
NMTAP	35	336	4
NMHLD	36	0	6	48
NMTAP	36	48	7
NMHLD	36	96	6	48
NMTAP	36	144	7
NMHLD	36	192	6	48
NMTAP	36	240	7
NMTAP	36	288	0
NMTAP	36	288	5
NMTAP	36	312	1
NMTAP	36	336	2
NMTAP	36	360	3
NMTAP	37	0	4
NMHLD	37	0	7	48
NMTAP	37	96	5
NMHLD	37	96	7	48
NMTAP	37	192	5
NMHLD	37	192	7	48
NMTAP	37	288	4
NMHLD	37	288	7	48
NMHLD	38	0	0	48
NMTAP	38	0	3
NMHLD	38	96	0	48
NMTAP	38	96	2
NMSTR	38	192	0
NMSI_	38	192	0	96	36	5
NMSTR	38	192	1
NMSI_	38	192	1	96	36	4
EXHLD	39	0	2	48
NMTAP	39	48	3
NMHLD	39	96	2	48
NMTAP	39	144	3
NMHLD	39	192	2	48
NMTAP	39	240	4
NMHLD	39	288	2	48
NMTAP	39	336	3
NMHLD	40	0	1	48
NMTAP	40	48	2
NMHLD	40	96	1	48
NMTAP	40	144	3
NMHLD	40	192	1	48
NMTAP	40	240	2
NMTAP	40	288	1
NMTAP	40	288	2
BRTAP	41	0	0
BRTAP	41	0	3
BRTAP	41	64	1
BRTAP	41	64	4
NMTAP	41	128	5
NMTAP	41	160	5
BRTAP	41	192	4
BRTAP	41	256	3
BRTAP	41	256	6
NMTAP	41	320	2
NMTAP	41	352	2
BRTAP	42	0	3
NMTAP	42	64	1
NMTAP	42	96	1
NMTAP	42	128	6
NMTAP	42	160	6
NMTAP	42	192	0
NMTAP	42	216	1
NMTAP	42	240	2
NMTAP	42	264	3
NMTAP	42	288	4
NMTAP	42	312	5
NMTAP	42	336	6
NMTAP	42	360	7
NMSTR	43	0	0
NMSF_	43	0	0	96	48	4
EXTAP	43	96	0
BRTAP	43	192	2
NMHLD	43	192	6	48
NMTAP	43	288	3
NMHLD	43	288	5	48
NMHLD	44	0	4	48
NMTAP	44	0	5
NMHLD	44	96	3	48
NMTAP	44	96	4
NMHLD	44	192	2	48
NMTAP	44	192	3
NMTAP	44	288	1
NMTAP	44	288	4
NMTAP	45	0	2
NMTAP	45	24	3
NMTAP	45	48	2
NMTAP	45	72	3
NMTAP	45	96	2
NMTAP	45	144	5
NMTAP	45	168	4
NMTAP	45	192	5
NMTAP	45	216	4
NMTAP	45	240	5
NMTAP	45	288	0
NMTAP	45	312	7
NMTAP	45	336	0
NMTAP	45	360	7
NMSTR	46	0	0
NMSI_	46	0	0	96	48	5
NMTAP	46	24	7
NMTAP	46	48	0
NMTAP	46	72	7
NMTAP	46	96	0
CNSI_	46	144	5	0	48	2
CNSI_	46	192	2	0	96	7
BRHLD	47	0	6	48
NMTAP	47	48	0
NMHLD	47	96	4	48
NMTAP	47	144	2
NMHLD	47	192	6	48
NMTAP	47	240	7
NMHLD	47	288	0	48
NMHLD	47	288	5	48
NMHLD	48	0	1	48
NMTAP	48	48	7
NMTAP	48	96	2
NMTAP	48	96	6
EXTAP	48	192	1
EXTAP	48	224	3
EXTAP	48	256	2
EXTAP	48	288	5
EXTAP	48	320	4
EXTAP	48	352	6
NMSTR	49	0	0
NMSCL	49	0	0	96	48	5
NMTAP	49	96	4
NMSTR	49	144	4
NMSI_	49	144	4	96	48	0
NMTAP	49	240	1
NMSTR	49	288	1
NMSCR	49	288	1	96	48	4
NMTAP	50	0	6
NMHLD	50	48	6	96
NMTAP	50	192	0
NMTAP	50	216	7
NMTAP	50	240	0
NMTAP	50	264	7
EXTAP	50	288	1
EXTAP	50	288	6
NMSTR	51	0	0
NMSI_	51	0	0	96	48	4
NMTAP	51	96	7
NMSTR	51	144	6
NMSCL	51	144	6	96	48	3
NMTAP	51	240	2
NMHLD	51	288	1	96
NMSTR	52	0	0
NMSI_	52	0	0	96	48	5
NMTAP	52	96	2
NMSTR	52	144	3
NMSCL	52	144	3	96	48	0
NMTAP	52	240	5
NMTAP	52	288	5
NMSTR	53	0	6
NMSLL	53	0	6	96	96	0
NMSTR	53	0	7
NMSI_	53	0	7	96	48	3
NMTAP	53	48	6
NMTAP	53	48	7
CNSI_	53	144	3	0	48	1
NMTAP	53	288	2
NMTAP	53	288	6
NMSTR	54	0	4
NMSI_	54	0	4	96	48	1
NMSI_	54	0	4	96	48	7
NMTAP	54	96	4
NMSTR	54	192	0
NMSCR	54	192	0	96	72	3
NMTAP	54	288	0
NMTAP	54	288	4
NMTAP	54	312	5
NMTAP	54	336	6
NMTAP	54	360	7
NMSTR	55	0	0
NMSI_	55	0	0	96	48	4
NMTAP	55	96	2
NMSTR	55	144	2
NMSI_	55	144	2	96	48	7
NMTAP	55	240	5
NMSTR	55	288	5
NMSCL	55	288	5	96	96	2
NMSTR	56	0	2
NMSI_	56	0	2	96	96	6
NMSTR	56	96	6
NMSCR	56	96	6	96	96	1
NMTAP	56	192	1
NMTAP	56	288	4
NMSTR	57	0	2
NMSLL	57	0	2	96	96	4
NMSTR	57	0	3
NMSI_	57	0	3	96	48	7
NMTAP	57	48	2
NMTAP	57	48	3
CNSI_	57	144	7	0	48	5
NMTAP	57	288	2
NMTAP	57	288	6
NMSTR	58	0	0
NMSI_	58	0	0	96	48	3
NMSI_	58	0	0	96	48	5
NMTAP	58	96	0
NMSTR	58	192	4
NMSCR	58	192	4	96	72	7
NMTAP	58	288	0
NMTAP	58	288	4
NMTAP	58	312	1
NMTAP	58	336	2
NMTAP	58	360	3
EXSTR	59	0	0
NMSV_	59	0	0	96	48	5
EXSTR	59	0	4
NMSV_	59	0	4	96	48	1
NMTAP	59	192	3
NMTAP	59	264	2
NMTAP	59	264	4
NMTAP	59	336	1
NMTAP	59	336	5
NMSTR	60	0	1
NMSI_	60	0	1	96	48	4
NMTAP	60	0	5
NMSTR	60	96	0
NMSI_	60	96	0	96	48	5
NMSTR	60	192	7
NMSI_	60	192	7	96	48	2
NMSTR	60	288	6
NMSI_	60	288	6	96	48	3
EXSTR	61	0	1
NMSCL	61	0	1	96	48	6
NMTAP	61	192	4
NMTAP	61	264	3
NMTAP	61	264	5
NMTAP	61	336	2
NMTAP	61	336	6
NMTAP	62	0	2
NMHLD	62	0	6	96
NMSTR	62	96	4
NMSI_	62	96	4	96	48	0
BXTAP	62	192	5
EXTAP	62	368	6
EXTAP	62	376	5
EXSTR	63	0	4
BRSCR	63	0	4	96	960	4
NMTTP	66	0	0	A	0	M1
NMTTP	66	24	0	E	0	M1
NMTTP	66	48	7	E	0	M1
NMTTP	66	72	6	A	0	M1
NMTTP	66	96	1	A	0	M1
NMTTP	66	120	1	B	0	M1
NMTTP	66	144	5	B	0	M1
NMTTP	66	168	5	A	0	M1
NMTTP	66	192	2	A	0	M1
NMTTP	66	216	3	E	0	M1
NMTTP	66	240	4	E	0	M1
NMTTP	66	264	4	A	0	M1
EXTAP	66	288	7
BRTAP	67	0	0
BRTAP	67	0	6
NMTAP	67	96	1
NMTAP	67	128	1
NMTAP	67	160	0
BRHLD	67	192	2	96
NMTAP	67	288	5
NMTAP	67	320	5
NMTAP	67	352	4
BRTAP	68	0	6
NMTAP	68	32	4
NMTAP	68	64	6
NMTAP	68	96	4
NMTAP	68	128	6
NMTAP	68	160	3
BRTAP	68	192	7
NMTAP	68	224	3
NMTAP	68	256	7
NMTAP	68	288	4
NMTAP	68	320	6
NMTAP	68	352	4
BRSTR	69	0	5
NMSCL	69	0	5	96	384	5
EXHLD	69	144	7	144
BRSTR	70	0	5
BRSLL	70	0	5	96	192	1
EXHLD	70	144	7	144
CNSLL	70	288	1	0	192	5
BRSTR	71	0	5
NMSCL	71	0	5	96	48	4
CNSCL	71	144	4	0	48	3
EXHLD	71	144	7	144
CNSCL	71	192	3	0	48	2
CNSCL	71	240	2	0	48	1
CNSCL	71	288	1	0	48	0
CNSCL	71	336	0	0	48	7
BRSTR	72	0	5
BRSI_	72	0	5	96	72	3
CNSCL	72	0	7	0	48	6
CNSCL	72	48	6	0	48	5
EXHLD	72	144	7	144
CNSI_	72	168	3	0	72	1
CNSI_	72	240	1	0	72	7
CNSI_	72	312	7	0	72	5
NMTAP	73	0	4
NMTAP	73	48	4
NMTAP	73	96	4
NMTAP	73	144	4
NMTAP	73	192	6
NMTAP	73	240	6
NMTAP	73	288	0
NMTAP	73	336	0
NMTAP	74	0	2
NMTAP	74	48	2
NMTAP	74	96	4
NMTAP	74	144	4
NMTAP	74	192	2
NMTAP	74	240	2
NMTAP	74	288	1
NMHLD	74	288	3	96
NMTAP	75	0	2
NMTAP	75	24	1
NMTAP	75	48	0
NMTAP	75	72	7
NMTAP	75	96	3
NMTAP	75	120	2
NMTAP	75	144	1
NMTAP	75	168	0
NMTAP	75	192	4
NMTAP	75	216	3
NMTAP	75	240	2
NMTAP	75	264	1
BXTAP	75	288	7
BXTAP	75	312	6
BXTAP	75	336	5
BXHLD	75	360	4	3288
NMSTR	77	0	3
BRSCL	77	0	3	96	672	3
CNSCR	79	0	3	0	768	3
CNSI_	81	0	3	0	192	1
CNSI_	81	192	1	0	192	7
CNSI_	82	0	7	0	192	5
CNSI_	82	192	5	0	192	3
CNSI_	83	0	3	0	192	5
CNSI_	83	192	5	0	192	7
CNSI_	84	0	7	0	192	1
CNSI_	84	192	1	0	72	3
NMHLD	85	0	4	1344
NMTTP	85	144	3	E	0	M1
NMTTP	85	288	0	C	0	M1
NMTTP	86	48	1	E	0	M1
NMTTP	86	192	3	E	0	M1
NMTTP	86	192	3	D	0	M1
NMTTP	87	0	5	E	0	M1
NMTTP	87	144	6	E	0	M1
NMTTP	87	288	0	C	0	M1
NMTTP	88	48	7	E	0	M1
NMTHO	88	192	0	2064	C	0	M1
NMTAP	89	0	6
NMTAP	89	96	7
NMHLD	89	144	7	144
NMTAP	90	0	6
NMTAP	90	96	7
NMHLD	90	144	7	144
NMSTR	91	0	7
NMSCL	91	0	7	96	192	4
CNSI_	91	288	4	0	192	0
EXTAP	92	288	0
EXTAP	92	336	0
NMTAP	93	48	7
NMTAP	93	96	7
NMTAP	93	144	7
NMTAP	93	192	6
NMTAP	93	240	6
NMTAP	93	288	6
BRTAP	93	336	6
NMHLD	94	192	0	72
NMTAP	94	264	7
NMTAP	94	336	1
NMTAP	94	336	6
BRSTR	95	0	1
NMSI_	95	0	1	96	48	6
BRSTR	95	0	6
NMSV_	95	0	6	96	48	3
NMTAP	95	96	1
NMSTR	95	96	6
BRSCR	95	96	6	96	120	4
EXTAP	95	192	5
NMTAP	95	288	6
NMTAP	95	336	6
NMSTR	96	0	6
NMSI_	96	0	6	96	48	3
NMSTR	96	96	7
NMSI_	96	96	7	96	48	3
NMSTR	96	192	0
NMSI_	96	192	0	96	48	3
NMTAP	96	288	2
NMSTR	97	0	1
NMSI_	97	0	1	96	48	4
NMSTR	97	48	4
NMSI_	97	48	4	96	48	1
NMSTR	97	96	1
BRSCL	97	96	1	96	120	3
BRTAP	97	144	7
NMTTP	97	288	0	A	0	M1
NMTTP	97	300	0	D	0	M1
NMTTP	97	312	7	A	0	M1
NMTTP	97	324	7	D	0	M1
NMTTP	97	336	6	A	0	M1
NMTTP	97	348	6	D	0	M1
NMTTP	97	360	5	A	0	M1
NMTTP	97	372	5	D	0	M1
BXTAP	98	0	0
NMTTP	98	0	4	A	1	M1
NMTAP	98	96	1
NMTAP	98	96	3
NMTAP	98	144	2
NMTAP	98	192	3
NMTAP	98	192	5
NMTAP	98	240	6
NMTAP	98	288	2
NMTAP	98	288	7
BRSTR	99	0	1
NMSV_	99	0	1	96	48	4
BRSTR	99	0	6
NMSI_	99	0	6	96	48	1
NMSTR	99	96	1
BRSCL	99	96	1	96	120	3
EXTAP	99	192	2
NMTAP	99	288	1
NMTAP	99	336	1
NMSTR	100	0	1
NMSI_	100	0	1	96	48	4
NMSTR	100	96	0
NMSI_	100	96	0	96	48	4
NMSTR	100	192	7
NMSI_	100	192	7	96	48	4
NMTAP	100	288	5
NMSTR	101	0	6
NMSI_	101	0	6	96	48	3
NMSTR	101	48	3
NMSI_	101	48	3	96	48	6
NMSTR	101	96	6
BRSCR	101	96	6	96	120	4
BRTAP	101	144	0
NMTTP	101	288	7	A	0	M1
NMTTP	101	300	0	D	0	M1
NMTTP	101	312	0	A	0	M1
NMTTP	101	324	1	D	0	M1
NMTTP	101	336	1	A	0	M1
NMTTP	101	348	2	D	0	M1
NMTTP	101	360	2	A	0	M1
NMTTP	101	372	3	D	0	M1
BXSTR	102	0	0
NMSF_	102	0	0	96	48	4
NMTTP	102	0	3	A	1	M1
EXTAP	102	96	0
BRTAP	102	192	2
BRTAP	102	192	6
NMTAP	102	288	0
NMTAP	102	288	7
BRTAP	103	0	1
BRTAP	103	0	5
NMTAP	103	48	2
NMTAP	103	72	3
NMTAP	103	96	2
NMTAP	103	144	1
NMTAP	103	192	5
NMTAP	103	216	4
NMTAP	103	240	5
NMTAP	103	288	6
NMTAP	103	336	0
NMTAP	104	0	1
NMTAP	104	0	7
NMTAP	104	48	1
NMTAP	104	96	1
NMTAP	104	96	3
NMTAP	104	144	1
NMTAP	104	192	0
NMTAP	104	192	1
NMTAP	104	240	1
NMTAP	104	288	1
NMTAP	104	288	5
BRTAP	105	0	2
BRTAP	105	0	6
NMTAP	105	48	5
NMTAP	105	72	4
NMTAP	105	96	5
NMTAP	105	144	6
NMTAP	105	192	2
NMTAP	105	216	3
NMTAP	105	240	2
NMTAP	105	288	1
NMTAP	105	336	7
NMTAP	106	0	0
NMTAP	106	0	6
NMTAP	106	48	6
NMTAP	106	96	4
NMTAP	106	96	6
NMTAP	106	144	6
NMTAP	106	192	6
NMTAP	106	192	7
NMTAP	106	240	6
NMTAP	106	288	0
NMTAP	106	288	6
NMTAP	107	0	1
NMTAP	107	0	7
NMSTR	107	48	0
BRSCL	107	48	0	96	64	4
NMTAP	107	96	6
NMTAP	107	144	0
NMTAP	107	240	1
NMTAP	107	256	0
NMTAP	107	272	7
NMTAP	107	288	6
NMTAP	107	304	5
NMTAP	107	320	4
NMTAP	107	336	3
NMTAP	108	0	0
NMSTR	108	48	7
BRSCR	108	48	7	96	64	3
NMTAP	108	96	1
NMTAP	108	144	7
NMTAP	108	240	6
NMTAP	108	256	7
NMTAP	108	272	0
NMTAP	108	288	1
NMTAP	108	304	2
NMTAP	108	320	3
NMTAP	108	336	4
BRTAP	109	0	6
BRSTR	109	48	6
NMSI_	109	48	6	96	48	2
BRTAP	109	144	3
BRSTR	109	192	3
BRSI_	109	192	3	96	48	7
BRTAP	109	288	5
BRSTR	109	336	5
NMSI_	109	336	5	96	48	1
BRTAP	110	48	0
BRTAP	110	96	0
EXHLD	110	192	0	48
EXHLD	110	264	1	48
EXHLD	110	264	7	48
EXTAP	110	336	2
EXTAP	110	336	6
BXHLD	111	0	2	336
BXSTR	111	0	6
NMSUL	111	0	6	96	96	5
CNSLL	111	192	5	0	96	1
CNSI_	111	288	1	0	96	7
BRTAP	112	192	0
NMTAP	112	224	0
NMTAP	112	256	0
BRTAP	112	288	7
NMTAP	112	320	7
NMTAP	112	352	7
NMSTR	113	0	1
NMSI_	113	0	1	96	48	4
NMSTR	113	0	6
NMSI_	113	0	6	96	48	3
BRTAP	113	96	1
BRTAP	113	96	6
NMSTR	113	192	0
NMSI_	113	192	0	96	48	4
NMSTR	113	240	5
NMSI_	113	240	5	96	48	1
NMSTR	113	288	0
NMSI_	113	288	0	96	48	2
NMTAP	113	336	5
NMTAP	114	0	0
CNSCR	114	48	2	0	48	4
CNSI_	114	96	4	0	48	6
NMSTR	114	96	7
BRSF_	114	96	7	96	48	3
NMTTP	114	192	2	B	0	M1
NMTTP	114	192	3	B	1	M1
NMTTP	114	192	4	B	0	M1
BXTAP	114	192	7
NMSTR	115	0	1
NMSI_	115	0	1	96	48	4
NMSTR	115	0	5
NMSI_	115	0	5	96	48	0
NMTAP	115	96	1
NMTAP	115	96	5
NMTAP	115	192	3
NMTAP	115	192	7
NMTAP	115	240	7
NMTAP	115	288	4
NMTAP	115	336	5
NMSTR	116	0	6
NMSI_	116	0	6	96	48	3
NMSTR	116	96	7
NMSI_	116	96	7	96	48	4
NMSTR	116	192	0
NMSI_	116	192	0	96	48	5
NMTAP	116	288	2
NMTAP	117	0	4
NMSTR	117	48	3
NMSCL	117	48	3	96	132	6
NMTAP	117	96	2
NMHLD	117	144	1	144
NMTAP	117	144	3
NMTAP	117	288	5
NMTAP	117	300	4
NMTAP	117	312	3
NMTAP	117	324	2
NMTAP	117	336	1
NMTAP	117	348	0
NMTAP	117	360	7
NMTAP	117	372	6
BRTAP	118	0	3
EXHLD	118	0	5	96
NMTTP	118	96	4	E	0	M1
NMTTP	118	108	5	E	0	M1
NMTTP	118	120	6	E	0	M1
NMTTP	118	132	7	E	0	M1
NMTTP	118	144	0	E	0	M1
NMTTP	118	156	1	E	0	M1
NMTTP	118	168	2	E	0	M1
NMTTP	118	180	3	E	0	M1
NMTTP	118	192	3	A	0	M1
NMTTP	118	192	4	A	0	M1
NMTTP	118	192	4	D	1	M1
NMTAP	118	288	0
NMTAP	118	288	7
BRTAP	119	0	1
BRTAP	119	0	6
NMTAP	119	48	5
NMTAP	119	72	4
NMTAP	119	96	5
NMTAP	119	144	6
NMTAP	119	192	2
NMTAP	119	216	3
NMTAP	119	240	2
NMTAP	119	288	1
NMTAP	119	336	6
NMTAP	120	0	6
NMTAP	120	0	7
NMTAP	120	48	0
NMTAP	120	48	5
NMSTR	120	96	1
NMSI_	120	96	1	96	48	4
NMSTR	120	96	4
NMSI_	120	96	4	96	48	7
NMTAP	120	192	1
NMTAP	120	192	4
NMSTR	120	288	3
NMSCL	120	288	3	96	48	0
NMSTR	120	288	6
NMSCL	120	288	6	96	48	3
NMTAP	121	0	3
NMTAP	121	0	6
NMSTR	121	96	7
NMSI_	121	96	7	96	48	3
NMSTR	121	192	5
BRSI_	121	192	5	96	48	0
NMTAP	121	192	7
NMTAP	121	240	5
NMSTR	121	288	1
BRSI_	121	288	1	96	48	4
NMTAP	121	336	1
NMSTR	122	0	6
BRSI_	122	0	6	96	48	2
NMTAP	122	48	6
EXTAP	122	96	2
BRTAP	122	192	0
BRTAP	122	192	4
NMTAP	122	288	1
NMTAP	122	312	3
NMTAP	122	336	1
NMTAP	122	360	3
NMTAP	123	0	1
NMSTR	123	48	0
NMSCL	123	48	0	96	64	4
NMTAP	123	96	6
NMTAP	123	144	0
BRTAP	123	240	1
NMTAP	123	256	0
NMTAP	123	272	7
NMTAP	123	288	6
NMTAP	123	304	5
NMTAP	123	320	4
NMTAP	123	336	3
NMTAP	124	0	0
NMSTR	124	48	7
NMSCR	124	48	7	96	64	3
NMTAP	124	96	1
NMTAP	124	144	7
BRTAP	124	240	6
NMTAP	124	256	7
NMTAP	124	272	0
NMTAP	124	288	1
NMTAP	124	304	2
NMTAP	124	320	3
NMTAP	124	336	4
BXSTR	125	0	2
NMSI_	125	0	2	96	48	7
BXSTR	125	0	6
NMSI_	125	0	6	96	48	3
NMTAP	125	96	2
NMTAP	125	96	6
NMSTR	125	192	0
NMSCR	125	192	0	96	48	3
NMSTR	125	240	4
NMSCR	125	240	4	96	48	7
NMTAP	125	288	0
NMTAP	125	336	4
EXTAP	126	0	0
NMSTR	126	96	1
BRSF_	126	96	1	96	48	5
BRTAP	126	192	1
NMTAP	127	0	2
NMTAP	127	0	4
NMTAP	127	48	2
NMTAP	127	96	6
NMTAP	127	144	6
NMTAP	127	192	1
NMTAP	127	192	3
NMTAP	127	240	1
NMTAP	127	288	4
NMTAP	127	336	4
NMTAP	128	0	1
NMTAP	128	24	5
NMTAP	128	48	1
NMTAP	128	72	5
NMTAP	128	96	1
NMTAP	128	120	5
NMTAP	128	144	1
NMTAP	128	168	5
NMTAP	128	192	2
NMTAP	128	216	6
NMTAP	128	240	2
NMTAP	128	264	6
NMSTR	128	288	2
BRSUL	128	288	2	96	192	0
NMSTR	129	0	5
NMSUR	129	0	5	96	192	7
CNSCR	129	192	0	0	288	3
CNSCL	129	288	7	0	192	4
EXSTR	130	288	6
NMSI_	130	288	6	96	48	2
EXTAP	130	288	7
NMTAP	131	0	0
BRTAP	131	0	6
NMSTR	131	48	1
BRSI_	131	48	1	96	48	6
BRTAP	131	144	1
NMTAP	131	144	3
NMSTR	131	192	5
NMSI_	131	192	5	96	48	0
NMTAP	131	288	4
BRTAP	131	288	5
NMSTR	131	336	2
BRSI_	131	336	2	96	48	7
BRTAP	132	48	2
NMTAP	132	48	4
NMSTR	132	96	6
NMSI_	132	96	6	96	48	3
NMTAP	132	192	0
BRTAP	132	192	6
NMSTR	132	240	1
BRSI_	132	240	1	96	48	4
NMTAP	132	336	0
BRTAP	132	336	1
NMSTR	133	0	7
NMSCL	133	0	7	96	48	4
NMTAP	133	96	3
BRTAP	133	96	7
NMSTR	133	144	2
BRSCL	133	144	2	96	48	7
BRTAP	133	240	2
NMTAP	133	240	3
NMSTR	133	288	4
NMSI_	133	288	4	96	48	0
NMTAP	134	0	2
BRTAP	134	0	4
NMSTR	134	48	1
NMSI_	134	48	1	96	48	3
NMTAP	134	144	7
CNSI_	134	192	3	0	48	5
BRTAP	134	192	7
CNSI_	134	240	5	0	48	2
NMTAP	135	0	1
BRTAP	135	0	3
NMTAP	135	48	2
NMTAP	135	96	2
BRTAP	135	144	5
NMTAP	135	144	7
NMTAP	135	192	6
NMTAP	135	240	6
BRTAP	135	288	0
NMTAP	135	288	2
NMTAP	135	336	1
NMTAP	136	0	1
NMTAP	136	48	4
BRTAP	136	48	6
NMTAP	136	96	5
NMTAP	136	144	5
BRTAP	136	192	2
NMTAP	136	192	4
NMTAP	136	240	2
NMTAP	136	240	4
NMHLD	136	288	1	48
BRHLD	136	288	5	48
NMTAP	137	0	0
BRSTR	137	0	6
NMSI_	137	0	6	96	48	2
NMTAP	137	48	6
BRSTR	137	96	1
BRSI_	137	96	1	96	48	5
NMTAP	137	96	6
NMTAP	137	144	1
NMTAP	137	192	1
BRSTR	137	192	7
NMSI_	137	192	7	96	48	3
NMTAP	137	240	7
BRTAP	137	288	0
NMTAP	137	288	7
NMTAP	138	0	1
NMTAP	138	24	7
NMTAP	138	48	1
NMTAP	138	72	7
NMTAP	138	96	1
NMTAP	138	120	7
NMTAP	138	144	1
NMTAP	138	168	7
NMTAP	138	192	2
NMTAP	138	204	3
NMTAP	138	216	4
NMTAP	138	228	5
NMTAP	138	240	6
NMTAP	138	252	7
NMTAP	138	264	0
NMTAP	138	276	1
NMTAP	138	288	2
NMTAP	138	300	3
NMTAP	138	312	4
NMTAP	138	324	5
NMTAP	138	336	6
NMTAP	138	348	7
NMTAP	138	360	0
NMTAP	138	372	1
EXSTR	139	0	6
BRSI_	139	0	6	96	48	3
EXSTR	139	1	2
NMSI_	139	1	2	96	47	7
EXSTR	139	96	6
NMSLR	139	96	6	96	288	3
EXSTR	139	97	2
BRSLR	139	97	2	96	287	7
NMTTP	139	120	0	C	1	M1
CNSCL	140	96	3	0	384	6
CNSCL	140	96	7	0	384	2
NMHLD	142	0	3	24
NMHLD	142	0	7	24
NMHLD	142	48	3	24
NMHLD	142	48	7	24
NMHLD	142	96	3	24
NMHLD	142	96	7	24
NMHLD	142	144	3	24
NMHLD	142	144	7	24
NMTAP	142	192	0
NMTAP	142	216	4
NMTAP	142	240	0
NMTAP	142	264	4
NMTTP	142	288	1	A	0	M1
NMTTP	142	288	1	D	0	M1
NMTTP	142	312	5	A	0	M1
NMTTP	142	312	5	D	0	M1
NMTTP	142	336	7	A	0	M1
NMTTP	142	336	7	D	0	M1
NMTTP	142	360	3	A	0	M1
NMTTP	142	360	3	D	0	M1

T_REC_TAP	477
T_REC_BRK	68
T_REC_XTP	42
T_REC_BXX	9
T_REC_HLD	76
T_REC_XHO	19
T_REC_BHO	3
T_REC_BXH	2
T_REC_STR	102
T_REC_BST	14
T_REC_XST	10
T_REC_XBS	4
T_REC_TTP	72
T_REC_THO	3
T_REC_SLD	114
T_REC_BSL	24
T_REC_ALL	1039
T_NUM_TAP	703
T_NUM_BRK	124
T_NUM_HLD	98
T_NUM_SLD	114
T_NUM_ALL	1039
T_JUDGE_TAP	798
T_JUDGE_HLD	223
T_JUDGE_SLD	138
T_JUDGE_ALL	1159
TTM_EACHPAIRS	140
TTM_SCR_TAP	351500
TTM_SCR_BRK	322400
TTM_SCR_HLD	98000
TTM_SCR_SLD	171000
TTM_SCR_ALL	942900
TTM_SCR_S	902600
TTM_SCR_SS	930500
TTM_RAT_ACV	10133

