VERSION	0.00.00	1.04.00
FES_MODE	0
BPM_DEF	242.000	242.000	242.000	242.000
MET_DEF	4	4
RESOLUTION	384
CLK_DEF	384
COMPATIBLE_CODE	MA2

BPM	0	0	242.000
MET	0	0	4	4

NMHLD	3	0	2	1344
NMSTR	3	0	4
NMSV_	3	0	4	96	384	3
NMHLD	5	0	3	192
NMTAP	6	0	3
NMTAP	6	192	4
NMSTR	7	0	3
NMSV_	7	0	3	96	384	4
NMHLD	7	0	5	1344
NMHLD	9	0	4	192
NMHLD	10	0	4	192
NMSTR	11	0	5
NMSCL	11	0	5	96	288	2
NMHLD	12	0	1	384
NMSTR	13	0	2
NMSCR	13	0	2	96	288	5
NMTHO	14	0	0	192	C	0	M1
BRTAP	15	0	0
NMTAP	15	48	0
NMTAP	15	144	1
NMTAP	15	144	7
NMTAP	15	192	1
NMTAP	15	192	7
NMTAP	15	288	3
NMTAP	15	336	3
NMTAP	16	48	1
NMTAP	16	48	5
NMSTR	16	96	1
NMSCR	16	96	1	96	192	4
NMTAP	16	96	5
BRTAP	17	0	5
NMTAP	17	48	5
NMTAP	17	144	4
NMTAP	17	144	6
NMTAP	17	192	4
NMTAP	17	192	6
NMTAP	17	288	3
NMTAP	17	336	3
NMTAP	18	48	2
NMTAP	18	48	4
NMTAP	18	96	2
NMTAP	18	96	4
BRTAP	18	192	1
BRTAP	18	192	5
NMHLD	19	0	2	96
NMHLD	19	144	2	96
NMTAP	19	288	1
NMTAP	19	288	3
NMHLD	20	0	4	96
NMHLD	20	144	4	96
NMTAP	20	288	3
NMTAP	20	288	5
NMHLD	21	0	6	96
NMHLD	21	144	6	96
NMSTR	21	288	5
NMSUL	21	288	5	96	384	3
NMTAP	21	288	7
NMHLD	23	0	2	96
NMHLD	23	144	1	96
NMHLD	23	144	3	96
NMTAP	23	288	0
NMTAP	23	288	4
NMHLD	24	0	5	96
NMHLD	24	144	4	96
NMHLD	24	144	6	96
NMTAP	24	288	3
NMTAP	24	288	7
NMHLD	25	0	0	96
NMHLD	25	144	1	96
NMHLD	25	144	7	96
NMSTR	25	288	2
NMSI_	25	288	2	96	96	4
NMTAP	25	288	6
CNSI_	26	96	4	0	96	1
CNSI_	26	192	1	0	96	7
NMHLD	27	0	6	96
NMTAP	27	96	7
NMHLD	27	144	6	96
NMTAP	27	240	7
NMTAP	27	288	5
NMTAP	27	336	5
NMHLD	28	0	1	96
NMTAP	28	96	0
NMHLD	28	144	1	96
NMTAP	28	240	0
NMTAP	28	288	2
NMTAP	28	336	2
NMHLD	29	0	6	96
NMTAP	29	96	7
NMHLD	29	144	6	96
NMTAP	29	240	7
NMSTR	29	288	0
BRSI_	29	288	0	96	192	4
NMTAP	29	288	5
NMHLD	31	0	3	96
NMHLD	31	0	5	96
NMHLD	31	144	3	96
NMHLD	31	144	5	96
NMTAP	31	288	4
NMTAP	31	288	6
NMHLD	32	0	3	96
NMHLD	32	0	5	96
NMHLD	32	144	3	96
NMHLD	32	144	5	96
NMTAP	32	288	2
NMTAP	32	288	4
NMHLD	33	0	1	96
NMHLD	33	0	3	96
NMHLD	33	144	0	96
NMHLD	33	144	2	96
NMHLD	33	288	1	96
NMHLD	33	288	7	96
NMHLD	34	48	0	96
NMHLD	34	48	6	96
BRTAP	34	192	1
BRTAP	34	192	5
NMTAP	35	0	2
NMTAP	35	96	1
NMTAP	35	96	3
NMTAP	35	192	0
NMTAP	35	240	0
NMTAP	35	288	7
NMTAP	35	336	7
NMHLD	36	0	5	96
NMHLD	36	96	6	96
NMHLD	36	192	4	96
NMTAP	36	288	5
NMTAP	37	0	6
NMTAP	37	96	4
NMTAP	37	96	6
NMTAP	37	192	7
NMTAP	37	240	7
NMTAP	37	288	0
NMTAP	37	336	0
NMHLD	38	0	2	96
NMHLD	38	96	1	96
NMHLD	38	192	3	96
NMTAP	38	288	2
NMTAP	39	0	1
NMTAP	39	96	1
NMTAP	39	96	3
NMTAP	39	192	4
NMTAP	39	240	4
NMTAP	39	288	2
NMTAP	39	336	2
NMTAP	40	0	6
NMTAP	40	48	6
NMSTR	40	96	4
NMSI_	40	96	4	96	96	0
EXTAP	41	0	1
EXTAP	41	0	7
EXTAP	41	64	1
EXTAP	41	64	7
EXTAP	41	128	1
EXTAP	41	128	7
EXTAP	41	192	0
EXTAP	41	192	2
EXTAP	41	256	0
EXTAP	41	256	2
EXTAP	41	320	0
EXTAP	41	320	2
EXTAP	42	0	1
EXTAP	42	0	7
EXTAP	42	64	1
EXTAP	42	64	7
EXTAP	42	128	1
EXTAP	42	128	7
BXTAP	42	192	2
BXTAP	42	192	6
NMSTR	43	0	1
NMSI_	43	0	1	96	48	3
BXTAP	43	96	3
NMTAP	43	192	4
NMTAP	43	240	4
NMTAP	43	288	3
NMTAP	43	288	5
NMSTR	44	0	6
NMSI_	44	0	6	96	48	4
NMTAP	44	96	4
NMTAP	44	192	3
NMTAP	44	240	3
NMTAP	44	288	2
NMTAP	44	288	4
EXTAP	45	0	1
EXTAP	45	0	3
EXTAP	45	48	1
EXTAP	45	48	3
EXTAP	45	144	0
EXTAP	45	144	7
EXTAP	45	192	0
EXTAP	45	192	7
EXTAP	45	288	4
EXTAP	45	288	6
EXTAP	45	336	4
EXTAP	45	336	6
EXTAP	46	48	2
EXTAP	46	48	3
EXSTR	46	96	2
NMSCL	46	96	2	96	96	7
EXTAP	46	96	3
NMHLD	47	0	6	96
NMTAP	47	96	4
NMTAP	47	144	4
NMTAP	47	192	5
NMTAP	47	240	5
NMTAP	47	288	3
NMHLD	48	0	2	96
NMTAP	48	0	4
NMTAP	48	96	3
NMTAP	48	144	3
BRTAP	48	192	0
BRTAP	48	192	3
NMTAP	48	288	1
NMTAP	48	288	2
NMHLD	49	0	1	96
NMHLD	49	0	2	96
NMHLD	49	144	3	96
NMHLD	49	144	4	96
NMHLD	49	288	5	96
NMHLD	49	288	6	96
NMHLD	50	48	0	96
NMHLD	50	48	7	96
BRTAP	50	192	1
BRTAP	50	192	6
NMSTR	51	0	3
NMSCL	51	0	3	96	96	0
NMSTR	51	192	6
NMSCL	51	192	6	96	96	3
NMSTR	52	0	1
NMSCL	52	0	1	96	96	6
EXTAP	52	192	5
EXTAP	52	240	5
EXTAP	52	288	5
NMTAP	53	0	4
NMTAP	53	0	5
NMTAP	53	96	3
NMTAP	53	96	6
NMTAP	53	192	0
NMTAP	53	192	1
NMTAP	53	288	2
NMTAP	53	288	3
NMHLD	54	0	1	96
NMTAP	54	0	4
NMTAP	54	96	0
NMTAP	54	192	3
NMHLD	54	192	6	96
NMTAP	54	288	7
NMSTR	55	0	0
NMSCR	55	0	0	96	96	3
NMSTR	55	192	5
NMSCR	55	192	5	96	96	0
NMSTR	56	0	2
NMSCR	56	0	2	96	96	5
EXTAP	56	192	6
EXTAP	56	240	6
EXTAP	56	288	6
NMTAP	57	0	6
NMTAP	57	0	7
NMTAP	57	96	0
NMTAP	57	96	5
NMTAP	57	192	2
NMTAP	57	192	3
NMTAP	57	288	0
NMTAP	57	288	1
NMHLD	58	0	2	96
NMTAP	58	0	7
NMTAP	58	96	3
NMTAP	58	192	0
NMHLD	58	192	5	96
NMTAP	58	288	4
NMTAP	59	0	3
NMTAP	59	0	6
NMTAP	59	96	1
NMTAP	59	96	4
NMHLD	59	192	2	72
NMHLD	59	264	3	72
NMTAP	59	336	4
NMTAP	60	0	4
NMTAP	60	96	2
NMTAP	60	96	6
NMTAP	60	192	3
NMTAP	60	288	1
NMTAP	60	288	5
NMTAP	61	0	2
NMTAP	61	0	4
NMTAP	61	96	3
NMTAP	61	96	5
NMHLD	61	192	5	72
NMHLD	61	264	6	72
NMTAP	61	336	7
NMTAP	62	0	7
NMTAP	62	96	0
NMTAP	62	96	6
NMTAP	62	192	2
NMTAP	62	192	4
NMSTR	62	288	6
NMSCL	62	288	6	96	384	1
CNSCR	64	0	1	0	384	6
NMTHO	65	0	0	384	C	0	M1
BRTAP	66	0	7
NMTAP	66	288	0
NMTAP	66	288	7
EXTAP	67	0	6
EXTAP	67	32	7
EXTAP	67	64	6
EXTAP	67	96	7
NMTAP	67	192	5
NMTAP	67	224	4
NMTAP	67	256	5
NMTAP	67	288	4
NMTAP	68	0	2
NMTAP	68	32	3
NMTAP	68	64	2
NMTAP	68	96	3
NMTAP	68	192	1
NMTAP	68	224	0
NMTAP	68	256	1
NMSTR	68	288	0
NMSXR	68	288	0	96	576	4
NMTAP	71	0	6
NMSTR	71	0	7
NMSXL	71	0	7	96	672	3
NMTAP	73	0	4
NMTAP	73	96	4
NMTAP	73	192	2
NMTAP	73	192	4
NMTAP	73	288	1
NMTAP	73	288	5
NMTAP	74	0	0
NMTAP	74	48	0
NMTAP	74	96	6
NMTAP	74	144	6
NMTAP	74	192	1
NMTAP	74	240	1
NMSTR	74	288	7
NMSCL	74	288	7	96	384	1
NMHLD	76	0	0	4992
NMTTP	77	0	0	E	0	M1
NMTTP	78	0	0	C	0	M1
NMTTP	79	0	4	E	0	M1
NMTTP	80	0	0	C	0	M1
NMHLD	81	0	7	384
NMHLD	83	0	1	384
NMTTP	85	0	0	E	0	M1
NMTTP	85	192	1	E	0	M1
NMTTP	86	0	2	E	0	M1
NMTTP	86	192	3	E	0	M1
NMTTP	87	0	3	B	0	M1
NMTTP	87	192	2	E	0	M1
NMTTP	88	0	3	E	0	M1
NMTTP	88	192	0	C	0	M1
NMHLD	89	0	7	1152
NMTTP	89	192	0	E	0	M1
NMTTP	90	0	7	E	0	M1
NMTTP	90	192	6	E	0	M1
NMTHO	91	0	0	768	C	0	M1
NMTAP	93	0	7
NMTAP	93	48	7
NMSTR	93	96	7
BRSI_	93	96	7	96	192	2
BRSI_	93	96	7	96	192	4
NMTAP	94	192	1
NMTAP	94	192	5
NMTAP	94	288	1
NMTAP	94	288	5
BRSTR	95	0	6
NMSI_	95	0	6	96	48	3
NMSTR	95	96	7
NMSI_	95	96	7	96	48	2
NMSTR	95	192	5
NMSI_	95	192	5	96	48	0
NMSTR	95	288	4
NMSI_	95	288	4	96	48	1
NMSTR	96	0	6
NMSCL	96	0	6	96	48	3
NMTAP	96	96	0
NMTAP	96	192	0
NMTAP	96	192	1
NMTAP	96	288	2
NMTAP	96	288	7
NMTAP	97	0	6
NMTAP	97	48	6
NMTAP	97	96	4
NMTAP	97	144	5
NMTAP	97	192	2
NMTAP	97	240	2
NMTAP	97	288	3
NMTAP	97	336	1
BRTAP	98	0	7
NMTAP	98	96	0
NMTAP	98	96	6
NMTAP	98	144	0
NMTAP	98	144	6
NMTAP	98	192	0
NMTAP	98	192	6
NMTAP	98	288	3
NMTAP	98	288	4
BRSTR	99	0	1
NMSI_	99	0	1	96	48	4
NMSTR	99	96	0
NMSI_	99	96	0	96	48	5
NMSTR	99	192	2
NMSI_	99	192	2	96	48	7
NMSTR	99	288	3
NMSI_	99	288	3	96	48	6
NMSTR	100	0	1
NMSCR	100	0	1	96	48	4
NMTAP	100	96	7
NMTAP	100	192	6
NMTAP	100	192	7
NMTAP	100	288	0
NMTAP	100	288	5
NMTAP	101	0	1
NMTAP	101	48	1
NMTAP	101	96	3
NMTAP	101	144	3
NMTAP	101	192	5
NMTAP	101	240	5
NMTAP	101	288	4
NMTAP	101	288	6
NMSTR	102	0	1
NMSI_	102	0	1	96	48	3
NMSTR	102	0	7
NMSI_	102	0	7	96	48	3
BXTAP	102	192	2
BXTAP	102	192	4
NMHLD	103	0	0	96
NMHLD	103	0	1	96
NMHLD	103	144	2	96
NMHLD	103	144	7	96
NMTAP	103	288	3
NMTAP	103	288	6
NMTAP	103	336	3
NMTAP	103	336	6
NMTAP	104	48	1
NMTAP	104	48	4
NMSTR	104	96	1
NMSCR	104	96	1	96	96	4
NMSTR	104	96	4
NMSCR	104	96	4	96	96	7
NMHLD	105	0	4	96
NMHLD	105	0	7	96
NMHLD	105	144	5	96
NMHLD	105	144	6	96
NMTAP	105	288	3
NMTAP	105	288	4
NMTAP	105	336	3
NMTAP	105	336	4
NMTAP	106	48	1
NMTAP	106	48	3
NMSTR	106	96	1
NMSCL	106	96	1	96	96	6
NMSTR	106	96	3
NMSCR	106	96	3	96	96	6
BRTAP	107	0	0
NMTAP	107	96	1
NMTAP	107	96	7
NMTAP	107	192	3
NMTAP	107	240	4
NMTAP	107	288	0
NMTAP	107	288	5
BRTAP	108	0	7
NMTAP	108	96	3
NMTAP	108	96	6
NMTAP	108	192	4
NMTAP	108	240	3
NMSTR	108	288	2
NMSCL	108	288	2	96	192	4
NMTAP	108	288	7
NMTTP	109	0	0	C	1	M1
EXTAP	109	288	7
EXTAP	109	336	7
EXTAP	110	48	2
EXTAP	110	48	4
EXTAP	110	96	2
EXTAP	110	96	4
BRTAP	110	192	0
BRTAP	110	192	6
NMTHO	111	0	0	384	C	0	M1
NMTTP	111	0	1	B	0	M1
NMTTP	111	0	5	B	0	M1
EXTAP	112	192	7
EXTAP	112	224	0
EXTAP	112	256	7
EXTAP	112	288	0
BRTAP	113	0	1
BRSTR	113	0	6
NMSI_	113	0	6	96	48	3
NMSTR	113	96	2
NMSI_	113	96	2	96	48	7
NMSTR	113	192	5
NMSI_	113	192	5	96	48	0
NMSTR	113	288	1
NMSI_	113	288	1	96	48	4
NMSTR	114	0	7
NMSI_	114	0	7	96	48	2
NMTAP	114	96	3
NMTAP	114	192	0
NMTAP	114	192	1
BXTAP	114	288	2
BXTAP	114	288	7
BRSTR	115	0	1
NMSI_	115	0	1	96	48	4
BRTAP	115	0	6
NMSTR	115	96	5
NMSI_	115	96	5	96	48	0
NMSTR	115	192	2
NMSI_	115	192	2	96	48	7
NMSTR	115	288	6
NMSI_	115	288	6	96	48	3
NMSTR	116	0	0
NMSI_	116	0	0	96	48	5
NMTAP	116	96	4
NMTAP	116	192	6
NMTAP	116	192	7
BXTAP	116	288	0
BXTAP	116	288	5
NMTAP	117	0	1
NMTAP	117	48	1
NMTAP	117	96	3
NMTAP	117	144	3
NMTAP	117	192	5
NMTAP	117	240	5
NMTAP	117	288	7
NMSTR	118	0	0
NMSI_	118	0	0	96	48	5
NMSTR	118	0	1
NMSI_	118	0	1	96	48	4
NMSTR	118	192	6
NMSI_	118	192	6	96	48	3
NMSTR	118	192	7
NMSI_	118	192	7	96	48	2
EXTAP	119	0	1
EXTAP	119	0	4
NMTAP	119	96	0
NMTAP	119	144	0
NMTAP	119	192	1
NMTAP	119	192	7
NMTAP	119	288	4
NMTAP	119	288	5
NMTAP	119	336	4
NMTAP	119	336	5
NMTAP	120	48	2
NMTAP	120	48	3
NMTAP	120	96	2
NMTAP	120	96	3
NMTAP	120	192	0
NMSTR	120	192	1
NMSI_	120	192	1	96	48	5
NMTAP	120	288	7
EXTAP	121	0	4
EXTAP	121	0	6
NMTAP	121	96	3
NMTAP	121	96	4
NMHLD	121	192	1	96
NMTAP	121	288	0
NMTAP	121	336	0
NMTAP	122	48	2
NMTAP	122	48	7
NMTAP	122	96	2
NMTAP	122	96	7
NMTAP	122	192	6
NMTAP	122	240	5
NMTAP	122	288	4
NMTAP	122	336	3
BRTAP	123	0	2
BRTAP	123	0	6
NMTAP	123	96	0
NMTAP	123	96	1
NMTAP	123	144	0
NMHLD	123	144	1	96
NMTAP	123	240	3
NMTAP	123	288	3
BRTAP	124	0	2
BRTAP	124	0	4
NMTAP	124	96	6
NMTAP	124	96	7
NMTAP	124	144	6
NMTAP	124	144	7
NMTAP	124	240	0
NMTAP	124	240	1
NMTAP	124	288	0
NMSTR	124	288	1
NMSCR	124	288	1	96	192	7
NMTTP	125	0	0	C	1	M1
NMSTR	125	288	0
NMSI_	125	288	0	96	96	6
NMHLD	125	288	1	96
CNSI_	126	96	6	0	96	4
CNSI_	126	192	4	0	96	2
EXTAP	126	288	0
NMTAP	127	0	1
NMTAP	127	48	1
NMTAP	127	96	7
NMTAP	127	144	7
NMTAP	127	192	0
NMTAP	127	240	0
NMTAP	127	288	6
NMTAP	127	336	6
BRTAP	128	0	0
NMTAP	128	48	1
NMTAP	128	96	2
NMTAP	128	144	3
NMTAP	128	192	4
NMTAP	128	240	5
NMTAP	128	288	6
NMTAP	128	336	7
BRHLD	129	0	0	480
NMTHO	130	0	0	96	C	0	M1
EXTAP	130	192	0
EXTAP	130	288	0
BRTAP	131	0	1
BRTAP	131	0	7
NMTAP	131	48	1
NMTAP	131	48	7
NMTAP	131	144	4
NMTAP	131	144	5
NMTAP	131	192	4
NMTAP	131	192	5
NMTAP	131	288	0
NMTAP	131	288	6
NMTAP	131	336	0
NMTAP	131	336	6
NMTAP	132	48	2
NMTAP	132	48	3
NMTAP	132	96	2
NMTAP	132	96	3
NMTAP	132	192	1
NMTAP	132	192	7
NMTAP	132	240	1
NMTAP	132	240	7
NMTAP	132	336	4
NMTAP	132	336	5
NMTAP	133	0	4
NMTAP	133	0	5
NMTAP	133	96	1
NMTAP	133	96	2
NMTAP	133	144	1
NMTAP	133	144	2
NMTAP	133	240	6
NMTAP	133	240	7
NMTAP	133	288	6
NMTAP	133	288	7
NMTAP	134	0	0
NMTAP	134	0	2
NMTAP	134	48	0
NMTAP	134	48	2
NMTAP	134	144	3
NMTAP	134	144	4
NMTAP	134	192	3
NMTAP	134	192	4
NMTAP	134	288	2
NMTAP	134	288	5
BRTAP	135	0	6
NMTAP	135	48	6
NMTAP	135	96	6
NMTAP	135	144	0
NMTAP	135	192	0
NMTAP	135	240	0
NMTAP	135	288	2
NMTAP	135	336	2
NMTAP	136	0	2
NMTAP	136	48	4
NMTAP	136	96	4
NMTAP	136	144	4
NMTAP	136	192	6
NMTAP	136	240	6
NMTAP	136	288	6
NMTAP	136	288	7
BRTAP	137	0	0
BRTAP	137	0	5
NMTAP	137	48	1
NMTAP	137	96	2
NMTAP	137	144	3
NMTAP	137	192	7
NMTAP	137	240	6
NMTAP	137	288	5
NMTAP	137	336	4
BXTAP	138	0	1
BXTAP	138	0	3
BXTAP	138	48	1
BXTAP	138	48	3
BXSTR	138	96	1
NMSXL	138	96	1	96	192	5
BXTAP	138	96	3
BRTAP	139	96	1
BRHLD	139	96	7	1056
NMTAP	142	0	0
NMTAP	142	48	0
NMSTR	142	96	1
NMSUL	142	96	1	96	168	5
NMSTR	142	96	6
NMSUL	142	96	6	96	168	0

T_REC_TAP	356
T_REC_BRK	29
T_REC_XTP	60
T_REC_BXX	14
T_REC_HLD	82
T_REC_XHO	0
T_REC_BHO	2
T_REC_BXH	0
T_REC_STR	54
T_REC_BST	4
T_REC_XST	1
T_REC_XBS	1
T_REC_TTP	19
T_REC_THO	5
T_REC_SLD	58
T_REC_BSL	3
T_REC_ALL	688
T_NUM_TAP	490
T_NUM_BRK	53
T_NUM_HLD	87
T_NUM_SLD	58
T_NUM_ALL	688
T_JUDGE_TAP	538
T_JUDGE_HLD	217
T_JUDGE_SLD	61
T_JUDGE_ALL	816
TTM_EACHPAIRS	175
TTM_SCR_TAP	245000
TTM_SCR_BRK	137800
TTM_SCR_HLD	87000
TTM_SCR_SLD	87000
TTM_SCR_ALL	556800
TTM_SCR_S	535000
TTM_SCR_SS	551500
TTM_RAT_ACV	10096

