VERSION	0.00.00	1.04.00
FES_MODE	0
BPM_DEF	242.000	242.000	242.000	242.000
MET_DEF	4	4
RESOLUTION	384
CLK_DEF	384
COMPATIBLE_CODE	MA2

BPM	0	0	242.000
MET	0	0	4	4

NMHLD	3	0	5	384
NMHLD	4	0	4	384
NMHLD	5	0	3	384
NMTAP	6	0	2
NMHLD	7	0	2	384
NMHLD	8	0	3	384
NMHLD	9	0	4	384
NMTAP	10	0	5
NMHLD	11	0	6	384
NMHLD	12	0	7	384
NMHLD	13	0	0	384
NMTAP	14	0	1
NMSTR	15	0	1
NMSLR	15	0	1	96	480	5
NMSTR	17	0	6
NMSLL	17	0	6	96	480	2
NMTAP	19	0	1
NMTAP	19	96	1
NMTAP	19	192	1
NMTAP	20	0	2
NMTAP	20	96	2
NMTAP	20	192	2
NMTAP	21	0	3
NMTAP	21	96	3
NMTAP	21	192	3
NMHLD	22	0	4	192
NMHLD	22	0	5	192
NMTAP	23	0	6
NMTAP	23	96	6
NMTAP	23	192	6
NMTAP	24	0	5
NMTAP	24	96	5
NMTAP	24	192	5
NMTAP	25	0	4
NMTAP	25	96	4
NMTAP	25	192	4
NMHLD	26	0	2	192
NMHLD	26	0	3	192
NMTAP	27	0	1
NMTAP	27	96	1
NMTAP	27	192	0
NMTAP	27	192	1
NMTAP	28	0	2
NMTAP	28	96	2
NMTAP	28	192	2
NMTAP	28	192	3
NMTAP	29	0	4
NMTAP	29	96	4
NMTAP	29	192	4
NMTAP	29	192	5
NMHLD	30	0	6	192
NMHLD	30	0	7	192
NMTAP	31	0	6
NMTAP	31	96	6
NMTAP	31	192	6
NMTAP	31	192	7
NMTAP	32	0	5
NMTAP	32	96	5
NMTAP	32	192	4
NMTAP	32	192	5
NMTAP	33	0	3
NMTAP	33	96	3
NMTAP	33	192	2
NMTAP	33	192	3
NMHLD	34	0	0	192
NMHLD	34	0	1	192
NMTAP	35	0	2
NMTAP	35	96	2
NMTAP	35	192	1
NMTAP	35	288	1
NMTAP	36	0	0
NMTAP	36	96	0
NMTAP	36	192	6
NMTAP	36	192	7
NMTAP	37	0	5
NMTAP	37	96	5
NMTAP	37	192	6
NMTAP	37	288	6
NMTAP	38	0	7
NMTAP	38	96	7
NMTAP	38	192	0
NMTAP	38	192	1
NMTAP	39	0	1
NMTAP	39	96	1
NMTAP	39	192	2
NMTAP	39	288	2
NMTAP	40	0	3
NMTAP	40	96	3
NMTAP	40	192	4
NMTAP	40	192	5
EXTAP	41	0	6
EXTAP	41	96	6
EXTAP	41	192	5
EXTAP	41	288	5
EXTAP	42	0	4
EXTAP	42	96	4
EXTAP	42	192	2
EXTAP	42	192	3
NMTTP	43	0	1	B	0	L1
NMTTP	43	96	2	B	0	L1
NMTTP	43	192	3	B	0	L1
NMTTP	44	0	6	B	0	L1
NMTTP	44	96	5	B	0	L1
NMTTP	44	192	4	B	0	L1
NMTTP	45	0	1	B	0	L1
NMTTP	45	96	2	B	0	L1
NMTTP	45	192	3	B	0	L1
NMTTP	45	288	4	B	0	L1
NMTTP	46	0	0	C	0	L1
NMTTP	47	0	7	B	0	L1
NMTTP	47	96	6	B	0	L1
NMTTP	47	192	4	B	0	L1
NMTTP	47	192	5	B	0	L1
NMTTP	48	0	0	B	0	L1
NMTTP	48	96	1	B	0	L1
NMTTP	48	192	2	B	0	L1
NMTTP	48	192	3	B	0	L1
NMTTP	49	0	6	B	0	L1
NMTTP	49	96	5	B	0	L1
NMTTP	49	192	4	B	0	L1
NMTTP	49	288	3	B	0	L1
NMTTP	50	0	0	C	0	L1
NMTAP	51	0	6
NMTAP	51	96	6
NMTAP	51	192	6
NMTAP	51	192	7
NMTAP	51	288	6
NMTAP	51	288	7
NMTAP	52	0	0
NMTAP	52	96	0
NMTAP	52	192	0
NMTAP	52	192	1
NMTAP	53	0	2
NMTAP	53	96	2
NMTAP	53	192	0
NMTAP	53	192	1
NMTAP	53	288	0
NMTAP	53	288	1
NMTAP	54	0	7
NMTAP	54	96	7
NMTAP	54	192	6
NMTAP	54	192	7
NMTAP	55	0	6
NMTAP	55	96	6
NMTAP	55	192	4
NMTAP	55	192	5
NMTAP	55	288	4
NMTAP	55	288	5
NMTAP	56	0	3
NMTAP	56	96	3
NMTAP	56	192	2
NMTAP	56	192	3
NMTAP	57	0	1
NMTAP	57	96	1
NMTAP	57	192	2
NMTAP	57	192	3
NMTAP	57	288	2
NMTAP	57	288	3
NMTAP	58	0	4
NMTAP	58	96	4
NMTAP	58	192	4
NMTAP	58	192	5
NMTAP	59	0	6
NMTAP	59	96	6
NMTAP	59	192	6
NMTAP	59	288	6
NMTAP	59	288	7
NMTAP	60	0	5
NMTAP	60	96	5
NMTAP	60	192	5
NMTAP	60	288	4
NMTAP	60	288	5
NMTAP	61	0	3
NMTAP	61	96	3
NMTAP	61	192	3
NMTAP	61	288	2
NMTAP	61	288	3
NMTAP	62	0	1
NMTAP	62	96	1
NMTAP	62	192	0
NMTAP	62	192	1
NMSTR	63	0	0
NMSI_	63	0	0	96	288	5
NMSTR	63	0	1
NMSI_	63	0	1	96	288	4
NMSTR	65	0	6
NMSI_	65	0	6	96	288	3
NMSTR	65	0	7
NMSI_	65	0	7	96	288	2
NMTAP	67	0	1
NMTAP	67	96	2
NMTAP	67	192	3
NMTAP	67	288	4
NMTAP	68	0	5
NMTAP	68	96	6
NMTAP	68	192	0
NMTAP	68	192	7
NMTAP	69	0	7
NMTAP	69	96	6
NMTAP	69	192	5
NMTAP	69	288	4
NMTAP	70	0	3
NMTAP	70	96	2
NMTAP	70	192	0
NMTAP	70	192	1
NMTAP	71	0	0
NMTAP	71	96	1
NMTAP	71	192	2
NMTAP	71	288	3
NMTAP	72	0	4
NMTAP	72	96	5
NMTAP	72	192	6
NMTAP	72	192	7
NMTAP	73	0	7
NMTAP	73	96	6
NMTAP	73	192	5
NMTAP	73	288	4
NMTAP	74	0	3
NMTAP	74	96	2
NMTAP	74	192	1
NMTAP	74	288	0
NMTAP	75	0	7
NMTAP	75	96	6
NMTAP	75	192	5
NMTAP	75	288	4
NMTAP	76	0	3
NMTAP	76	0	4
NMSTR	77	0	5
NMSUL	77	0	5	96	672	2
NMTAP	80	0	1
NMSTR	81	0	1
NMSUR	81	0	1	96	672	4
NMTAP	84	0	5
NMSTR	85	0	6
NMSXL	85	0	6	96	672	3
NMTAP	88	0	2
NMSTR	89	0	1
NMSXR	89	0	1	96	672	4
NMTAP	92	0	5
NMHLD	93	0	3	384
NMHLD	93	0	4	384
NMTAP	95	0	2
NMTAP	95	48	2
NMTAP	95	96	2
NMTAP	95	192	0
NMTAP	95	192	1
NMTAP	95	288	0
NMTAP	95	288	1
NMTAP	96	0	7
NMTAP	96	96	7
NMTAP	96	192	6
NMTAP	96	192	7
NMTAP	97	0	5
NMTAP	97	48	5
NMTAP	97	96	5
NMTAP	97	192	6
NMTAP	97	192	7
NMTAP	97	288	6
NMTAP	97	288	7
NMTAP	98	0	0
NMTAP	98	96	0
NMTAP	98	192	0
NMTAP	98	192	1
NMTAP	99	0	1
NMTAP	99	48	1
NMTAP	99	96	1
NMTAP	99	192	2
NMTAP	99	192	3
NMTAP	99	288	2
NMTAP	99	288	3
NMTAP	100	0	4
NMTAP	100	96	4
NMTAP	100	192	4
NMTAP	100	192	5
NMTAP	101	0	6
NMTAP	101	48	6
NMTAP	101	96	6
NMTAP	101	192	4
NMTAP	101	192	5
NMTAP	101	288	4
NMTAP	101	288	5
NMTAP	102	0	3
NMTAP	102	96	3
NMTAP	102	192	2
NMTAP	102	192	3
NMTAP	103	0	2
NMTAP	103	48	2
NMTAP	103	96	2
NMTAP	103	192	0
NMTAP	103	192	1
NMTAP	103	288	0
NMTAP	103	288	1
NMTAP	104	0	7
NMTAP	104	96	7
NMTAP	104	192	6
NMTAP	104	192	7
NMTAP	104	288	6
NMTAP	104	288	7
NMTAP	105	0	5
NMTAP	105	48	5
NMTAP	105	96	5
NMTAP	105	192	6
NMTAP	105	192	7
NMTAP	105	288	6
NMTAP	105	288	7
NMTAP	106	0	0
NMTAP	106	96	0
NMTAP	106	192	0
NMTAP	106	192	1
NMTAP	107	0	1
NMTAP	107	48	1
NMTAP	107	96	1
NMTAP	107	192	2
NMTAP	107	192	3
NMTAP	107	288	2
NMTAP	107	288	3
NMTAP	108	0	4
NMTAP	108	96	4
NMTAP	108	192	4
NMTAP	108	192	5
NMTAP	108	288	4
NMTAP	108	288	5
NMTAP	109	0	6
NMTAP	109	48	6
NMTAP	109	96	6
NMTAP	109	192	4
NMTAP	109	192	5
NMTAP	109	288	4
NMTAP	109	288	5
NMTAP	110	0	3
NMTAP	110	96	3
BRTAP	110	192	2
BRTAP	110	192	3
NMHLD	111	0	3	384
NMHLD	111	0	4	384
EXTAP	112	192	3
EXTAP	112	192	4
NMTAP	113	0	5
NMTAP	113	48	5
NMTAP	113	96	5
NMTAP	113	192	6
NMTAP	113	240	6
NMTAP	113	288	6
NMTAP	114	0	7
NMTAP	114	48	7
NMTAP	114	96	7
NMTAP	114	192	0
NMTAP	114	192	1
NMTAP	115	0	1
NMTAP	115	48	1
NMTAP	115	96	1
NMTAP	115	192	2
NMTAP	115	240	2
NMTAP	115	288	2
NMTAP	116	0	3
NMTAP	116	48	3
NMTAP	116	96	3
NMTAP	116	192	4
NMTAP	116	192	5
NMTAP	117	0	6
NMTAP	117	48	6
NMTAP	117	96	6
NMTAP	117	192	5
NMTAP	117	240	5
NMTAP	117	288	5
NMTAP	118	0	4
NMTAP	118	48	4
NMTAP	118	96	4
NMTAP	118	192	2
NMTAP	118	192	3
NMTAP	119	0	2
NMTAP	119	0	3
NMTAP	119	48	2
NMTAP	119	48	3
NMTAP	119	96	2
NMTAP	119	96	3
NMTAP	119	192	1
NMTAP	119	288	1
NMTAP	120	0	0
NMTAP	120	96	0
NMTAP	120	192	6
NMTAP	120	192	7
NMTAP	121	0	4
NMTAP	121	0	5
NMTAP	121	48	4
NMTAP	121	48	5
NMTAP	121	96	4
NMTAP	121	96	5
NMTAP	121	192	6
NMTAP	121	288	6
NMTAP	122	0	7
NMTAP	122	96	7
NMTAP	122	192	0
NMTAP	122	192	1
NMTAP	123	0	0
NMTAP	123	0	1
NMTAP	123	48	0
NMTAP	123	48	1
NMTAP	123	96	0
NMTAP	123	96	1
NMTAP	123	192	2
NMTAP	123	288	2
NMTAP	124	0	3
NMTAP	124	96	3
NMTAP	124	192	4
NMTAP	124	192	5
NMTAP	125	0	6
NMTAP	125	0	7
NMTAP	125	48	6
NMTAP	125	48	7
NMTAP	125	96	6
NMTAP	125	96	7
NMTAP	125	192	5
NMTAP	125	288	5
NMTAP	126	0	4
NMTAP	126	96	4
NMTAP	126	192	2
NMTAP	126	192	3
NMTAP	127	0	3
NMTAP	127	0	4
NMTAP	127	48	3
NMTAP	127	48	4
NMTAP	127	96	3
NMTAP	127	96	4
NMTAP	127	192	2
NMTAP	127	192	5
NMTAP	127	288	2
NMTAP	127	288	5
NMTAP	128	0	1
NMTAP	128	0	6
NMTAP	128	48	1
NMTAP	128	48	6
NMTAP	128	96	1
NMTAP	128	96	6
NMTAP	128	192	0
NMTAP	128	192	7
NMTAP	128	288	0
NMTAP	128	288	7
NMSTR	129	0	1
NMSLR	129	0	1	96	480	7
NMSTR	129	0	6
NMSLL	129	0	6	96	480	0
NMTAP	131	0	1
NMTAP	131	96	1
NMTAP	131	192	0
NMTAP	131	192	1
NMTAP	131	288	0
NMTAP	131	288	1
NMTAP	132	0	2
NMTAP	132	96	2
NMTAP	132	192	2
NMTAP	132	192	3
NMTAP	132	288	2
NMTAP	132	288	3
NMTAP	133	0	4
NMTAP	133	96	4
NMTAP	133	192	4
NMTAP	133	192	5
NMTAP	133	288	4
NMTAP	133	288	5
NMTAP	134	0	6
NMTAP	134	0	7
NMTAP	134	96	6
NMTAP	134	96	7
NMTAP	134	192	0
NMTAP	134	192	5
NMTAP	135	0	6
NMTAP	135	96	6
NMTAP	135	192	6
NMTAP	135	192	7
NMTAP	135	288	6
NMTAP	135	288	7
NMTAP	136	0	5
NMTAP	136	96	5
NMTAP	136	192	4
NMTAP	136	192	5
NMTAP	136	288	4
NMTAP	136	288	5
NMTAP	137	0	3
NMTAP	137	96	3
NMTAP	137	192	2
NMTAP	137	192	3
NMTAP	137	288	2
NMTAP	137	288	3
NMTAP	138	0	0
NMTAP	138	0	1
NMTAP	138	96	0
NMTAP	138	96	1
NMTAP	138	192	2
NMTAP	138	192	7
EXSTR	139	0	0
NMSXR	139	0	0	96	1440	5
EXSTR	139	0	1
NMSXL	139	0	1	96	1440	4

T_REC_TAP	409
T_REC_BRK	2
T_REC_XTP	10
T_REC_BXX	0
T_REC_HLD	21
T_REC_XHO	0
T_REC_BHO	0
T_REC_BXH	0
T_REC_STR	12
T_REC_BST	0
T_REC_XST	2
T_REC_XBS	0
T_REC_TTP	24
T_REC_THO	0
T_REC_SLD	14
T_REC_BSL	0
T_REC_ALL	494
T_NUM_TAP	457
T_NUM_BRK	2
T_NUM_HLD	21
T_NUM_SLD	14
T_NUM_ALL	494
T_JUDGE_TAP	459
T_JUDGE_HLD	68
T_JUDGE_SLD	14
T_JUDGE_ALL	541
TTM_EACHPAIRS	114
TTM_SCR_TAP	228500
TTM_SCR_BRK	5200
TTM_SCR_HLD	21000
TTM_SCR_SLD	21000
TTM_SCR_ALL	275700
TTM_SCR_S	267250
TTM_SCR_SS	275500
TTM_RAT_ACV	10007

