VERSION	0.00.00	1.04.00
FES_MODE	0
BPM_DEF	242.000	242.000	242.000	242.000
MET_DEF	4	4
RESOLUTION	384
CLK_DEF	384
COMPATIBLE_CODE	MA2

BPM	0	0	242.000
MET	0	0	4	4

NMTAP	3	0	7
NMTAP	5	0	6
NMTAP	7	0	5
NMTAP	9	0	4
NMTAP	11	0	3
NMTAP	13	0	2
NMSTR	15	0	1
NMSI_	15	0	1	96	288	5
NMSTR	17	0	6
NMSI_	17	0	6	96	288	2
NMHLD	19	0	0	384
NMHLD	19	0	1	384
NMHLD	21	0	2	384
NMHLD	21	0	3	384
NMHLD	23	0	4	384
NMHLD	23	0	5	384
NMHLD	25	0	6	384
NMHLD	25	0	7	384
NMTAP	27	0	6
NMTAP	27	0	7
NMTAP	28	0	6
NMTAP	28	0	7
NMTAP	29	0	4
NMTAP	29	0	5
NMTAP	30	0	4
NMTAP	30	0	5
NMTAP	31	0	2
NMTAP	31	0	3
NMTAP	32	0	2
NMTAP	32	0	3
NMTAP	33	0	0
NMTAP	33	0	1
NMTAP	34	0	0
NMTAP	34	0	1
NMTAP	35	0	0
NMTAP	35	192	0
NMTAP	36	0	1
NMTAP	36	192	1
NMTAP	37	0	2
NMTAP	37	192	2
NMTAP	38	0	3
NMTAP	38	192	3
NMTAP	39	0	4
NMTAP	39	192	4
NMTAP	40	0	5
NMTAP	40	192	5
EXTAP	41	0	6
EXTAP	41	0	7
EXTAP	41	192	6
EXTAP	41	192	7
EXTAP	42	0	6
EXTAP	42	0	7
NMTAP	43	0	7
NMTAP	43	192	7
NMTAP	44	0	6
NMTAP	44	192	6
NMTAP	45	0	5
NMTAP	45	192	5
NMTAP	46	0	4
NMTAP	46	192	4
NMTAP	47	0	3
NMTAP	47	192	3
NMTAP	48	0	2
NMTAP	48	192	2
NMTAP	49	0	1
NMTAP	49	192	1
NMTAP	50	0	0
NMTAP	50	0	1
NMTAP	51	0	0
NMTAP	51	96	0
NMTAP	51	192	0
NMTAP	52	0	0
NMTAP	52	0	1
NMTAP	53	0	2
NMTAP	53	96	2
NMTAP	53	192	2
NMTAP	54	0	2
NMTAP	54	0	3
NMTAP	55	0	4
NMTAP	55	96	4
NMTAP	55	192	4
NMTAP	56	0	4
NMTAP	56	0	5
NMTAP	57	0	6
NMTAP	57	96	6
NMTAP	57	192	6
NMTAP	58	0	6
NMTAP	58	0	7
NMTAP	59	0	1
NMTAP	59	96	1
NMTAP	59	192	1
NMTAP	60	0	0
NMTAP	60	0	1
NMTAP	61	0	6
NMTAP	61	96	6
NMTAP	61	192	6
NMTAP	62	0	6
NMTAP	62	0	7
NMHLD	63	0	6	384
NMHLD	63	0	7	384
NMHLD	65	0	0	384
NMHLD	65	0	1	384
NMTAP	67	0	0
NMTAP	67	0	7
NMTAP	67	192	0
NMTAP	67	192	7
NMTAP	68	0	0
NMTAP	68	0	7
NMSTR	69	0	7
NMSI_	69	0	7	96	288	3
NMSTR	71	0	0
NMSI_	71	0	0	96	288	4
NMSTR	73	0	6
NMSI_	73	0	6	96	288	2
NMSTR	75	0	1
NMSI_	75	0	1	96	288	5
NMTTP	77	0	7	E	0	L1
NMTTP	78	0	6	E	0	L1
NMTTP	79	0	5	E	0	L1
NMTTP	80	0	4	E	0	L1
NMTTP	81	0	3	E	0	L1
NMTTP	82	0	2	E	0	L1
NMTTP	83	0	1	E	0	L1
NMTTP	84	0	0	E	0	L1
NMTTP	85	0	6	B	0	L1
NMTTP	85	0	7	B	0	L1
NMTTP	86	0	4	B	0	L1
NMTTP	86	0	5	B	0	L1
NMTTP	87	0	2	B	0	L1
NMTTP	87	0	3	B	0	L1
NMTTP	88	0	0	B	0	L1
NMTTP	88	0	1	B	0	L1
NMTTP	89	0	2	B	0	L1
NMTTP	89	0	3	B	0	L1
NMTTP	89	0	3	E	0	L1
NMTTP	90	0	4	B	0	L1
NMTTP	90	0	5	B	0	L1
NMTTP	90	0	5	E	0	L1
NMTHO	91	0	0	1152	C	0	L1
BRTAP	95	0	7
NMTAP	95	96	7
NMTAP	95	192	7
NMTAP	96	0	6
NMTAP	96	96	6
NMTAP	96	192	6
NMTAP	97	0	5
NMTAP	97	96	5
NMTAP	97	192	5
NMTAP	98	0	4
NMTAP	98	0	5
NMTAP	98	192	4
NMTAP	98	192	5
NMTAP	99	0	3
NMTAP	99	96	3
NMTAP	99	192	3
NMTAP	100	0	2
NMTAP	100	96	2
NMTAP	100	192	2
NMTAP	101	0	1
NMTAP	101	96	1
NMTAP	101	192	1
NMTAP	102	0	0
NMTAP	102	0	1
NMTAP	102	192	0
NMTAP	102	192	1
NMTAP	103	0	0
NMTAP	103	96	0
NMTAP	103	192	0
NMTAP	104	0	1
NMTAP	104	96	1
NMTAP	104	192	1
NMTAP	105	0	2
NMTAP	105	96	2
NMTAP	105	192	2
NMTAP	106	0	3
NMTAP	106	0	4
NMTAP	106	192	3
NMTAP	106	192	4
NMTAP	107	0	4
NMTAP	107	96	4
NMTAP	107	192	4
NMTAP	108	0	5
NMTAP	108	96	5
NMTAP	108	192	5
NMTAP	109	0	6
NMTAP	109	96	6
NMTAP	109	192	6
NMTAP	110	0	0
NMTAP	110	0	7
NMHLD	111	0	0	384
NMHLD	111	0	7	384
BRTAP	113	0	6
NMTAP	113	96	6
NMTAP	113	192	6
NMTAP	113	288	6
NMTAP	114	0	5
NMTAP	114	96	5
NMTAP	114	192	4
NMTAP	114	192	5
NMTAP	115	0	3
NMTAP	115	96	3
NMTAP	115	192	3
NMTAP	115	288	3
NMTAP	116	0	2
NMTAP	116	96	2
NMTAP	116	192	2
NMTAP	116	192	3
NMTAP	117	0	1
NMTAP	117	96	1
NMTAP	117	192	1
NMTAP	117	288	1
NMTAP	118	0	0
NMTAP	118	96	0
NMTAP	118	192	0
NMTAP	118	192	7
NMTAP	119	0	0
NMTAP	119	96	0
NMTAP	119	192	1
NMTAP	119	288	1
NMTAP	120	0	2
NMTAP	120	96	2
NMTAP	120	192	2
NMTAP	120	192	3
NMTAP	121	0	4
NMTAP	121	96	4
NMTAP	121	192	5
NMTAP	121	288	5
NMTAP	122	0	6
NMTAP	122	96	6
NMTAP	122	192	6
NMTAP	122	192	7
NMTAP	123	0	7
NMTAP	123	96	7
NMTAP	123	192	6
NMTAP	123	288	6
NMTAP	124	0	5
NMTAP	124	96	5
NMTAP	124	192	4
NMTAP	124	192	5
NMTAP	125	0	3
NMTAP	125	96	3
NMTAP	125	192	2
NMTAP	125	288	2
NMTAP	126	0	1
NMTAP	126	96	1
NMTAP	126	192	0
NMTAP	126	192	1
NMTAP	127	0	7
NMTAP	127	96	7
NMTAP	127	192	7
NMTAP	127	288	7
NMTAP	128	0	0
NMTAP	128	96	0
NMTAP	128	192	0
NMTAP	128	192	7
NMSTR	129	0	0
NMSI_	129	0	0	96	288	3
NMSTR	129	0	7
NMSI_	129	0	7	96	288	4
NMTAP	131	0	5
NMTAP	131	96	5
NMTAP	131	192	6
NMTAP	131	288	6
NMTAP	132	0	7
NMTAP	132	96	7
NMTAP	132	192	0
NMTAP	132	288	0
NMTAP	133	0	1
NMTAP	133	96	1
NMTAP	133	192	2
NMTAP	133	288	2
NMTAP	134	0	3
NMTAP	134	96	3
NMTAP	134	192	4
NMTAP	134	288	4
NMTAP	135	0	5
NMTAP	135	96	5
NMTAP	135	192	6
NMTAP	135	288	6
NMTAP	136	0	7
NMTAP	136	96	7
NMTAP	136	192	0
NMTAP	136	288	0
NMTAP	137	0	0
NMTAP	137	0	7
NMTAP	137	96	0
NMTAP	137	96	7
NMTAP	137	192	1
NMTAP	137	192	6
NMTAP	137	288	1
NMTAP	137	288	6
NMTAP	138	0	2
NMTAP	138	0	5
NMTAP	138	96	2
NMTAP	138	96	5
NMTAP	138	192	3
NMTAP	138	192	4
NMTAP	138	288	3
NMTAP	138	288	4
NMTAP	139	0	3
NMTAP	139	0	4
NMHLD	139	96	3	672
NMHLD	139	96	4	672
NMTHO	142	0	0	360	C	0	L1
NMTTP	142	0	1	B	0	L1
NMTTP	142	0	2	B	0	L1
NMTTP	142	0	5	B	0	L1
NMTTP	142	0	6	B	0	L1

T_REC_TAP	240
T_REC_BRK	2
T_REC_XTP	6
T_REC_BXX	0
T_REC_HLD	16
T_REC_XHO	0
T_REC_BHO	0
T_REC_BXH	0
T_REC_STR	8
T_REC_BST	0
T_REC_XST	0
T_REC_XBS	0
T_REC_TTP	26
T_REC_THO	2
T_REC_SLD	8
T_REC_BSL	0
T_REC_ALL	308
T_NUM_TAP	280
T_NUM_BRK	2
T_NUM_HLD	18
T_NUM_SLD	8
T_NUM_ALL	308
T_JUDGE_TAP	282
T_JUDGE_HLD	86
T_JUDGE_SLD	8
T_JUDGE_ALL	376
TTM_EACHPAIRS	54
TTM_SCR_TAP	140000
TTM_SCR_BRK	5200
TTM_SCR_HLD	18000
TTM_SCR_SLD	12000
TTM_SCR_ALL	175200
TTM_SCR_S	169750
TTM_SCR_SS	175000
TTM_RAT_ACV	10011

