VERSION	0.00.00	1.04.00
FES_MODE	0
BPM_DEF	155.000	155.000	155.000	155.000
MET_DEF	4	4
RESOLUTION	384
CLK_DEF	384
COMPATIBLE_CODE	MA2

BPM	0	0	155.000
MET	0	0	4	4

NMTAP	2	0	1
NMTAP	2	0	4
NMTAP	2	48	2
NMTAP	2	72	3
NMHLD	2	144	3	96
NMTAP	2	192	2
NMTAP	2	240	2
NMTAP	2	336	2
NMTAP	2	336	4
NMTAP	3	0	3
NMTAP	3	0	6
NMTAP	3	48	5
NMTAP	3	72	4
NMHLD	3	144	4	96
NMTAP	3	192	5
NMTAP	3	240	5
NMTAP	3	288	6
NMTAP	3	288	7
NMTAP	4	0	0
NMTAP	4	0	5
NMTAP	4	48	6
NMTAP	4	72	7
NMHLD	4	144	7	96
NMTAP	4	192	6
NMTAP	4	240	6
NMTAP	4	336	0
NMTAP	4	336	6
NMTAP	5	0	2
NMTAP	5	0	7
NMTAP	5	48	1
NMTAP	5	72	0
NMHLD	5	144	0	96
NMTAP	5	192	1
NMTAP	5	240	1
NMTAP	5	288	2
NMTAP	5	288	7
NMHLD	6	0	1	48
NMTAP	6	48	0
NMTAP	6	72	1
NMTAP	6	144	0
NMTAP	6	144	7
NMHLD	6	192	6	96
NMTAP	6	240	4
NMTAP	6	288	4
NMTAP	6	336	3
NMTAP	6	336	5
NMHLD	7	0	6	48
NMTAP	7	48	7
NMTAP	7	72	6
NMTAP	7	144	0
NMTAP	7	144	7
NMHLD	7	192	1	96
NMTAP	7	240	3
NMTAP	7	288	3
NMTAP	7	336	2
NMTAP	7	336	4
NMHLD	8	0	1	48
NMTAP	8	48	0
NMTAP	8	72	1
NMTAP	8	144	0
NMTAP	8	144	7
NMTAP	8	192	6
NMTAP	8	240	6
NMTAP	8	240	7
NMTAP	8	288	0
NMTAP	8	288	5
NMTAP	9	0	1
NMTAP	9	32	1
NMTAP	9	64	1
NMTAP	9	96	5
NMTAP	9	128	5
NMTAP	9	160	5
BRSTR	9	192	3
NMSI_	9	192	3	96	48	7
BRTAP	9	288	4
EXSTR	10	0	6
NMSLL	10	0	6	96	192	7
NMTTP	10	192	3	B	0	M1
NMTTP	10	288	4	B	0	M1
NMSTR	11	0	1
NMSLR	11	0	1	96	192	0
NMTTP	11	192	4	B	0	M1
NMTTP	11	288	3	B	0	M1
NMSTR	12	0	6
NMSLR	12	0	6	96	192	5
NMTTP	12	192	0	B	0	M1
NMTTP	12	288	4	B	0	M1
NMSTR	13	0	3
NMSLL	13	0	3	96	192	4
NMTTP	13	192	5	E	0	M1
NMTTP	13	288	6	A	0	M1
NMTAP	14	0	4
NMSTR	14	0	5
NMSI_	14	0	5	96	96	1
NMTAP	14	48	3
NMTAP	14	96	2
CNSCL	14	192	1	0	48	0
NMTTP	14	192	3	B	0	M1
CNSI_	14	240	0	0	48	4
NMTTP	14	288	2	D	0	M1
NMSTR	15	0	2
NMSI_	15	0	2	96	96	6
NMTAP	15	0	3
NMTAP	15	48	4
NMTAP	15	96	5
NMTTP	15	192	4	B	0	M1
CNSCR	15	192	6	0	48	7
CNSI_	15	240	7	0	48	3
NMTTP	15	288	6	D	0	M1
NMTAP	16	0	2
NMTAP	16	32	3
NMTAP	16	64	1
NMTAP	16	96	5
NMTAP	16	128	4
NMTAP	16	160	6
NMTAP	16	192	2
NMTAP	16	224	3
NMTAP	16	256	0
NMTAP	16	288	5
NMTAP	16	320	4
NMTAP	16	352	7
EXSTR	17	0	0
NMSCR	17	0	0	96	96	5
NMTAP	17	96	5
NMSTR	17	192	6
NMSV_	17	192	6	96	48	4
NMTAP	18	0	3
NMTAP	18	48	2
NMTAP	18	96	0
NMTAP	18	96	1
NMTAP	18	144	2
NMSTR	18	192	0
NMSCL	18	192	0	96	48	5
NMTAP	18	288	0
NMTAP	18	288	4
NMHLD	19	0	4	96
NMTAP	19	48	7
NMTAP	19	96	6
NMTAP	19	144	5
NMSTR	19	192	4
NMSI_	19	192	4	96	48	2
NMTAP	19	192	5
NMTAP	19	288	4
NMTAP	19	288	6
NMTAP	20	0	5
NMTAP	20	48	6
NMTAP	20	96	0
NMTAP	20	96	6
NMTAP	20	144	5
NMSTR	20	192	7
NMSCR	20	192	7	96	48	2
NMTAP	20	288	3
NMTAP	20	288	7
NMTAP	21	0	5
NMTAP	21	48	5
NMHLD	21	96	3	192
NMTAP	21	96	6
NMTAP	21	144	7
NMSTR	21	192	0
NMSI_	21	192	0	96	48	4
NMTAP	21	288	0
NMTTP	22	0	2	A	0	M1
NMTTP	22	0	3	E	0	M1
NMTTP	22	0	3	A	0	M1
EXTAP	22	0	5
NMTTP	22	96	2	A	0	M1
NMTTP	22	96	3	E	0	M1
NMTTP	22	96	3	A	0	M1
EXTAP	22	96	7
EXTAP	22	192	0
NMTTP	22	192	2	A	0	M1
NMTTP	22	192	3	E	0	M1
NMTTP	22	192	3	A	0	M1
NMTTP	22	288	2	A	0	M1
NMTTP	22	288	3	E	0	M1
NMTTP	22	288	3	A	0	M1
EXTAP	22	288	6
EXTAP	23	0	2
NMTTP	23	0	4	A	0	M1
NMTTP	23	0	5	E	0	M1
NMTTP	23	0	5	A	0	M1
EXTAP	23	96	0
NMTTP	23	96	4	A	0	M1
NMTTP	23	96	5	E	0	M1
NMTTP	23	96	5	A	0	M1
NMTTP	23	192	4	A	0	M1
NMTTP	23	192	5	E	0	M1
NMTTP	23	192	5	A	0	M1
EXTAP	23	192	7
EXTAP	23	288	1
NMTTP	23	288	4	A	0	M1
NMTTP	23	288	5	E	0	M1
NMTTP	23	288	5	A	0	M1
NMTAP	24	0	2
NMTAP	24	32	2
NMHLD	24	48	4	48
NMTAP	24	96	3
NMTAP	24	128	3
NMHLD	24	144	5	48
EXTAP	24	192	4
NMTAP	24	208	5
NMTAP	24	224	6
NMTAP	24	240	7
NMTAP	24	256	0
NMTAP	24	272	1
NMTAP	24	288	2
NMTAP	24	304	3
NMTAP	24	320	4
NMTAP	24	336	5
NMTAP	24	352	6
NMTAP	24	368	7
BXTAP	25	0	0
NMTTP	25	0	0	C	1	M1
NMTTP	25	192	2	D	0	M1
NMTTP	25	208	2	A	0	M1
NMTTP	25	224	3	D	0	M1
NMTTP	25	240	3	A	0	M1
NMTTP	25	288	6	D	0	M1
NMTTP	25	304	5	A	0	M1
NMTTP	25	320	5	D	0	M1
NMTTP	25	336	4	A	0	M1
EXTAP	26	0	2
EXTAP	26	0	3
NMTAP	26	48	0
NMSTR	26	48	7
NMSCR	26	48	7	96	48	2
NMTAP	26	96	6
NMTAP	26	120	6
NMSTR	26	144	7
NMSI_	26	144	7	96	48	3
NMTAP	26	192	5
NMTAP	26	216	5
NMTAP	26	240	7
EXTAP	26	288	6
EXTAP	26	336	5
NMTAP	27	0	2
NMHLD	27	48	2	96
NMTAP	27	96	0
NMHLD	27	144	4	96
NMTAP	27	192	7
NMHLD	27	240	3	96
NMTAP	27	288	7
NMTAP	27	336	6
NMTAP	28	0	4
NMTAP	28	0	5
NMTAP	28	48	6
NMSTR	28	48	7
NMSCR	28	48	7	96	48	2
NMTAP	28	96	0
NMTAP	28	120	0
NMSTR	28	144	7
NMSCL	28	144	7	96	48	4
NMTAP	28	192	3
NMTAP	28	216	3
NMTAP	28	240	7
EXTAP	28	288	2
EXTAP	28	336	1
NMHLD	29	0	0	144
NMTTP	29	48	3	D	0	M1
NMTTP	29	96	4	D	0	M1
NMTTP	29	144	5	D	0	M1
NMTAP	29	192	6
NMTAP	29	192	7
NMTAP	29	240	5
NMTAP	29	264	4
NMTAP	29	288	5
NMTAP	29	336	3
NMTAP	29	336	6
NMTAP	30	0	4
NMTAP	30	0	5
NMSTR	30	48	0
NMSCL	30	48	0	96	48	5
NMTAP	30	48	7
NMTAP	30	96	1
NMTAP	30	120	1
NMSTR	30	144	0
NMSI_	30	144	0	96	48	4
NMTAP	30	192	2
NMTAP	30	216	2
NMTAP	30	240	0
EXTAP	30	288	1
EXTAP	30	336	2
NMTAP	31	0	5
NMSTR	31	48	6
NMSI_	31	48	6	96	48	4
NMSTR	31	96	4
NMSI_	31	96	4	96	48	2
NMSTR	31	144	2
NMSI_	31	144	2	96	48	0
NMTAP	31	192	0
NMTTP	31	288	7	B	0	M1
NMTTP	31	288	7	E	0	M1
NMTTP	31	288	7	A	0	M1
NMTAP	32	0	4
NMTAP	32	0	5
NMSTR	32	48	2
NMSCR	32	48	2	96	48	5
NMTAP	32	48	3
NMTAP	32	96	1
NMTAP	32	120	1
NMSTR	32	144	2
NMSI_	32	144	2	96	48	6
NMTAP	32	192	0
NMTAP	32	216	0
NMTAP	32	240	2
EXTAP	32	288	1
EXTAP	32	336	3
NMTAP	33	0	5
NMTAP	33	24	4
NMTAP	33	48	5
NMTAP	33	96	2
NMTAP	33	96	3
NMTAP	33	144	2
NMTAP	33	144	3
NMTAP	33	192	0
NMTAP	33	192	7
NMTAP	33	240	0
NMTAP	33	240	7
BRTAP	33	288	2
BRTAP	33	288	5
NMTAP	34	0	1
NMTAP	34	32	1
NMTAP	34	48	0
NMTAP	34	80	2
NMTAP	34	128	4
NMTAP	34	144	3
NMTAP	34	192	6
NMTAP	34	224	6
NMTAP	34	240	7
NMTAP	34	272	5
NMTAP	34	320	3
NMTAP	34	336	4
NMSTR	35	0	1
NMSCR	35	0	1	96	48	3
NMSTR	35	48	3
NMSCR	35	48	3	96	48	5
NMSTR	35	96	5
NMSCR	35	96	5	96	48	7
NMSTR	35	144	7
NMSCR	35	144	7	96	48	1
EXTAP	35	192	1
NMTTP	35	288	0	B	0	M1
NMTTP	35	288	0	E	0	M1
NMTTP	35	288	7	B	0	M1
NMTAP	36	0	5
NMTAP	36	32	5
NMTAP	36	48	4
NMTAP	36	80	6
NMTAP	36	128	0
NMTAP	36	144	7
NMTAP	36	192	2
NMTAP	36	224	2
NMTAP	36	240	3
NMTAP	36	272	1
NMTAP	36	320	7
NMTAP	36	336	0
NMSTR	37	0	6
NMSI_	37	0	6	96	48	3
NMSTR	37	48	1
NMSI_	37	48	1	96	48	4
NMTAP	37	96	6
NMTAP	37	144	1
EXTAP	37	192	7
NMTAP	37	208	0
NMTAP	37	224	1
NMTAP	37	240	2
NMTAP	37	256	3
NMTAP	37	272	4
EXTAP	37	288	5
NMTAP	38	0	6
NMTAP	38	32	6
NMTAP	38	48	7
NMTAP	38	80	5
NMTAP	38	128	3
NMTAP	38	144	4
NMTAP	38	192	1
NMTAP	38	224	1
NMTAP	38	240	0
NMTAP	38	272	2
NMTAP	38	320	4
NMTAP	38	336	3
NMTAP	39	0	6
NMTAP	39	32	6
NMTAP	39	48	4
NMTAP	39	80	4
NMTAP	39	96	5
NMTAP	39	128	5
NMTAP	39	144	3
NMTAP	39	176	3
NMTAP	39	192	4
NMTAP	39	224	4
NMTAP	39	240	2
EXTAP	39	288	1
EXTAP	39	288	3
EXTAP	39	336	1
EXTAP	39	336	3
NMTAP	40	0	4
NMTAP	40	16	5
NMTAP	40	32	6
NMTAP	40	48	7
NMTAP	40	64	0
NMTAP	40	80	1
NMTAP	40	96	2
NMTAP	40	112	3
NMTAP	40	128	4
NMTAP	40	144	5
NMTAP	40	160	6
NMTAP	40	176	7
NMTAP	40	192	0
NMTTP	40	192	3	A	0	M1
NMTTP	40	208	2	A	0	M1
NMTTP	40	224	1	A	0	M1
NMTTP	40	240	0	A	0	M1
NMTTP	40	256	7	A	0	M1
NMTTP	40	272	6	A	0	M1
NMTTP	40	288	5	A	0	M1
NMTTP	40	304	4	A	0	M1
NMTTP	40	320	3	A	0	M1
NMTTP	40	336	2	A	0	M1
NMTTP	40	352	1	A	0	M1
NMTTP	40	368	0	A	0	M1
NMTTP	41	0	0	B	0	M1
NMTTP	41	0	0	C	1	M1
NMTTP	41	0	0	E	0	M1
NMTTP	41	0	1	B	0	M1
NMTTP	41	0	6	B	0	M1
NMTTP	41	0	7	B	0	M1
NMSTR	42	0	2
NMSUR	42	0	2	96	96	6
NMTAP	42	0	7
NMSTR	42	96	6
NMSI_	42	96	6	96	48	0
NMSTR	42	192	2
NMSV_	42	192	2	96	96	7
CNSI_	42	240	0	0	48	2
NMSTR	42	288	7
NMSLR	42	288	7	96	96	4
NMSTR	43	0	4
NMSV_	43	0	4	96	96	1
NMTAP	43	96	5
NMTAP	43	192	7
NMTAP	43	240	7
EXTAP	43	288	0
EXTAP	43	288	6
NMSTR	44	0	7
NMSUR	44	0	7	96	96	3
NMSTR	44	96	3
NMSI_	44	96	3	96	48	5
NMSTR	44	192	6
NMSUR	44	192	6	96	96	2
CNSCR	44	240	5	0	48	6
NMSTR	44	288	2
NMSXR	44	288	2	96	96	0
NMSTR	45	0	0
NMSCR	45	0	0	96	96	4
NMTAP	45	96	4
NMTAP	45	192	0
NMTAP	45	240	0
EXTAP	45	288	1
EXTAP	45	288	7
NMSTR	46	0	3
NMSUR	46	0	3	96	96	7
NMSTR	46	96	7
NMSCR	46	96	7	96	96	2
NMSTR	46	192	2
NMSUR	46	192	2	96	96	7
NMSTR	46	288	7
NMSUR	46	288	7	96	96	4
NMSTR	47	0	4
NMSXR	47	0	4	96	192	6
NMTAP	47	96	6
NMTAP	47	192	7
NMTAP	47	240	7
EXTAP	47	288	0
NMSTR	48	0	1
NMSUR	48	0	1	96	48	5
NMSTR	48	96	0
NMSI_	48	96	0	96	24	3
NMSTR	48	192	7
NMSUR	48	192	7	96	48	5
CNSCR	48	216	3	0	24	4
NMSTR	48	288	6
NMSCR	48	288	6	96	96	2
NMSTR	49	0	2
NMSCR	49	0	2	96	96	6
NMTAP	49	96	6
EXTAP	49	192	0
EXTAP	49	240	0
NMTTP	49	288	2	B	0	M1
NMTTP	49	288	2	E	0	M1
NMTTP	49	288	2	A	0	M1
NMTTP	49	288	6	B	0	M1
NMTTP	49	288	6	A	0	M1
NMTTP	49	288	7	E	0	M1
NMSTR	50	0	3
NMSLR	50	0	3	96	48	7
NMSTR	50	0	4
NMSI_	50	0	4	96	48	6
NMSTR	50	192	3
NMSI_	50	192	3	96	48	1
NMSTR	50	192	4
NMSLL	50	192	4	96	48	0
NMSTR	51	0	3
NMSI_	51	0	3	96	24	5
NMSTR	51	0	4
NMSCR	51	0	4	96	24	6
CNSI_	51	120	5	0	24	7
CNSI_	51	120	6	0	24	0
EXHLD	51	192	1	96
EXHLD	51	192	2	96
BRTAP	51	336	0
BRTAP	51	336	3
NMSTR	52	0	0
NMSI_	52	0	0	96	48	6
NMSTR	52	96	4
NMSI_	52	96	4	96	48	6
NMSTR	52	192	3
NMSI_	52	192	3	96	48	6
NMSTR	52	288	2
NMSI_	52	288	2	96	48	6
NMSTR	53	0	1
NMSI_	53	0	1	96	48	6
NMSTR	53	96	3
NMSI_	53	96	3	96	48	6
NMTAP	53	192	0
NMTAP	53	240	0
NMTAP	53	288	1
BRTAP	53	336	2
BRTAP	53	336	5
NMSTR	54	0	3
NMSI_	54	0	3	96	48	1
NMSTR	54	0	4
NMSLL	54	0	4	96	48	0
NMSTR	54	192	3
NMSLR	54	192	3	96	48	7
NMSTR	54	192	4
NMSI_	54	192	4	96	48	6
NMSTR	55	0	3
NMSCL	55	0	3	96	24	1
NMSTR	55	0	4
NMSI_	55	0	4	96	24	2
CNSI_	55	120	1	0	24	7
CNSI_	55	120	2	0	24	0
EXHLD	55	192	5	96
EXHLD	55	192	6	96
BRTAP	55	336	4
BRTAP	55	336	7
NMSTR	56	0	2
NMSCR	56	0	2	96	96	6
NMSTR	56	96	6
NMSLL	56	96	6	96	96	2
NMSTR	56	192	2
NMSCL	56	192	2	96	96	6
NMSTR	56	288	6
NMSLR	56	288	6	96	96	2
NMTHO	57	0	0	192	C	0	M1
NMTTP	57	192	0	B	0	M1
NMTTP	57	192	0	E	0	M1
NMTTP	57	192	7	B	0	M1
BRTAP	57	288	1
BRTAP	57	288	6
NMHLD	58	0	1	192
NMHLD	58	0	3	192
NMTAP	58	288	1
NMTAP	58	288	3
NMSTR	59	0	2
NMSUR	59	0	2	96	96	3
NMTAP	59	0	4
CNSCR	59	192	3	0	96	4
NMTAP	59	288	5
NMHLD	60	0	4	192
NMHLD	60	0	6	192
NMTAP	60	288	4
NMTAP	60	288	6
NMTAP	61	0	3
NMSTR	61	0	5
NMSUL	61	0	5	96	96	4
CNSCL	61	192	4	0	96	3
NMTAP	61	288	2
NMTTP	62	0	0	A	0	M1
NMTTP	62	0	1	E	0	M1
NMTTP	62	0	1	A	0	M1
EXTAP	62	0	3
NMTTP	62	96	0	A	0	M1
NMTTP	62	96	1	E	0	M1
NMTTP	62	96	1	A	0	M1
EXTAP	62	96	5
NMTTP	62	192	0	A	0	M1
NMTTP	62	192	1	E	0	M1
NMTTP	62	192	1	A	0	M1
EXTAP	62	192	4
NMTTP	62	288	0	A	0	M1
NMTTP	62	288	1	E	0	M1
NMTTP	62	288	1	A	0	M1
EXTAP	62	288	5
EXTAP	63	0	2
NMTTP	63	0	6	A	0	M1
NMTTP	63	0	7	E	0	M1
NMTTP	63	0	7	A	0	M1
EXTAP	63	96	4
NMTTP	63	96	6	A	0	M1
NMTTP	63	96	7	E	0	M1
NMTTP	63	96	7	A	0	M1
EXTAP	63	192	5
NMTTP	63	192	6	A	0	M1
NMTTP	63	192	7	E	0	M1
NMTTP	63	192	7	A	0	M1
EXTAP	63	288	4
NMTTP	63	288	6	A	0	M1
NMTTP	63	288	7	E	0	M1
NMTTP	63	288	7	A	0	M1
NMTAP	64	0	6
NMTAP	64	32	6
NMTAP	64	48	4
NMTAP	64	80	4
NMTAP	64	96	5
NMTAP	64	128	5
NMTAP	64	144	3
NMTAP	64	176	3
NMTAP	64	192	4
NMTAP	64	224	4
NMTAP	64	240	2
NMTAP	64	272	2
NMTAP	64	288	3
NMTAP	64	320	3
NMTAP	64	336	1
NMTAP	64	368	1
BXSTR	65	0	2
BRSCL	65	0	2	96	96	4
NMTTP	65	192	7	A	0	M1
NMTTP	65	208	0	E	0	M1
NMTTP	65	224	1	E	0	M1
NMTTP	65	240	1	A	0	M1
NMTTP	65	288	3	A	0	M1
NMTTP	65	304	4	E	0	M1
NMTTP	65	320	5	E	0	M1
NMTTP	65	336	5	A	0	M1
BXTAP	66	0	2
BXTAP	66	0	6
BXHLD	66	48	2	288
BXHLD	66	48	6	288
NMTAP	67	24	5
NMTAP	67	48	4
NMTAP	67	96	0
NMTAP	67	96	7
NMTAP	67	144	0
NMHLD	67	144	7	48
NMTAP	67	192	1
NMTAP	67	208	2
NMTAP	67	224	3
NMHLD	67	240	4	96
NMTAP	67	288	5
NMTAP	67	304	6
NMTAP	67	320	7
NMTAP	67	336	0
BRTAP	68	0	0
BRTAP	68	0	4
BRTAP	68	48	2
BRSTR	68	48	6
NMSCL	68	48	6	96	48	3
NMTAP	68	96	7
NMTAP	68	120	7
NMSTR	68	144	6
NMSUL	68	144	6	96	48	2
NMTAP	68	192	0
NMTAP	68	216	0
NMTAP	68	240	6
EXTAP	68	288	1
EXTAP	68	336	2
NMTAP	69	0	3
NMTAP	69	0	4
NMTAP	69	48	5
NMTAP	69	96	6
NMTAP	69	96	7
NMTAP	69	144	0
NMTAP	69	144	1
NMTAP	69	192	2
NMTAP	69	192	7
NMTAP	69	240	1
NMTAP	69	264	0
NMTAP	69	288	1
NMTAP	69	336	2
NMTAP	70	0	3
NMTAP	70	0	6
NMSTR	70	48	4
NMSI_	70	48	4	96	48	7
NMTAP	70	48	5
NMTAP	70	96	7
NMTAP	70	120	7
NMSTR	70	144	4
NMSCL	70	144	4	96	48	1
NMTAP	70	192	5
NMTAP	70	216	5
NMTAP	70	240	4
EXTAP	70	288	7
EXTAP	70	336	6
NMTAP	71	0	3
NMTAP	71	0	5
NMSTR	71	48	4
NMSCL	71	48	4	96	48	2
NMSTR	71	96	2
NMSCL	71	96	2	96	48	0
NMSTR	71	144	0
NMSCL	71	144	0	96	48	6
NMTAP	71	192	6
NMTTP	71	288	0	E	0	M1
NMTTP	71	288	1	E	0	M1
NMTAP	72	0	1
NMTAP	72	0	4
NMSTR	72	48	2
NMSCR	72	48	2	96	48	5
NMTAP	72	48	3
NMTAP	72	96	1
NMTAP	72	120	1
NMSTR	72	144	2
NMSI_	72	144	2	96	48	6
NMTAP	72	192	0
NMTAP	72	216	0
NMTAP	72	240	2
EXTAP	72	288	1
EXTAP	72	336	3
NMTAP	73	0	5
NMTAP	73	24	4
NMTAP	73	48	5
NMTAP	73	96	6
NMTAP	73	96	7
NMTAP	73	144	6
NMTAP	73	144	7
NMTAP	73	192	0
NMTAP	73	192	1
NMTAP	73	240	0
NMTAP	73	240	1
BRTAP	73	288	2
BRTAP	73	288	7
NMTAP	74	0	1
NMTAP	74	32	1
NMTAP	74	48	3
NMTAP	74	80	0
NMTAP	74	128	4
NMTAP	74	144	2
NMTAP	74	192	6
NMTAP	74	224	6
NMTAP	74	240	4
NMTAP	74	272	7
NMTAP	74	320	3
NMTAP	74	336	5
NMSTR	75	0	1
NMSCR	75	0	1	96	48	4
NMSTR	75	48	0
NMSV_	75	48	0	96	48	5
NMTAP	75	96	1
NMTAP	75	144	0
NMTAP	75	192	2
NMTAP	75	208	1
NMTAP	75	224	0
NMTAP	75	240	7
NMTAP	75	256	6
NMTAP	75	272	5
NMTAP	75	288	4
NMTAP	75	304	3
NMTAP	75	320	2
BRTAP	75	336	1
BRTAP	75	336	5
NMTAP	76	0	6
NMTAP	76	32	6
NMTAP	76	48	4
NMTAP	76	80	7
NMTAP	76	128	3
NMTAP	76	144	5
NMTAP	76	192	1
NMTAP	76	224	1
NMTAP	76	240	3
NMTAP	76	272	0
NMTAP	76	320	4
NMTAP	76	336	2
EXSTR	77	0	7
NMSCL	77	0	7	96	48	4
EXSTR	77	48	7
NMSCR	77	48	7	96	48	2
EXSTR	77	96	7
NMSI_	77	96	7	96	48	3
EXTAP	77	144	7
EXTAP	77	192	7
BRTAP	77	288	2
BRTAP	77	288	4
BRTAP	78	0	1
NMTAP	78	16	0
NMTAP	78	32	7
NMTAP	78	48	6
NMTAP	78	64	5
NMTAP	78	80	4
BRSTR	78	96	1
BRSCR	78	96	1	96	96	6
NMTAP	78	112	0
NMTAP	78	128	7
NMTAP	78	144	6
NMTAP	78	160	5
NMTAP	78	176	4
BXTAP	78	192	1
BRTAP	79	0	6
NMTAP	79	16	7
NMTAP	79	32	0
NMTAP	79	48	1
NMTAP	79	64	2
NMTAP	79	80	3
BRSTR	79	96	6
BRSCL	79	96	6	96	96	1
NMTAP	79	112	7
NMTAP	79	128	0
NMTAP	79	144	1
NMTAP	79	160	2
NMTAP	79	176	3
BXTAP	79	192	6
BRTAP	80	0	2
NMTAP	80	16	3
NMTAP	80	32	4
NMTAP	80	48	5
NMTAP	80	64	6
NMTAP	80	80	7
BRTAP	80	96	1
NMTAP	80	112	2
NMTAP	80	128	3
NMTAP	80	144	4
NMTAP	80	160	5
NMTAP	80	176	6
BRSTR	80	192	0
BRSCL	80	192	0	96	72	3
NMTAP	80	208	1
NMTAP	80	224	2
NMTAP	80	240	3
NMTAP	80	256	4
NMTAP	80	272	5
BXTAP	80	288	0
BXHLD	81	0	2	288
BXHLD	81	0	6	288
NMTTP	81	288	3	D	1	M1
NMTTP	81	288	7	D	0	M1
NMTTP	81	296	3	A	0	M1
NMTTP	81	296	7	A	0	M1
NMTTP	81	304	0	D	0	M1
NMTTP	81	304	4	D	0	M1
NMTTP	81	312	0	A	0	M1
NMTTP	81	312	4	A	0	M1
NMTTP	81	320	1	D	0	M1
NMTTP	81	320	5	D	0	M1
NMTTP	81	328	1	A	0	M1
NMTTP	81	328	5	A	0	M1
NMHLD	82	0	5	192
NMTAP	82	48	4
NMHLD	82	72	4	120
EXTAP	82	240	4
EXTAP	82	240	5
EXTAP	82	336	3
EXTAP	82	336	4
NMHLD	83	0	2	192
NMTAP	83	48	3
NMHLD	83	72	3	120
EXTAP	83	240	2
EXTAP	83	240	3
EXTAP	83	336	1
EXTAP	83	336	3
NMHLD	84	0	1	192
NMTAP	84	48	3
NMHLD	84	72	3	120
EXTAP	84	240	1
EXTAP	84	240	3
EXTAP	84	336	3
EXTAP	84	336	4
NMHLD	85	0	6	144
NMTAP	85	48	4
NMHLD	85	72	4	72
EXTAP	85	192	4
EXTAP	85	192	6
NMTAP	85	240	5
EXTAP	85	288	1
EXTAP	85	288	4
NMHLD	86	0	2	48
NMHLD	86	0	3	48
NMTAP	86	72	1
NMTAP	86	96	0
NMTAP	86	144	0
NMTAP	86	144	7
NMTAP	86	216	6
NMTAP	86	240	7
NMTAP	86	288	4
NMTAP	86	288	5
NMTAP	86	336	3
NMTAP	86	336	6
NMHLD	87	0	4	48
NMHLD	87	0	5	48
NMTAP	87	72	6
NMTAP	87	96	7
NMTAP	87	144	0
NMTAP	87	144	7
NMTAP	87	216	1
NMTAP	87	216	6
NMTAP	87	240	1
NMTAP	87	240	6
NMTAP	87	288	0
NMTAP	87	288	7
NMTAP	87	336	0
NMTAP	87	336	7
BXTAP	88	0	6
NMTAP	88	16	4
NMTAP	88	32	5
NMTAP	88	48	4
BXTAP	88	96	1
NMTAP	88	112	3
NMTAP	88	128	2
NMTAP	88	144	3
BXTAP	88	192	0
NMTAP	88	208	7
NMTAP	88	224	0
NMTAP	88	240	7
EXTAP	88	288	1
EXTAP	88	288	6
BRTAP	89	0	0
BRTAP	89	0	1
NMTAP	89	32	0
NMTAP	89	32	1
NMTAP	89	64	0
NMTAP	89	64	1
BRTAP	89	96	2
BRTAP	89	96	7
NMTAP	89	128	2
NMTAP	89	128	7
NMTAP	89	160	2
NMTAP	89	160	7
BRSTR	89	192	3
NMSLL	89	192	3	96	48	7
BRSTR	89	192	6
NMSLL	89	192	6	96	48	2
BRTAP	89	288	3
BRSTR	89	288	6
BRSI_	89	288	6	96	48	2
BXTAP	90	0	6
EXHLD	90	96	7	1440
EXTAP	91	96	1
EXTAP	91	108	2
EXHLD	91	120	3	1032

T_REC_TAP	456
T_REC_BRK	29
T_REC_XTP	69
T_REC_BXX	10
T_REC_HLD	35
T_REC_XHO	6
T_REC_BHO	0
T_REC_BXH	4
T_REC_STR	81
T_REC_BST	8
T_REC_XST	5
T_REC_XBS	1
T_REC_TTP	127
T_REC_THO	1
T_REC_SLD	90
T_REC_BSL	5
T_REC_ALL	927
T_NUM_TAP	738
T_NUM_BRK	57
T_NUM_HLD	42
T_NUM_SLD	90
T_NUM_ALL	927
T_JUDGE_TAP	786
T_JUDGE_HLD	169
T_JUDGE_SLD	95
T_JUDGE_ALL	1050
TTM_EACHPAIRS	112
TTM_SCR_TAP	369000
TTM_SCR_BRK	148200
TTM_SCR_HLD	42000
TTM_SCR_SLD	135000
TTM_SCR_ALL	694200
TTM_SCR_S	667850
TTM_SCR_SS	688500
TTM_RAT_ACV	10082

