VERSION	0.00.00	1.04.00
FES_MODE	0
BPM_DEF	155.000	155.000	155.000	155.000
MET_DEF	4	4
RESOLUTION	384
CLK_DEF	384
COMPATIBLE_CODE	MA2

BPM	0	0	155.000
MET	0	0	4	4

EXTAP	2	0	1
EXTAP	2	0	3
EXSTR	2	80	1
NMSV_	2	80	1	96	208	4
EXTAP	2	80	3
EXTAP	3	0	6
EXSTR	3	80	6
NMSV_	3	80	6	96	208	3
EXTAP	4	0	1
EXSTR	4	80	1
NMSCR	4	80	1	96	208	5
EXTAP	5	0	6
EXHLD	5	80	6	160
NMTAP	5	240	7
NMTAP	5	320	6
NMTAP	5	320	7
EXTAP	6	0	0
NMTAP	6	80	0
NMTAP	6	80	7
EXTAP	6	144	1
NMTAP	6	224	0
NMTAP	6	224	1
EXTAP	6	288	2
EXTAP	6	288	7
EXTAP	7	0	0
NMTAP	7	80	0
NMTAP	7	80	7
EXTAP	7	144	6
NMTAP	7	224	6
NMTAP	7	224	7
NMTAP	7	288	0
NMTAP	7	288	5
NMTAP	8	0	4
NMTAP	8	48	4
NMTAP	8	96	2
NMTAP	8	144	2
NMTAP	8	192	4
NMTAP	8	240	4
NMSTR	8	288	3
NMSSR	8	288	3	96	192	7
BRTAP	9	288	0
BRTAP	9	288	6
NMHLD	10	0	1	1536
NMSTR	10	0	5
NMSCL	10	0	5	96	144	2
NMTTP	11	0	3	B	0	M1
NMTTP	11	0	3	E	0	M1
NMTTP	11	192	2	B	0	M1
NMTTP	11	192	2	E	0	M1
NMSTR	12	0	0
NMSCR	12	0	0	96	144	3
NMTTP	13	0	3	E	0	M1
NMTTP	13	192	5	E	0	M1
EXTAP	14	0	3
NMTAP	14	48	3
NMTAP	14	144	2
NMTAP	14	144	4
NMTAP	14	240	2
NMTAP	14	240	4
NMTAP	14	336	1
NMTAP	14	336	3
NMTAP	15	0	2
NMTAP	15	48	2
NMTAP	15	144	1
NMTAP	15	144	3
NMTAP	15	240	2
NMTAP	15	240	4
NMTAP	15	336	3
NMTAP	15	336	5
NMHLD	16	0	3	96
NMHLD	16	0	5	96
NMHLD	16	192	2	96
NMHLD	16	192	4	96
NMHLD	17	0	1	96
NMHLD	17	96	3	96
NMHLD	17	192	5	96
NMTAP	17	288	7
NMTAP	18	0	0
NMTAP	18	0	6
NMTAP	18	96	1
NMTAP	18	144	1
NMTAP	18	192	3
NMTAP	18	288	2
NMTAP	18	288	4
NMTAP	19	0	1
NMTAP	19	0	7
NMTAP	19	96	6
NMTAP	19	144	6
NMTAP	19	192	4
NMTAP	19	288	3
NMTAP	19	288	5
NMTAP	20	0	0
NMTAP	20	0	1
NMTAP	20	96	2
NMTAP	20	144	2
NMTAP	20	192	4
NMTAP	20	288	3
NMTAP	20	288	5
NMTAP	21	0	6
NMTAP	21	0	7
NMTAP	21	96	5
NMTAP	21	144	5
NMTAP	21	192	3
NMTAP	21	288	2
NMTAP	21	288	4
NMHLD	22	0	1	48
EXTAP	22	0	5
NMHLD	22	96	1	48
NMHLD	22	192	2	48
NMHLD	22	192	3	48
NMTAP	22	288	1
NMTAP	22	288	4
EXTAP	23	0	3
NMHLD	23	0	5	48
NMHLD	23	96	5	48
NMHLD	23	192	6	48
NMHLD	23	192	7	48
NMTAP	23	288	0
NMTAP	23	288	5
NMTAP	24	0	1
NMTAP	24	48	1
NMTAP	24	96	3
NMTAP	24	144	3
NMTAP	24	192	2
NMTAP	24	240	2
NMTAP	24	288	4
NMTAP	24	336	4
NMTHO	25	0	0	192	C	0	M1
EXTAP	25	288	7
NMTAP	26	0	0
NMTAP	26	0	6
NMTAP	26	96	4
NMTAP	26	96	5
NMSTR	26	192	1
NMSCR	26	192	1	96	48	3
NMTAP	26	192	3
NMTAP	27	0	4
NMTAP	27	0	5
NMTAP	27	96	6
NMTAP	27	96	7
NMTAP	27	192	2
NMTAP	27	192	3
NMTAP	27	288	0
NMTAP	28	0	1
NMTAP	28	0	7
NMTAP	28	96	2
NMTAP	28	96	3
NMTAP	28	192	4
NMSTR	28	192	6
NMSCL	28	192	6	96	48	4
NMTAP	29	0	2
NMTAP	29	0	3
NMTAP	29	96	0
NMTAP	29	96	1
NMTAP	29	192	4
NMTAP	29	192	5
NMTAP	29	288	2
NMTAP	29	288	7
NMSTR	30	0	0
NMSCR	30	0	0	96	48	3
NMTAP	30	0	5
NMTAP	30	192	4
NMTAP	30	192	5
NMTAP	30	288	6
NMTAP	30	288	7
NMSTR	31	0	0
NMSCR	31	0	0	96	48	3
NMTAP	31	0	5
NMTAP	31	192	4
NMTAP	31	192	5
NMTAP	31	288	6
NMTAP	31	288	7
NMSTR	32	0	0
NMSCR	32	0	0	96	48	3
NMTAP	32	0	5
NMSTR	32	192	0
NMSCR	32	192	0	96	48	3
NMTAP	32	192	6
NMSTR	33	0	0
NMSI_	33	0	0	96	48	3
NMSTR	33	0	7
NMSI_	33	0	7	96	48	4
NMTAP	33	192	2
NMTAP	33	192	5
BRTAP	33	288	1
BRTAP	33	288	6
NMTAP	34	0	5
NMTAP	34	48	5
NMTAP	34	96	7
NMTAP	34	144	7
NMTAP	34	192	0
NMTAP	34	240	0
NMTAP	34	288	1
NMTAP	34	288	7
NMTAP	35	0	2
NMTAP	35	48	2
NMTAP	35	96	0
NMTAP	35	144	0
NMTAP	35	192	7
NMTAP	35	240	7
NMTAP	35	288	0
NMTAP	35	288	6
NMHLD	36	0	1	96
NMTAP	36	96	3
NMHLD	36	192	6	96
NMTAP	36	288	4
NMTAP	37	0	2
NMTAP	37	48	2
NMTAP	37	96	4
NMTAP	37	144	4
NMTAP	37	192	1
NMTAP	37	240	1
NMTAP	37	288	0
NMTAP	37	288	1
NMTAP	38	0	2
NMTAP	38	48	2
NMTAP	38	96	0
NMTAP	38	144	0
NMTAP	38	192	7
NMTAP	38	240	7
NMTAP	38	288	0
NMTAP	38	288	6
NMTAP	39	0	4
NMTAP	39	48	4
NMTAP	39	96	6
NMTAP	39	144	6
NMTAP	39	192	7
NMTAP	39	240	7
NMTAP	39	288	0
NMTAP	39	288	6
NMTAP	40	0	1
NMTAP	40	48	1
NMTAP	40	96	3
NMTAP	40	144	2
NMTAP	40	192	5
NMTAP	40	240	5
NMTAP	40	288	4
NMTAP	40	336	6
BXTAP	41	0	3
BXHLD	41	0	7	384
BRSTR	41	288	0
BRSI_	41	288	0	96	96	6
CNSI_	42	96	6	0	96	1
CNSI_	42	192	1	0	96	5
CNSI_	42	288	5	0	96	2
CNSI_	43	0	2	0	96	4
NMTAP	43	192	5
NMTAP	43	240	5
BRTAP	43	288	4
BRTAP	43	288	6
EXHLD	44	0	3	48
EXHLD	44	0	7	48
NMHLD	44	96	4	48
NMHLD	44	96	6	48
NMHLD	44	192	4	48
NMHLD	44	192	5	48
NMHLD	44	288	4	48
NMHLD	44	288	6	48
NMHLD	45	0	5	48
NMHLD	45	0	7	48
NMHLD	45	96	0	48
NMHLD	45	96	6	48
NMHLD	45	192	1	48
NMHLD	45	192	7	48
NMTAP	45	288	2
EXTAP	45	336	2
EXHLD	46	0	1	48
EXHLD	46	0	3	48
NMHLD	46	96	2	48
NMHLD	46	96	3	48
NMHLD	46	192	1	48
NMHLD	46	192	3	48
NMHLD	46	288	0	48
NMHLD	46	288	2	48
NMHLD	47	0	1	48
NMHLD	47	0	2	48
NMHLD	47	96	1	48
NMHLD	47	96	3	48
NMHLD	47	192	2	48
NMHLD	47	192	3	48
EXTAP	47	288	1
NMTAP	47	288	4
NMTAP	48	0	2
NMTAP	48	48	2
NMTAP	48	96	4
NMTAP	48	144	4
NMTAP	48	192	6
NMTAP	48	240	6
NMTAP	48	288	4
NMTAP	48	336	4
NMTHO	49	0	0	192	C	0	M1
EXTAP	49	288	0
EXTAP	49	288	7
BRSTR	50	0	0
NMSI_	50	0	0	96	48	4
NMSTR	50	0	1
NMSI_	50	0	1	96	48	3
NMSTR	50	192	0
NMSI_	50	192	0	96	48	4
BRSTR	50	192	1
NMSI_	50	192	1	96	48	4
BRSTR	51	0	0
NMSI_	51	0	0	96	48	3
NMSTR	51	0	1
NMSI_	51	0	1	96	48	4
NMTAP	51	192	0
BRSTR	51	192	1
NMSI_	51	192	1	96	48	5
NMTAP	51	288	7
EXTAP	51	336	7
BRTAP	52	0	7
NMHLD	52	96	0	48
NMHLD	52	96	6	48
NMHLD	52	192	1	48
NMHLD	52	192	7	48
NMHLD	52	288	0	48
NMHLD	52	288	5	48
NMHLD	53	0	2	48
NMHLD	53	0	7	48
NMHLD	53	96	1	48
NMHLD	53	96	4	48
NMHLD	53	192	3	48
NMHLD	53	192	6	48
EXTAP	53	288	0
EXTAP	53	288	7
NMSTR	54	0	6
NMSI_	54	0	6	96	48	4
BRSTR	54	0	7
NMSI_	54	0	7	96	48	3
BRSTR	54	192	6
NMSI_	54	192	6	96	48	3
NMSTR	54	192	7
NMSI_	54	192	7	96	48	3
NMSTR	55	0	6
NMSI_	55	0	6	96	48	3
BRSTR	55	0	7
NMSI_	55	0	7	96	48	4
BRSTR	55	192	6
NMSI_	55	192	6	96	48	2
NMTAP	55	192	7
NMTAP	55	288	0
EXTAP	55	336	0
BRTAP	56	0	0
NMTAP	56	96	0
NMTAP	56	96	1
NMTAP	56	192	3
NMTAP	56	192	6
NMTAP	56	288	6
NMTAP	56	288	7
NMHLD	57	0	1	192
NMTAP	57	0	4
NMSTR	57	192	3
BRSI_	57	192	3	96	48	7
BRTAP	58	0	0
NMTAP	58	96	1
NMHLD	58	96	6	192
NMTAP	58	240	4
NMTAP	58	288	4
NMTAP	59	0	7
NMHLD	59	96	1	192
NMTAP	59	96	6
NMTAP	59	240	3
NMTAP	59	288	3
NMTAP	60	0	4
NMTAP	60	96	3
NMHLD	60	96	6	192
NMTAP	60	240	5
NMTAP	60	288	5
NMTAP	61	0	3
NMHLD	61	96	1	192
NMTAP	61	96	4
NMTAP	61	240	2
NMTAP	61	288	2
NMTAP	62	0	2
NMTAP	62	0	3
NMTAP	62	96	2
NMTAP	62	96	3
NMTAP	62	192	3
NMTAP	62	192	4
NMTAP	62	288	5
NMTAP	62	336	5
NMTAP	63	0	4
NMTAP	63	0	5
NMTAP	63	96	4
NMTAP	63	96	5
NMTAP	63	192	3
NMTAP	63	192	4
NMTAP	63	288	2
NMTAP	63	336	2
NMHLD	64	0	2	96
NMTAP	64	0	3
NMHLD	64	96	0	96
NMHLD	64	192	7	96
NMSTR	64	288	5
NMSXR	64	288	5	96	288	2
BRHLD	66	0	0	384
NMTAP	67	0	7
NMTAP	67	96	0
NMTAP	67	96	7
NMTAP	67	144	1
NMTAP	67	144	6
NMTAP	67	192	2
NMTAP	67	192	5
BRTAP	67	288	0
BRTAP	67	288	7
NMSTR	68	0	1
NMSI_	68	0	1	96	48	5
NMSTR	68	96	3
NMSI_	68	96	3	96	48	7
NMTAP	68	192	2
NMTAP	68	288	0
NMTAP	68	336	1
NMTAP	69	0	2
NMSTR	69	0	7
NMSCL	69	0	7	96	48	4
NMSTR	69	96	1
NMSI_	69	96	1	96	48	6
NMTAP	69	192	3
EXTAP	69	288	3
EXTAP	69	288	5
NMSTR	70	0	6
NMSI_	70	0	6	96	48	2
NMSTR	70	96	4
NMSI_	70	96	4	96	48	0
NMTAP	70	192	5
NMTAP	70	288	7
NMTAP	70	336	6
NMSTR	71	0	0
NMSCR	71	0	0	96	48	3
NMTAP	71	0	5
NMSTR	71	96	6
NMSI_	71	96	6	96	48	1
NMTAP	71	192	4
EXTAP	71	288	2
EXTAP	71	288	4
NMSTR	72	0	1
NMSI_	72	0	1	96	48	3
NMSTR	72	0	3
NMSI_	72	0	3	96	48	7
NMSTR	72	192	4
NMSI_	72	192	4	96	48	0
NMSTR	72	192	6
NMSI_	72	192	6	96	48	4
NMTAP	73	0	1
NMTAP	73	48	1
NMSTR	73	96	0
NMSI_	73	96	0	96	48	4
NMSTR	73	96	7
NMSI_	73	96	7	96	48	3
BRTAP	73	288	2
BRTAP	73	288	5
NMTAP	74	0	1
NMTAP	74	0	3
NMTAP	74	48	0
NMTAP	74	96	2
NMTAP	74	96	4
NMTAP	74	192	4
NMTAP	74	192	6
NMTAP	74	240	7
NMTAP	74	288	3
NMTAP	74	288	5
NMTAP	75	0	0
NMTAP	75	0	1
NMTAP	75	48	2
NMTAP	75	96	0
NMTAP	75	96	6
NMTAP	75	192	6
NMTAP	75	192	7
NMTAP	75	240	5
NMTAP	75	288	1
NMTAP	75	288	7
NMTAP	76	0	1
NMTAP	76	0	3
NMTAP	76	48	0
NMTAP	76	96	4
NMTAP	76	96	6
NMTAP	76	192	4
NMTAP	76	192	6
NMTAP	76	240	7
NMTAP	76	288	1
NMSTR	76	288	3
NMSI_	76	288	3	96	48	6
NMSTR	77	0	0
NMSI_	77	0	0	96	48	4
NMSTR	77	96	7
NMSI_	77	96	7	96	48	2
NMTAP	77	192	3
BRTAP	77	288	1
BRTAP	77	288	4
NMTAP	78	0	3
NMTAP	78	0	5
NMTAP	78	48	6
NMTAP	78	96	2
NMTAP	78	96	4
NMTAP	78	144	1
NMTAP	78	192	3
NMTAP	78	192	5
NMTAP	78	240	6
NMTAP	78	288	1
NMTAP	78	288	7
NMTAP	79	0	2
NMTAP	79	0	3
NMTAP	79	48	1
NMTAP	79	96	2
NMTAP	79	96	4
NMTAP	79	144	1
NMTAP	79	192	2
NMTAP	79	192	3
NMTAP	79	240	1
NMTAP	79	288	0
NMTAP	79	288	6
NMTAP	80	0	4
NMTAP	80	0	5
NMTAP	80	48	6
NMTAP	80	96	2
NMTAP	80	96	3
NMTAP	80	144	1
NMTAP	80	192	4
NMTAP	80	192	6
NMTAP	80	240	7
NMTAP	80	288	1
NMTAP	80	288	3
NMTAP	80	336	0
BRSTR	81	0	2
BRSCL	81	0	2	96	96	0
BRSTR	81	0	6
BRSCL	81	0	6	96	96	4
CNSV_	81	192	0	0	96	3
CNSV_	81	192	4	0	96	7
EXTAP	82	0	2
EXTAP	82	0	6
EXHLD	82	72	1	168
EXTAP	82	72	5
NMTAP	82	240	0
NMTAP	82	312	0
NMTAP	82	312	2
NMTAP	83	0	3
NMTAP	83	0	7
NMTAP	83	72	2
NMHLD	83	72	6	168
NMTAP	83	240	7
NMTAP	83	312	1
NMTAP	83	312	7
NMTAP	84	0	0
NMTAP	84	0	1
NMTAP	84	72	3
NMHLD	84	72	7	168
NMTAP	84	240	5
NMTAP	84	312	4
NMTAP	84	312	5
NMTAP	85	0	2
NMTAP	85	0	3
NMHLD	85	72	1	168
NMTAP	85	72	5
NMTAP	85	240	7
NMTAP	85	312	6
NMTAP	85	312	7
NMHLD	86	0	5	72
NMHLD	86	72	3	72
NMHLD	86	144	1	72
NMHLD	86	216	3	72
NMTAP	86	288	5
NMTAP	86	336	5
NMHLD	87	0	7	72
NMHLD	87	72	1	72
NMHLD	87	144	3	72
NMHLD	87	216	1	72
NMTAP	87	288	7
NMTAP	87	336	7
NMTAP	88	0	0
NMTAP	88	48	0
NMTAP	88	96	1
NMTAP	88	96	7
NMTAP	88	144	1
NMTAP	88	144	7
NMHLD	88	192	2	48
NMHLD	88	192	6	32
NMHLD	88	288	1	32
NMHLD	88	288	5	48
EXTAP	89	0	0
EXTAP	89	32	0
EXTAP	89	64	0
EXTAP	89	96	1
EXTAP	89	96	7
EXTAP	89	128	1
EXTAP	89	128	7
EXTAP	89	160	1
EXTAP	89	160	7
BXTAP	89	192	2
BXSTR	89	192	6
BRSI_	89	192	6	96	48	2
NMSTR	89	288	3
NMSCL	89	288	3	96	48	0
NMSCR	89	288	3	96	48	6
NMTHO	90	96	0	1416	C	0	M1
NMTTP	90	96	6	B	0	M1
NMTTP	90	96	7	B	0	M1
NMTTP	90	96	7	E	1	M1
NMTTP	91	96	0	A	0	M1
NMTTP	91	108	0	E	0	M1

T_REC_TAP	333
T_REC_BRK	15
T_REC_XTP	40
T_REC_BXX	2
T_REC_HLD	77
T_REC_XHO	6
T_REC_BHO	1
T_REC_BXH	1
T_REC_STR	37
T_REC_BST	11
T_REC_XST	3
T_REC_XBS	1
T_REC_TTP	11
T_REC_THO	3
T_REC_SLD	48
T_REC_BSL	5
T_REC_ALL	594
T_NUM_TAP	424
T_NUM_BRK	36
T_NUM_HLD	86
T_NUM_SLD	48
T_NUM_ALL	594
T_JUDGE_TAP	453
T_JUDGE_HLD	218
T_JUDGE_SLD	53
T_JUDGE_ALL	724
TTM_EACHPAIRS	168
TTM_SCR_TAP	212000
TTM_SCR_BRK	93600
TTM_SCR_HLD	86000
TTM_SCR_SLD	72000
TTM_SCR_ALL	463600
TTM_SCR_S	446200
TTM_SCR_SS	460000
TTM_RAT_ACV	10078

