VERSION	0.00.00	1.04.00
FES_MODE	0
BPM_DEF	164.000	164.000	164.000	164.000
MET_DEF	4	4
RESOLUTION	384
CLK_DEF	384
COMPATIBLE_CODE	MA2

BPM	0	0	164.000
MET	0	0	4	4

NMHLD	2	0	2	96
NMHLD	2	0	6	96
NMHLD	2	144	1	96
NMTAP	2	144	5
NMTAP	2	240	3
NMTAP	2	288	3
NMTAP	3	0	3
NMTAP	3	0	5
NMTAP	3	72	1
NMTAP	3	72	7
NMTAP	3	144	2
NMTAP	3	144	6
NMTAP	3	192	2
NMSTR	3	192	6
NMSI_	3	192	6	96	48	3
NMTAP	3	240	1
NMHLD	3	288	0	96
NMTAP	4	0	2
NMTAP	4	48	3
NMTAP	4	96	1
NMTAP	4	96	4
NMTAP	4	144	2
NMTAP	4	144	5
NMSTR	4	192	3
NMSCL	4	192	3	96	48	0
NMTAP	4	192	6
NMSTR	4	288	4
NMSCR	4	288	4	96	48	7
NMTAP	5	0	2
NMTAP	5	48	2
NMTAP	5	96	6
NMTAP	5	144	6
NMSTR	5	192	0
NMSI_	5	192	0	96	48	4
NMSTR	5	192	7
NMSI_	5	192	7	96	48	3
NMTAP	5	240	2
NMTAP	5	240	5
NMTAP	5	288	0
NMTAP	5	288	7
BRTAP	6	0	1
BRTAP	6	0	6
NMTAP	6	96	0
NMTAP	6	96	5
NMTAP	6	144	6
NMTAP	6	168	7
NMTAP	6	216	4
NMTAP	6	216	5
NMTAP	6	264	2
NMTAP	6	288	3
NMTAP	6	312	1
NMTAP	6	336	4
NMTAP	6	360	1
NMTAP	7	0	4
NMTAP	7	48	2
NMTAP	7	48	3
NMTAP	7	96	0
NMTAP	7	96	1
NMTAP	7	144	6
NMTAP	7	168	7
NMTAP	7	216	5
NMTAP	7	240	4
NMTAP	7	288	3
NMTAP	7	288	6
NMTAP	7	336	2
NMTAP	7	336	7
NMTAP	8	0	0
NMTAP	8	0	1
NMTAP	8	48	0
NMTAP	8	48	1
NMTAP	8	120	3
NMTAP	8	120	5
NMTAP	8	192	3
NMTAP	8	192	5
NMTAP	8	240	2
NMTAP	8	240	4
NMTAP	8	288	1
NMTAP	8	288	3
NMTAP	8	336	0
NMTAP	8	360	0
NMTAP	9	0	4
NMTAP	9	24	4
NMTAP	9	48	3
NMTAP	9	72	3
NMTAP	9	96	6
NMTAP	9	120	6
NMTAP	9	144	4
NMTAP	9	168	4
NMTAP	9	216	3
NMTAP	9	216	5
NMTAP	9	240	3
NMTAP	9	240	5
NMSTR	9	288	2
NMSI_	9	288	2	96	48	0
NMTAP	9	312	4
NMTAP	9	336	1
NMTAP	9	360	3
NMTAP	10	0	2
NMTAP	10	96	7
NMTAP	10	108	6
NMTAP	10	120	5
NMTAP	10	132	4
NMTAP	10	144	3
NMTAP	10	156	2
NMTAP	10	168	1
NMTAP	10	180	0
NMTAP	10	192	7
NMTAP	10	288	6
NMTAP	10	312	4
NMTAP	10	336	6
NMTAP	10	360	4
NMTAP	11	0	6
NMTAP	11	48	4
NMTAP	11	48	5
NMTAP	11	96	6
NMTAP	11	96	7
NMTAP	11	144	1
NMTAP	11	168	0
NMTAP	11	216	2
NMTAP	11	240	3
NMTAP	11	288	1
NMTAP	11	288	4
NMTAP	11	336	0
NMTAP	11	336	5
NMTAP	12	0	6
NMTAP	12	0	7
NMTAP	12	48	6
NMTAP	12	48	7
NMTAP	12	120	2
NMTAP	12	120	4
NMTAP	12	192	2
NMTAP	12	192	4
NMTAP	12	240	3
NMTAP	12	240	5
NMTAP	12	288	4
NMTAP	12	288	6
NMTAP	12	336	7
NMTAP	12	360	7
NMTAP	13	0	3
NMTAP	13	24	3
NMTAP	13	48	4
NMTAP	13	72	4
NMTAP	13	96	2
NMTAP	13	120	2
NMTAP	13	144	3
NMTAP	13	168	3
NMTAP	13	216	1
NMTAP	13	216	4
NMTAP	13	240	1
NMTAP	13	240	4
NMSTR	13	288	6
NMSI_	13	288	6	96	48	0
NMTAP	13	336	3
NMTAP	13	336	5
BRTAP	14	0	4
NMSTR	14	96	2
NMSI_	14	96	2	96	48	7
NMTAP	14	144	1
NMTAP	14	144	4
NMTAP	14	192	3
NMTAP	14	264	5
NMTAP	14	288	5
NMTAP	14	336	0
NMTAP	14	336	6
NMTAP	15	0	0
NMTAP	15	0	6
NMTAP	15	48	5
NMTAP	15	72	4
NMTAP	15	120	2
NMTAP	15	144	3
NMTAP	15	192	1
NMTAP	15	192	4
NMSTR	15	288	2
NMSI_	15	288	2	96	48	5
NMTAP	15	336	2
NMSTR	16	0	6
NMSI_	16	0	6	96	48	1
NMTAP	16	48	6
NMSTR	16	96	3
NMSI_	16	96	3	96	48	0
NMTAP	16	144	3
NMSTR	16	192	7
NMSI_	16	192	7	96	48	5
NMTAP	16	240	7
NMTAP	16	288	1
NMHLD	16	336	1	96
CNSI_	16	336	5	0	48	2
EXTAP	17	48	0
NMTAP	17	96	2
NMTAP	17	96	7
NMTAP	17	144	4
NMTAP	17	144	5
NMSTR	17	192	6
NMSCL	17	192	6	96	48	3
NMTAP	17	240	7
NMSTR	17	288	0
NMSI_	17	288	0	96	48	4
BRSTR	18	0	0
NMSI_	18	0	0	96	48	2
NMSI_	18	0	0	96	48	6
BRSTR	18	96	0
NMSI_	18	96	0	96	48	3
BRTAP	18	192	0
BRTAP	18	192	4
NMTAP	18	264	5
NMTAP	18	288	5
NMTAP	18	336	6
NMTAP	18	360	7
NMTAP	19	24	1
NMTAP	19	48	0
NMTAP	19	96	2
NMTAP	19	96	3
NMTAP	19	144	4
NMTAP	19	144	5
NMTAP	19	192	6
NMSTR	19	192	7
NMSI_	19	192	7	96	48	3
NMHLD	19	240	0	144
NMTAP	19	288	7
NMTAP	20	0	2
NMTAP	20	48	3
NMTAP	20	96	4
NMTAP	20	144	5
NMTAP	20	192	3
NMTAP	20	240	2
NMTAP	20	288	1
NMTAP	20	336	0
NMTAP	21	0	3
NMTAP	21	48	4
NMTAP	21	96	5
NMTTP	21	192	0	C	1	M1
BRSTR	21	192	2
NMSLR	21	192	2	96	96	6
NMSTR	21	288	6
NMSLL	21	288	6	96	96	2
NMTAP	22	0	7
NMTAP	22	96	0
NMTAP	22	144	1
NMTAP	22	144	7
NMTAP	22	192	2
NMTAP	22	192	6
NMSTR	22	240	3
NMSI_	22	240	3	96	48	0
NMTAP	22	240	5
NMTAP	22	288	3
NMTAP	22	288	5
NMTAP	22	336	6
CNSI_	23	0	0	0	48	4
NMTAP	23	0	6
NMSTR	23	48	7
NMSI_	23	48	7	96	48	3
NMTAP	23	96	7
NMTAP	23	144	1
NMTAP	23	192	1
CNSI_	23	192	3	0	48	6
NMTAP	23	288	0
NMTAP	23	288	4
EXTAP	23	336	7
NMTAP	23	360	6
EXTAP	24	24	3
NMTAP	24	48	2
EXTAP	24	96	0
NMTAP	24	120	1
EXTAP	24	168	4
NMTAP	24	192	5
NMSTR	24	240	6
NMSXL	24	240	6	96	144	1
NMTAP	24	240	7
NMTAP	24	288	1
NMTAP	24	288	5
NMTAP	24	336	0
NMTAP	25	0	0
NMTAP	25	96	3
NMTAP	25	144	3
BRTAP	25	192	2
BRTAP	25	192	4
NMTAP	25	288	5
NMTAP	25	336	5
NMHLD	26	0	6	48
NMHLD	26	0	7	48
NMHLD	26	72	1	48
NMHLD	26	72	3	48
NMHLD	26	144	4	48
NMHLD	26	144	6	48
NMHLD	26	216	0	48
NMHLD	26	216	1	48
NMHLD	26	288	2	48
NMHLD	26	288	4	48
NMHLD	26	360	0	48
NMHLD	26	360	6	48
NMHLD	27	48	3	48
NMHLD	27	48	5	48
NMSTR	27	120	6
NMSCL	27	120	6	96	72	2
NMTAP	27	192	0
NMHLD	27	240	0	96
NMTAP	27	336	4
NMTAP	28	0	4
NMTAP	28	48	1
NMTAP	28	96	1
NMTAP	28	144	5
NMSTR	28	192	6
NMSI_	28	192	6	96	48	4
NMTAP	28	240	7
NMTAP	28	288	0
NMHLD	28	336	1	48
NMTAP	29	0	3
NMHLD	29	48	6	48
NMSTR	29	96	4
NMSI_	29	96	4	96	48	7
NMTAP	29	144	3
NMTAP	29	192	2
NMTAP	29	288	0
NMTAP	29	288	6
NMTAP	30	0	4
NMTAP	30	48	3
NMSTR	30	96	2
NMSI_	30	96	2	96	48	5
NMTAP	30	144	1
NMTAP	30	192	0
NMTAP	30	288	2
NMTAP	30	336	1
NMTAP	31	0	0
NMTAP	31	48	7
NMSTR	31	96	6
NMSI_	31	96	6	96	48	1
NMTAP	31	144	5
NMTAP	31	192	3
NMTAP	31	240	3
NMSTR	31	288	2
NMSI_	31	288	2	96	48	7
NMTAP	31	336	2
NMTAP	32	0	4
NMTAP	32	48	5
NMSTR	32	96	6
NMSI_	32	96	6	96	48	3
NMTAP	32	144	6
NMSTR	32	192	0
NMSCR	32	192	0	96	48	3
NMTAP	32	288	4
NMTAP	32	336	5
NMHLD	33	0	6	48
NMTAP	33	48	4
NMHLD	33	96	2	48
NMTAP	33	144	4
NMTAP	33	192	3
NMTAP	33	192	5
NMTAP	33	264	5
NMTAP	33	288	4
NMTAP	33	336	4
NMSTR	34	0	7
NMSCL	34	0	7	96	144	2
NMTAP	34	96	1
NMTAP	34	144	0
NMHLD	34	192	7	96
NMTAP	34	288	3
NMTAP	34	336	3
NMSTR	35	0	0
NMSCR	35	0	0	96	144	5
NMTAP	35	96	6
NMTAP	35	144	7
NMTAP	35	192	0
NMTAP	35	240	0
BRTAP	35	288	4
NMSTR	36	0	2
NMSI_	36	0	2	96	48	6
NMSTR	36	0	3
NMSI_	36	0	3	96	48	7
NMSTR	36	192	4
NMSI_	36	192	4	96	48	0
NMSTR	36	192	5
NMSI_	36	192	5	96	48	1
NMTAP	37	0	2
NMTAP	37	0	3
NMTAP	37	48	1
NMTAP	37	48	4
NMTAP	37	96	1
NMTAP	37	96	4
NMTAP	37	192	3
NMTAP	37	192	6
NMTAP	37	240	4
NMTAP	37	240	5
BRSTR	37	288	6
NMSCL	37	288	6	96	48	3
BRSTR	37	288	7
NMSUL	37	288	7	96	48	2
NMTAP	38	0	6
NMSTR	38	0	7
NMSI_	38	0	7	96	48	1
NMSTR	38	96	7
NMSI_	38	96	7	96	48	3
NMSI_	38	96	7	96	48	5
NMTAP	38	192	7
NMTAP	38	288	2
NMSTR	38	288	6
NMSCL	38	288	6	96	48	3
NMTAP	38	336	1
NMSTR	39	0	0
NMSI_	39	0	0	96	48	4
NMTAP	39	48	1
NMSTR	39	96	5
NMSCL	39	96	5	96	48	2
NMTAP	39	144	6
NMHLD	39	192	1	96
NMTAP	39	288	7
NMTAP	39	336	7
NMTAP	40	0	0
NMTAP	40	48	0
NMTAP	40	96	1
NMTAP	40	96	3
NMTAP	40	144	2
NMTAP	40	144	4
NMTAP	40	192	3
NMTAP	40	192	5
NMSTR	40	240	4
NMSI_	40	240	4	96	48	0
NMSTR	40	240	6
NMSI_	40	240	6	96	48	3
NMTAP	40	288	7
NMSTR	41	48	1
NMSI_	41	48	1	96	48	4
NMSTR	41	48	3
NMSI_	41	48	3	96	48	7
NMTAP	41	96	0
EXTAP	41	240	6
EXTAP	41	240	7
EXSTR	41	288	6
NMSI_	41	288	6	96	48	4
EXSTR	41	288	7
NMSI_	41	288	7	96	48	3
NMTAP	42	0	6
NMSTR	42	0	7
NMSCR	42	0	7	96	48	2
NMTAP	42	96	4
NMTAP	42	96	7
NMSTR	42	192	4
NMSI_	42	192	4	96	48	0
NMSTR	42	192	5
NMSI_	42	192	5	96	48	1
NMTAP	42	240	3
NMTAP	42	240	6
NMSTR	42	288	4
NMSI_	42	288	4	96	48	2
NMSTR	42	288	5
NMSI_	42	288	5	96	48	7
NMSTR	43	96	1
NMSI_	43	96	1	96	24	6
NMSTR	43	96	7
NMSUR	43	96	7	96	48	3
NMTAP	43	144	0
CNSCL	43	216	6	0	24	4
EXTAP	43	288	2
EXTAP	43	288	5
BRTAP	44	0	1
NMTAP	44	24	3
NMTAP	44	48	0
BRTAP	44	72	6
NMSTR	44	96	4
NMSF_	44	96	4	96	48	0
NMTAP	44	120	7
BRTAP	44	144	3
EXTAP	44	288	1
EXTAP	44	288	7
EXSTR	44	336	1
NMSI_	44	336	1	96	48	6
EXTAP	44	336	7
NMTAP	45	48	1
NMSTR	45	48	4
NMSI_	45	48	4	96	48	7
NMTAP	45	144	3
NMTAP	45	144	4
NMTAP	45	240	2
NMSTR	45	288	2
NMSCL	45	288	2	96	96	6
NMSTR	46	0	6
NMSCR	46	0	6	96	96	2
NMTAP	46	96	3
NMTAP	46	144	3
NMTAP	46	192	4
NMSTR	46	288	5
NMSCR	46	288	5	96	96	1
NMTAP	46	336	5
NMSTR	47	0	1
NMSCL	47	0	1	96	96	5
NMTAP	47	96	4
NMTAP	47	144	4
NMTAP	47	192	3
NMSTR	47	288	2
NMSI_	47	288	2	96	48	5
NMTAP	47	336	2
NMSTR	48	0	6
NMSI_	48	0	6	96	48	1
NMTAP	48	48	6
NMSTR	48	96	3
NMSI_	48	96	3	96	48	0
NMTAP	48	144	3
NMSTR	48	192	7
NMSI_	48	192	7	96	48	4
NMSTR	48	240	7
NMSCR	48	240	7	96	144	5
EXTAP	48	288	0
EXTAP	48	336	7
NMTAP	49	48	0
NMSTR	49	96	0
NMSV_	49	96	0	96	48	3
NMSV_	49	96	0	96	48	5
NMSTR	49	288	2
NMSCR	49	288	2	96	48	5
NMSTR	49	288	6
NMSUL	49	288	6	96	48	1
NMTAP	49	336	1
EXTAP	50	96	0
EXTAP	50	96	7
NMSTR	50	192	1
NMSI_	50	192	1	96	48	4
NMSTR	50	240	4
NMSI_	50	240	4	96	48	0
NMTAP	50	288	6
NMSTR	50	336	7
NMSLL	50	336	7	96	48	3
NMSTR	51	48	7
NMSLR	51	48	7	96	48	3
NMTAP	51	144	7
NMTAP	51	240	5
NMTAP	51	288	5
NMTAP	51	336	3
NMSTR	52	0	1
NMSI_	52	0	1	96	48	5
NMSTR	52	48	5
NMSI_	52	48	5	96	48	1
NMTAP	52	96	6
NMTAP	52	144	7
NMSTR	52	192	7
NMSI_	52	192	7	96	48	3
NMSTR	52	240	3
NMSI_	52	240	3	96	48	7
NMTAP	52	288	2
NMHLD	52	336	1	96
EXTAP	53	48	7
EXTAP	53	96	7
NMTAP	53	144	0
NMTAP	53	192	1
NMSTR	53	240	2
NMSXR	53	240	2	96	192	4
NMTAP	53	288	3
BRTAP	53	336	4
CNSCR	54	144	4	0	144	1
CNSI_	54	288	1	0	48	3
NMSTR	54	336	7
NMSV_	54	336	7	96	48	5
NMSTR	55	48	7
NMSI_	55	48	7	96	48	3
NMSV_	55	48	7	96	48	1
NMTAP	55	240	0
NMTAP	55	240	4
NMTAP	55	336	3
NMSTR	55	336	6
NMSCL	55	336	6	96	96	2
NMTAP	56	0	3
NMHLD	56	0	6	144
NMTAP	56	240	2
NMTAP	56	240	5
NMHLD	56	336	1	192
NMSTR	56	336	4
NMSI_	56	336	4	96	48	7
NMSTR	57	144	0
BRSI_	57	144	0	96	48	4
BRTAP	57	240	2
NMSTR	57	288	2
BRSLL	57	288	2	96	96	6
NMTAP	58	0	3
NMTAP	58	96	4
NMSTR	58	144	4
BRSF_	58	144	4	96	48	0
NMTTP	58	336	3	E	1	M1
EXHLD	58	336	6	48
EXHLD	59	48	1	48
NMTTP	59	48	5	E	1	M1
NMTTP	59	144	4	E	1	M1
EXHLD	59	144	7	48
NMTAP	59	240	2
NMSTR	59	288	0
NMSI_	59	288	0	96	48	4
NMSTR	59	288	1
NMSI_	59	288	1	96	48	4
BXTAP	60	0	0
BXTAP	60	0	1
NMHLD	60	96	6	48
NMTAP	60	144	4
NMTAP	60	168	4
NMTAP	60	192	5
NMTAP	60	216	3
NMTAP	60	240	4
NMTAP	60	264	2
NMTAP	60	288	3
NMTAP	60	312	1
NMTAP	60	336	2
NMTAP	60	360	0
NMSTR	61	0	3
NMSI_	61	0	3	96	48	7
NMTAP	61	48	3
NMTAP	61	96	2
NMTAP	61	144	1
CNSI_	61	144	7	0	48	5
NMHLD	61	168	1	120
NMTAP	61	288	0
NMTAP	61	336	2
NMTAP	61	336	7
NMSTR	62	0	3
NMSCR	62	0	3	96	24	4
NMTAP	62	0	6
NMTAP	62	72	5
CNSI_	62	120	4	0	48	0
NMTAP	62	144	7
NMTAP	62	192	7
NMTAP	62	240	1
NMTAP	62	264	0
NMTAP	62	312	2
NMTAP	62	312	4
NMTAP	62	360	6
NMTAP	63	0	6
NMTAP	63	24	4
NMTAP	63	48	5
NMTAP	63	72	4
NMTAP	63	96	5
NMTAP	63	120	4
NMTAP	63	144	6
NMTAP	63	168	4
NMSTR	63	192	7
NMSXR	63	192	7	96	96	3
NMTAP	63	216	4
NMTAP	63	240	7
NMTAP	63	264	4
EXTAP	63	288	7
NMHLD	64	0	1	96
NMHLD	64	192	2	96
NMHLD	64	192	4	96
NMHLD	65	0	6	96
NMHLD	65	192	3	96
NMHLD	65	192	5	96
NMTAP	66	0	2
NMTAP	66	48	2
NMTAP	66	96	4
NMTAP	66	144	4
NMTAP	66	192	1
NMTAP	66	216	3
NMTAP	66	240	1
NMTAP	66	264	3
NMTTP	66	288	2	E	0	M1
NMTTP	66	300	3	E	0	M1
NMTTP	66	312	4	E	0	M1
NMTTP	66	324	5	E	0	M1
NMTTP	66	336	6	E	0	M1
NMTTP	66	348	7	E	0	M1
NMTTP	66	360	0	E	0	M1
NMTTP	66	372	1	E	0	M1
NMTTP	67	0	2	E	0	M1
NMTAP	67	72	7
NMTAP	67	96	0
EXTAP	67	144	2
EXTAP	67	144	5
NMSTR	67	288	6
NMSI_	67	288	6	96	48	2
NMSTR	67	288	7
NMSI_	67	288	7	96	48	3
NMTAP	68	0	6
NMTAP	68	0	7
NMSTR	68	96	1
NMSI_	68	96	1	96	48	5
NMTAP	68	192	5
NMSTR	68	240	6
NMSI_	68	240	6	96	48	0
NMSTR	68	336	2
NMSI_	68	336	2	96	48	4
NMTAP	69	48	7
CNSI_	69	96	4	0	48	1
NMSTR	69	96	7
NMSLL	69	96	7	96	96	3
NMTAP	69	192	0
NMTAP	69	288	0
NMTAP	69	336	7
NMSTR	70	0	6
NMSCR	70	0	6	96	48	1
NMSTR	70	96	3
NMSI_	70	96	3	96	48	7
NMTAP	70	192	0
NMSTR	70	240	0
NMSI_	70	240	0	96	48	4
NMSTR	70	336	2
NMSI_	70	336	2	96	48	6
NMTAP	71	48	3
CNSI_	71	96	6	0	48	1
CNSI_	71	144	1	0	48	7
NMTAP	71	144	4
NMTAP	71	240	6
NMSTR	71	288	0
NMSV_	71	288	0	96	48	2
NMSTR	71	288	7
NMSI_	71	288	7	96	48	3
NMTAP	72	0	0
NMTAP	72	0	7
NMSTR	72	96	4
NMSUR	72	96	4	96	48	0
NMSTR	72	96	5
NMSCR	72	96	5	96	48	7
NMTAP	72	192	4
NMTAP	72	192	5
NMTAP	72	288	1
NMSTR	72	336	1
NMSI_	72	336	1	96	48	4
NMSTR	73	0	4
NMSI_	73	0	4	96	48	0
NMTAP	73	48	5
NMTAP	73	96	6
NMTAP	73	144	7
NMHLD	73	192	7	96
NMSTR	73	288	0
NMSI_	73	288	0	96	48	4
NMSTR	73	336	7
NMSI_	73	336	7	96	48	5
NMSTR	74	0	0
NMSI_	74	0	0	96	48	2
NMSTR	74	48	7
NMSI_	74	48	7	96	48	3
NMSTR	74	96	0
NMSXL	74	96	0	96	144	4
NMTAP	74	144	7
NMTTP	74	192	0	A	1	M1
NMTAP	74	288	6
NMSTR	74	336	6
NMSCR	74	336	6	96	96	2
NMSTR	75	48	2
NMSCL	75	48	2	96	96	6
NMTAP	75	144	5
NMTAP	75	240	3
NMTAP	75	288	3
NMSTR	76	0	4
NMSI_	76	0	4	96	48	0
NMTAP	76	12	5
NMTAP	76	24	6
NMTAP	76	36	7
NMTAP	76	48	0
NMTAP	76	60	1
NMTAP	76	72	2
NMTAP	76	84	3
EXTAP	76	96	4
NMTAP	76	192	3
NMSTR	76	192	7
NMSCL	76	192	7	96	48	5
NMTAP	76	240	3
NMTAP	76	288	3
NMSTR	76	288	7
NMSCR	76	288	7	96	48	1
NMTAP	76	336	3
NMTAP	77	0	4
NMSTR	77	0	7
NMSI_	77	0	7	96	48	5
NMTAP	77	48	4
NMTAP	77	96	4
NMSTR	77	96	7
NMSI_	77	96	7	96	48	1
NMTAP	77	144	4
NMTAP	77	192	3
NMTAP	77	192	7
NMTAP	77	240	3
NMTAP	77	288	2
NMTAP	77	288	6
NMTAP	77	336	2
NMTAP	77	336	6
NMSTR	78	0	0
NMSCR	78	0	0	96	48	2
NMTAP	78	0	4
NMTAP	78	48	4
NMSTR	78	96	0
NMSCL	78	96	0	96	48	6
NMTAP	78	96	4
NMTAP	78	144	4
NMSTR	78	192	0
NMSI_	78	192	0	96	48	2
NMTAP	78	192	3
NMTAP	78	240	3
NMSTR	78	288	0
NMSI_	78	288	0	96	48	6
NMTAP	78	288	3
NMTAP	78	336	3
NMSTR	79	0	0
NMSCR	79	0	0	96	48	2
NMTAP	79	0	4
NMTAP	79	48	4
NMSTR	79	96	0
NMSCL	79	96	0	96	48	6
NMTAP	79	96	4
NMTAP	79	144	4
NMTAP	79	192	0
NMTAP	79	192	3
NMTAP	79	288	2
NMTAP	79	336	0
NMTAP	79	336	1
NMSTR	80	0	0
NMSCR	80	0	0	96	48	3
NMSTR	80	0	7
NMSUR	80	0	7	96	48	4
NMTAP	80	48	6
NMTAP	80	48	7
NMTAP	80	192	5
NMSTR	80	240	6
NMSXR	80	240	6	96	144	2
NMTAP	80	240	7
NMTAP	80	288	0
NMTAP	81	48	1
NMTAP	81	96	0
NMHLD	81	144	7	96
NMTAP	81	240	3
BRTAP	81	288	1
BRTAP	81	288	5
NMSTR	82	0	6
NMSI_	82	0	6	96	48	2
NMSTR	82	48	2
NMSI_	82	48	2	96	48	6
NMSTR	82	96	6
NMSCR	82	96	6	96	48	1
NMSTR	82	144	1
NMSXR	82	144	1	96	96	5
NMTAP	82	192	1
NMTAP	82	288	3
NMTAP	82	336	3
NMSTR	83	48	1
NMSI_	83	48	1	96	48	5
NMSTR	83	96	5
NMSI_	83	96	5	96	48	1
NMSTR	83	144	1
NMSCL	83	144	1	96	48	6
NMSTR	83	192	6
NMSXL	83	192	6	96	96	2
NMTAP	83	288	3
NMTAP	83	336	3
NMSTR	84	48	7
NMSI_	84	48	7	96	48	3
NMSTR	84	96	3
NMSI_	84	96	3	96	48	7
NMSTR	84	144	7
NMSI_	84	144	7	96	48	4
NMTAP	84	192	1
NMSTR	84	240	0
NMSCR	84	240	0	96	432	7
NMTAP	84	288	0
BXHLD	84	336	3	528
NMTAP	86	96	6
NMTAP	86	108	5
NMTAP	86	120	4
NMTAP	86	132	3
NMTAP	86	144	2
NMTAP	86	160	1
NMTAP	86	176	0
NMTAP	86	192	7
NMTAP	86	208	6
NMTAP	86	224	5
NMTAP	86	240	4
NMTAP	86	256	3
NMTAP	86	272	2
NMTAP	86	288	1
NMTAP	86	304	0
NMTAP	86	320	7
NMTAP	86	336	6
NMTAP	86	352	5
NMTAP	86	368	4
NMTAP	87	0	3

T_REC_TAP	473
T_REC_BRK	15
T_REC_XTP	22
T_REC_BXX	2
T_REC_HLD	40
T_REC_XHO	3
T_REC_BHO	0
T_REC_BXH	1
T_REC_STR	133
T_REC_BST	5
T_REC_XST	3
T_REC_XBS	0
T_REC_TTP	14
T_REC_THO	0
T_REC_SLD	142
T_REC_BSL	3
T_REC_ALL	856
T_NUM_TAP	645
T_NUM_BRK	26
T_NUM_HLD	43
T_NUM_SLD	142
T_NUM_ALL	856
T_JUDGE_TAP	667
T_JUDGE_HLD	80
T_JUDGE_SLD	145
T_JUDGE_ALL	892
TTM_EACHPAIRS	135
TTM_SCR_TAP	322500
TTM_SCR_BRK	67600
TTM_SCR_HLD	43000
TTM_SCR_SLD	213000
TTM_SCR_ALL	646100
TTM_SCR_S	624200
TTM_SCR_SS	643500
TTM_RAT_ACV	10040

