VERSION	0.00.00	1.04.00
FES_MODE	0
BPM_DEF	164.000	164.000	164.000	164.000
MET_DEF	4	4
RESOLUTION	384
CLK_DEF	384
COMPATIBLE_CODE	MA2

BPM	0	0	164.000
MET	0	0	4	4

EXHLD	2	0	1	96
EXHLD	2	0	3	96
NMTAP	2	144	1
NMTAP	2	144	3
NMTAP	2	240	7
EXTAP	2	288	7
EXHLD	3	0	6	72
EXHLD	3	72	5	72
EXTAP	3	144	4
NMTAP	3	240	0
EXTAP	3	288	0
NMTAP	4	0	1
NMTAP	4	96	2
NMTAP	4	96	3
NMTAP	4	192	6
NMTAP	4	288	4
NMTAP	4	288	5
NMTAP	5	0	1
NMTAP	5	0	3
NMTAP	5	96	4
NMTAP	5	96	6
EXTAP	5	192	0
EXTAP	5	240	0
EXTAP	5	288	1
EXTAP	5	288	7
BRTAP	6	0	2
BRTAP	6	0	6
NMTAP	6	96	4
NMTAP	6	96	5
NMHLD	6	192	6	96
NMTAP	6	288	7
NMHLD	7	0	1	96
NMTAP	7	96	0
NMTAP	7	192	2
NMTAP	7	192	3
NMSTR	7	288	1
NMSI_	7	288	1	96	48	5
NMTAP	7	288	4
NMTAP	8	96	6
NMTAP	8	192	4
NMTAP	8	288	3
NMTAP	8	288	5
NMHLD	9	0	1	96
NMHLD	9	96	3	96
NMHLD	9	192	4	96
NMHLD	9	288	6	96
NMSTR	10	0	0
NMSCR	10	0	0	96	96	5
EXTAP	10	192	7
NMTAP	10	288	7
NMHLD	11	0	6	96
NMTAP	11	96	7
NMTAP	11	192	4
NMTAP	11	192	5
NMTAP	11	288	3
NMSTR	11	288	6
NMSI_	11	288	6	96	48	2
NMTAP	12	96	1
NMTAP	12	192	3
NMTAP	12	288	2
NMTAP	12	288	4
NMTAP	13	0	6
NMTAP	13	0	7
NMTAP	13	96	0
NMTAP	13	96	1
NMTAP	13	192	4
NMTAP	13	192	5
NMSTR	13	288	1
BRSCR	13	288	1	96	48	4
NMSTR	13	288	3
BRSI_	13	288	3	96	48	7
NMHLD	14	192	6	96
NMTAP	14	288	4
NMHLD	15	0	2	96
NMSTR	15	96	3
NMSI_	15	96	3	96	48	5
NMTAP	15	288	2
NMTAP	16	0	6
NMTAP	16	96	4
NMTAP	16	96	5
NMTAP	16	192	3
NMTAP	16	288	2
NMTAP	16	288	4
NMHLD	17	0	1	96
NMTAP	17	96	3
NMTAP	17	192	4
NMTAP	17	240	4
EXTAP	17	288	3
NMTAP	18	0	0
NMTAP	18	0	6
NMTAP	18	96	0
NMSTR	18	96	6
NMSI_	18	96	6	96	48	3
NMSTR	18	192	0
NMSI_	18	192	0	96	48	4
NMTAP	19	0	5
NMTAP	19	96	4
NMTAP	19	96	6
NMTAP	19	192	7
NMTAP	19	240	7
NMTAP	19	288	0
NMTAP	20	0	1
NMTAP	20	0	3
NMTAP	20	96	4
NMTAP	20	96	5
NMTAP	20	192	3
NMTAP	20	192	6
NMTAP	20	288	1
NMTAP	20	288	7
NMTAP	20	336	1
NMTAP	20	336	7
EXTAP	21	48	0
EXTAP	21	96	0
EXTAP	21	144	0
EXSTR	21	192	1
BRSI_	21	192	1	96	48	4
EXSTR	21	192	7
BRSI_	21	192	7	96	48	3
EXHLD	22	0	6	96
NMTAP	22	96	4
NMTAP	22	192	5
NMTAP	22	240	5
NMTAP	22	288	4
NMTAP	23	0	3
NMTAP	23	0	6
NMTAP	23	96	7
NMTAP	23	144	7
NMSTR	23	192	0
NMSCR	23	192	0	96	48	3
EXTAP	23	192	6
NMTAP	23	288	4
NMTAP	24	0	6
NMTAP	24	48	6
NMTAP	24	96	4
NMTAP	24	144	5
NMTAP	24	192	2
NMTAP	24	240	3
NMTAP	24	288	1
NMTAP	25	0	6
NMTAP	25	48	6
NMTAP	25	96	0
NMTAP	25	144	0
EXTAP	25	192	1
NMSTR	25	192	7
NMSCL	25	192	7	96	48	4
NMTAP	25	288	3
NMSTR	26	0	1
NMSI_	26	0	1	96	48	7
NMTAP	26	96	4
NMSTR	26	192	5
NMSI_	26	192	5	96	48	3
NMTAP	26	288	0
NMTAP	27	0	1
NMTAP	27	48	1
NMTAP	27	96	3
NMTAP	27	144	2
NMSTR	27	192	4
NMSI_	27	192	4	96	48	1
NMSI_	27	192	4	96	48	7
EXTAP	28	0	0
NMTAP	28	96	0
NMTAP	28	96	7
NMTAP	28	192	2
NMTAP	28	192	3
NMTAP	28	240	2
NMTAP	28	240	3
NMTAP	28	288	1
NMTAP	28	288	4
NMTAP	29	0	0
NMTAP	29	0	7
NMTAP	29	96	4
NMTAP	29	96	5
NMTAP	29	144	4
NMTAP	29	144	5
NMTAP	29	192	3
NMSTR	29	192	6
NMSCR	29	192	6	96	48	1
EXHLD	30	0	2	672
NMTTP	30	96	4	E	0	M1
NMTTP	30	192	3	E	0	M1
NMTTP	30	288	2	E	0	M1
NMTTP	31	0	1	E	0	M1
NMTTP	31	96	0	E	0	M1
NMTTP	31	192	7	E	0	M1
NMTTP	31	288	6	E	0	M1
EXHLD	32	0	5	384
NMTTP	32	96	5	E	0	M1
NMTTP	32	192	4	E	0	M1
NMTTP	32	288	3	E	0	M1
NMTAP	33	0	2
NMTAP	33	96	1
NMTAP	33	96	6
NMSTR	33	192	0
BRSCR	33	192	0	96	48	3
NMSTR	33	192	7
BRSCL	33	192	7	96	48	4
EXHLD	34	0	1	96
EXHLD	34	0	6	96
NMHLD	34	192	2	96
NMHLD	34	192	3	96
NMTAP	35	0	4
NMTAP	35	0	5
NMTAP	35	96	6
NMTAP	35	192	0
NMTAP	35	240	0
EXTAP	35	288	1
EXTAP	35	288	7
NMHLD	36	0	2	96
NMHLD	36	0	6	96
NMSTR	36	192	5
NMSI_	36	192	5	96	48	3
NMTAP	36	288	2
EXTAP	37	48	1
EXTAP	37	48	3
EXTAP	37	96	1
EXTAP	37	96	3
EXTAP	37	192	6
EXTAP	37	192	7
EXTAP	37	240	6
EXTAP	37	240	7
NMTAP	37	288	0
NMTAP	37	288	5
BRSTR	38	0	2
NMSI_	38	0	2	96	48	7
BRTAP	38	0	4
EXTAP	38	96	6
NMTAP	38	192	5
NMTAP	38	240	5
NMTAP	38	288	4
NMTAP	39	0	0
NMSTR	39	0	1
NMSI_	39	0	1	96	48	5
NMSTR	39	96	7
BRSF_	39	96	7	96	48	3
EXTAP	39	288	0
EXTAP	39	288	6
NMSTR	40	0	1
NMSCR	40	0	1	96	48	4
NMSTR	40	0	3
NMSI_	40	0	3	96	48	7
NMTAP	40	192	0
NMTAP	40	240	0
NMTAP	40	288	2
NMSTR	40	336	2
NMSI_	40	336	2	96	48	7
NMSTR	41	48	6
NMSI_	41	48	6	96	48	3
NMTAP	41	144	1
EXTAP	41	240	0
EXTAP	41	240	1
EXTAP	41	288	2
EXTAP	41	288	7
NMSTR	42	0	4
NMSI_	42	0	4	96	48	0
NMSTR	42	0	6
NMSCL	42	0	6	96	48	3
NMTAP	42	192	7
NMTAP	42	240	7
EXTAP	42	288	0
EXTAP	42	288	6
NMTAP	43	0	1
NMTAP	43	48	2
NMTAP	43	96	3
NMTAP	43	144	4
NMSTR	43	192	5
NMSCL	43	192	5	96	48	2
NMTAP	43	288	0
EXHLD	44	0	1	72
EXTAP	44	72	0
EXTAP	44	144	2
EXTAP	44	144	6
BRTAP	44	192	2
BRTAP	44	192	6
NMTAP	44	288	3
NMTAP	44	288	5
NMTAP	44	336	3
NMTAP	44	336	5
NMTAP	45	48	6
NMTAP	45	48	7
NMTAP	45	96	6
NMTAP	45	96	7
EXTAP	45	144	0
EXTAP	45	144	5
NMTAP	45	240	4
NMTAP	45	288	3
NMTAP	45	336	2
BRSTR	46	0	0
NMSI_	46	0	0	96	48	5
BRSTR	46	0	1
NMSI_	46	0	1	96	48	4
EXTAP	46	192	3
NMTAP	46	240	3
EXTAP	46	288	2
EXTAP	46	288	4
NMTAP	47	0	6
NMTAP	47	48	6
NMTAP	47	96	7
NMTAP	47	144	5
NMTAP	47	192	0
NMTAP	47	192	4
NMSTR	47	288	1
NMSI_	47	288	1	96	48	3
NMSTR	47	288	3
NMSI_	47	288	3	96	48	7
NMSTR	48	96	4
NMSI_	48	96	4	96	48	0
NMSTR	48	96	6
NMSI_	48	96	6	96	48	4
NMTAP	48	288	1
NMSTR	48	336	1
NMSCL	48	336	1	96	48	6
NMSTR	49	48	5
NMSCL	49	48	5	96	48	2
NMTAP	49	144	0
NMTAP	49	192	0
BRTAP	49	288	2
BRTAP	49	288	6
NMSTR	50	0	1
NMSI_	50	0	1	96	48	4
NMSTR	50	0	5
NMSI_	50	0	5	96	48	0
NMTAP	50	192	2
NMTAP	50	240	2
NMTAP	50	288	6
NMHLD	50	336	6	96
NMTAP	51	48	7
NMTAP	51	96	0
NMTAP	51	96	6
NMTAP	51	144	1
NMTAP	51	144	5
EXTAP	51	240	0
EXTAP	51	240	7
EXTAP	51	288	0
EXTAP	51	288	7
NMTAP	52	0	1
NMTAP	52	48	1
NMTAP	52	96	3
NMTAP	52	144	2
NMTAP	52	192	6
NMTAP	52	240	6
NMTAP	52	288	4
NMSTR	52	336	5
NMSI_	52	336	5	96	48	0
EXSTR	53	48	1
NMSI_	53	48	1	96	48	4
EXSTR	53	144	6
NMSI_	53	144	6	96	48	2
EXSTR	53	240	0
NMSCR	53	240	0	96	336	7
NMTTP	53	336	0	E	1	M1
EXHLD	54	336	6	192
EXTAP	55	144	7
EXTAP	55	240	3
EXTAP	55	240	4
EXTAP	55	336	0
EXTAP	55	336	1
NMTAP	56	0	1
NMTAP	56	96	2
NMTAP	56	192	3
NMTAP	56	288	4
NMTAP	56	336	4
NMTAP	57	48	5
NMHLD	57	144	4	96
NMHLD	57	144	6	96
NMTAP	57	288	4
NMTAP	57	288	6
NMHLD	58	0	1	96
NMHLD	58	0	3	96
NMTAP	58	144	1
NMTAP	58	144	3
NMSTR	58	240	0
NMSXL	58	240	0	96	240	3
NMSTR	58	240	7
NMSXR	58	240	7	96	240	4
NMTAP	59	288	0
NMTAP	59	288	7
BRTAP	60	0	1
BRSTR	60	0	6
NMSI_	60	0	6	96	48	2
NMTAP	60	96	0
NMHLD	60	192	1	96
NMTAP	60	288	0
NMTAP	61	0	2
NMTAP	61	0	3
NMTAP	61	96	4
NMTAP	61	96	5
NMTAP	61	192	3
NMSTR	61	192	6
NMSCR	61	192	6	96	48	1
NMSTR	62	0	2
NMSCR	62	0	2	96	48	5
NMHLD	62	192	6	96
NMTAP	62	288	7
NMTAP	63	0	4
NMTAP	63	0	5
NMSTR	63	96	2
NMSCL	63	96	2	96	144	5
NMTAP	63	96	3
NMHLD	64	0	4	384
NMTAP	64	96	2
NMTAP	64	192	2
NMTAP	64	288	2
NMHLD	65	0	3	384
NMTAP	65	96	5
NMTAP	65	192	5
NMTAP	65	288	5
NMTAP	66	0	4
NMTAP	66	48	4
NMTAP	66	96	2
NMTAP	66	144	2
NMTAP	66	192	6
NMTAP	66	240	6
NMTAP	66	288	0
NMTAP	66	336	0
EXHLD	67	0	1	96
EXHLD	67	0	7	96
NMTTP	67	144	0	C	1	M1
NMTTP	67	144	2	B	0	M1
NMTTP	67	144	2	E	0	M1
NMTTP	67	144	6	B	0	M1
NMTTP	67	144	6	E	0	M1
EXHLD	68	0	0	96
EXHLD	68	0	7	96
NMHLD	68	192	1	96
NMHLD	68	192	3	96
NMTAP	68	336	1
NMTAP	68	336	3
NMTAP	69	48	6
NMTAP	69	48	7
NMTAP	69	96	0
NMSTR	69	96	5
NMSI_	69	96	5	96	48	2
NMTAP	69	288	1
EXHLD	70	0	0	96
EXHLD	70	0	7	96
NMHLD	70	192	4	96
NMHLD	70	192	6	96
NMTAP	70	336	4
NMTAP	70	336	6
NMTAP	71	48	0
NMTAP	71	48	1
NMTAP	71	96	0
NMTAP	71	96	1
NMTAP	71	144	2
NMTAP	71	144	7
NMTAP	71	240	0
NMTAP	71	288	0
NMTAP	71	336	7
NMSTR	72	0	1
NMSI_	72	0	1	96	48	6
NMTAP	72	192	5
NMTAP	72	240	5
NMTAP	72	288	4
NMTAP	72	288	6
NMTAP	73	0	0
NMTAP	73	48	0
NMTAP	73	96	7
NMTAP	73	144	2
NMSTR	73	192	2
NMSCR	73	192	2	96	48	5
NMTAP	73	288	7
EXHLD	74	0	6	72
EXTAP	74	72	7
EXTAP	74	144	1
EXTAP	74	144	5
BRTAP	74	192	1
BRTAP	74	192	5
NMTAP	74	288	2
NMTAP	74	288	4
NMTAP	74	336	2
NMTAP	74	336	4
NMTAP	75	48	0
NMTAP	75	48	1
NMTAP	75	96	0
NMTAP	75	96	1
EXTAP	75	144	2
EXTAP	75	144	7
NMTAP	75	240	7
NMTAP	75	288	1
NMTAP	75	336	5
EXSTR	76	0	3
BRSF_	76	0	3	96	48	7
EXTAP	76	192	1
EXTAP	76	192	5
EXTAP	76	240	1
EXTAP	76	240	5
EXTAP	76	288	1
EXTAP	76	288	5
NMTAP	77	0	2
NMTAP	77	48	2
NMTAP	77	96	3
NMTAP	77	144	1
NMTAP	77	192	0
NMTAP	77	192	4
NMSTR	77	288	6
NMSI_	77	288	6	96	48	3
NMSTR	77	288	7
NMSCL	77	288	7	96	48	4
NMSTR	78	96	0
NMSCR	78	96	0	96	48	3
NMSTR	78	96	1
NMSI_	78	96	1	96	48	4
NMTAP	78	288	6
NMSTR	78	336	6
NMSCR	78	336	6	96	48	1
NMSTR	79	48	2
NMSCR	79	48	2	96	48	5
NMTAP	79	144	7
NMTAP	79	192	7
BRTAP	79	288	1
BRTAP	79	288	5
NMSTR	80	0	2
NMSI_	80	0	2	96	48	7
NMSTR	80	0	6
NMSI_	80	0	6	96	48	3
NMTAP	80	192	5
NMTAP	80	240	5
NMTAP	80	288	1
NMHLD	80	336	1	96
NMTAP	81	48	0
NMTAP	81	96	1
NMTAP	81	96	7
BRTAP	81	144	2
BRTAP	81	144	6
EXTAP	81	240	0
EXTAP	81	240	7
EXTAP	81	288	0
EXTAP	81	288	7
NMTAP	82	0	4
NMTAP	82	48	3
NMTAP	82	96	2
NMTAP	82	144	1
NMTAP	82	192	0
NMTAP	82	240	7
NMTAP	82	288	6
BXHLD	82	336	5	96
NMTAP	83	48	4
NMTAP	83	96	3
NMTAP	83	144	2
NMTAP	83	192	1
NMTAP	83	240	0
NMTAP	83	288	7
BXHLD	83	336	6	96
NMTAP	84	48	5
NMTAP	84	96	4
NMTAP	84	144	3
NMTAP	84	192	2
NMTAP	84	240	1
NMTAP	84	288	0
BXHLD	84	336	7	816
NMSTR	86	288	1
NMSI_	86	288	1	96	48	5

T_REC_TAP	282
T_REC_BRK	14
T_REC_XTP	66
T_REC_BXX	0
T_REC_HLD	28
T_REC_XHO	18
T_REC_BHO	0
T_REC_BXH	3
T_REC_STR	52
T_REC_BST	4
T_REC_XST	6
T_REC_XBS	0
T_REC_TTP	16
T_REC_THO	0
T_REC_SLD	55
T_REC_BSL	8
T_REC_ALL	552
T_NUM_TAP	422
T_NUM_BRK	29
T_NUM_HLD	46
T_NUM_SLD	55
T_NUM_ALL	552
T_JUDGE_TAP	440
T_JUDGE_HLD	145
T_JUDGE_SLD	63
T_JUDGE_ALL	648
TTM_EACHPAIRS	125
TTM_SCR_TAP	211000
TTM_SCR_BRK	75400
TTM_SCR_HLD	46000
TTM_SCR_SLD	82500
TTM_SCR_ALL	414900
TTM_SCR_S	399650
TTM_SCR_SS	412000
TTM_RAT_ACV	10070

