VERSION	0.00.00	1.04.00
FES_MODE	0
BPM_DEF	221.000	221.000	221.000	221.000
MET_DEF	4	4
RESOLUTION	384
CLK_DEF	384
COMPATIBLE_CODE	MA2

BPM	0	0	221.000
MET	0	0	4	4

NMTAP	2	256	2
NMTAP	2	288	4
NMTAP	3	0	1
NMTAP	3	0	5
NMTAP	3	96	2
NMTAP	3	96	6
NMTAP	3	192	1
NMSTR	3	192	5
NMSXL	3	192	5	96	192	4
NMSTR	3	288	2
NMSXR	3	288	2	96	192	3
NMTAP	4	256	5
NMTAP	4	288	5
NMTAP	5	0	4
NMTAP	5	0	6
NMTAP	5	96	3
NMTAP	5	96	5
NMTAP	5	192	2
NMTAP	5	192	4
NMTAP	5	288	1
NMSTR	5	288	3
NMSSR	5	288	3	96	192	7
NMHLD	6	0	2	192
NMTAP	6	288	6
BRHLD	7	0	4	96
BRHLD	7	0	6	96
NMTAP	7	192	4
NMTAP	7	192	6
NMTAP	7	288	3
NMTAP	7	288	4
NMTAP	8	0	1
NMTAP	8	0	3
NMTAP	8	64	1
NMTAP	8	64	3
NMTAP	8	160	3
NMTAP	8	160	4
NMTAP	8	256	5
NMTAP	8	288	4
NMSTR	9	0	3
BRSXR	9	0	3	96	192	0
NMTAP	9	0	6
NMTAP	9	96	6
NMTAP	9	192	5
NMTAP	9	288	5
NMTAP	10	0	1
NMTAP	10	0	6
BRTAP	10	96	3
BRTAP	10	160	3
NMTAP	10	256	5
NMTAP	10	288	4
NMTAP	10	352	4
NMTAP	11	0	6
NMTAP	11	96	6
NMTAP	11	96	7
NMTAP	11	192	4
NMTAP	11	192	5
NMTAP	11	288	2
NMTAP	11	288	3
NMTAP	12	0	0
NMTAP	12	0	1
NMSTR	12	64	0
NMSI_	12	64	0	96	64	4
NMSTR	12	64	1
NMSI_	12	64	1	96	64	3
NMTAP	12	160	0
NMTAP	12	160	1
NMTAP	12	288	5
NMTAP	13	0	3
NMSTR	13	0	6
NMSCL	13	0	6	96	96	3
NMTAP	13	96	7
NMSTR	13	192	0
NMSUR	13	192	0	96	96	4
NMTAP	13	288	7
EXSTR	14	0	6
NMSI_	14	0	6	96	96	2
EXTAP	14	64	6
EXTAP	14	128	0
BXTAP	14	192	0
CNSI_	14	192	2	0	64	5
CNSI_	14	256	5	0	64	3
NMHLD	15	0	1	96
NMHLD	15	96	3	96
NMHLD	15	192	4	96
NMHLD	15	288	6	96
NMHLD	16	0	2	96
NMHLD	16	96	0	96
NMHLD	16	192	7	96
NMTAP	16	288	5
NMTTP	17	0	2	B	0	M1
NMTTP	17	0	3	E	0	M1
NMTAP	17	0	6
NMTAP	17	96	1
NMTTP	17	96	5	B	0	M1
NMTTP	17	96	5	E	0	M1
NMTTP	17	192	0	C	0	M1
NMTAP	17	192	7
NMTAP	17	288	1
NMTAP	17	352	1
NMTAP	18	0	7
NMTAP	18	64	7
NMTAP	18	96	0
NMTAP	18	160	0
NMTAP	18	192	6
NMTAP	18	256	6
BRSTR	18	288	3
NMSCL	18	288	3	96	576	4
BRTAP	19	0	4
NMTAP	21	0	3
NMTAP	21	0	4
NMHLD	21	96	5	96
NMHLD	21	192	6	96
NMHLD	21	288	7	96
NMHLD	22	0	6	96
NMHLD	22	96	5	96
NMHLD	22	192	6	96
NMTAP	22	288	7
NMTAP	23	0	5
NMSTR	23	0	7
NMSF_	23	0	7	96	288	3
NMTAP	24	192	1
NMTAP	24	192	5
NMHLD	24	288	4	96
NMHLD	25	0	3	96
NMHLD	25	96	2	96
NMHLD	25	192	3	96
NMHLD	25	288	4	96
NMSTR	26	0	3
NMSV_	26	0	3	96	96	5
NMSTR	26	96	5
NMSV_	26	96	5	96	96	0
NMHLD	27	0	4	576
NMSTR	27	0	7
NMSI_	27	0	7	96	48	1
NMSTR	27	192	2
NMSI_	27	192	2	96	48	7
NMSTR	28	0	6
NMSI_	28	0	6	96	48	2
NMTAP	28	192	3
NMTAP	28	288	2
NMTAP	28	288	5
NMHLD	29	0	1	96
NMHLD	29	96	2	96
NMHLD	29	192	3	96
NMHLD	29	288	2	96
NMHLD	30	0	1	96
NMHLD	30	96	2	96
NMHLD	30	192	3	96
NMHLD	30	288	4	480
NMSTR	31	0	3
NMSI_	31	0	3	96	48	6
EXSTR	31	192	5
NMSI_	31	192	5	96	48	0
EXSTR	32	0	7
NMSI_	32	0	7	96	48	3
NMTAP	32	192	1
NMTAP	32	192	5
NMTAP	32	288	3
NMTAP	32	288	4
NMTAP	33	0	1
NMTAP	33	0	3
NMTAP	33	96	3
NMTAP	33	96	4
NMTAP	33	192	4
NMTAP	33	192	6
NMTAP	33	288	3
NMTAP	33	288	4
BRTAP	34	0	2
BRTAP	34	0	6
NMTAP	35	0	3
NMHLD	35	0	4	768
NMTAP	35	192	5
NMTTP	36	0	6	A	0	M1
NMTTP	36	0	7	E	0	M1
NMTTP	36	0	7	D	0	M1
NMTAP	36	192	5
NMHLD	37	0	3	768
NMTAP	37	192	2
NMTTP	38	0	1	E	0	M1
NMTTP	38	0	1	A	0	M1
NMTTP	38	0	1	D	0	M1
NMTAP	38	192	2
NMHLD	39	0	5	768
NMTAP	39	192	4
NMTHO	40	0	0	192	C	0	M1
NMHLD	41	0	6	192
NMHLD	41	192	7	288
NMHLD	42	0	0	192
NMTAP	42	288	6
NMSTR	43	0	5
NMSI_	43	0	5	96	96	3
NMTAP	43	160	2
NMTAP	43	192	2
NMTAP	43	352	1
NMTAP	44	0	1
NMTAP	44	96	2
NMTAP	44	96	3
NMTAP	44	192	3
NMTAP	44	192	4
NMTAP	44	288	4
NMTAP	44	288	5
NMTAP	45	0	3
NMSTR	45	0	6
NMSI_	45	0	6	96	96	3
NMTAP	45	160	2
NMHLD	45	192	2	160
EXTAP	45	352	3
EXTAP	46	0	3
EXTAP	46	64	2
EXTAP	46	64	3
EXTAP	46	128	2
EXTAP	46	128	3
EXSTR	46	192	2
NMSI_	46	192	2	96	96	5
EXTAP	46	192	3
NMTAP	46	288	4
NMTAP	47	0	6
NMTAP	47	64	6
NMTAP	47	160	4
NMTAP	47	160	5
NMTAP	47	192	4
NMTAP	47	192	5
NMHLD	47	288	6	64
NMSTR	47	352	4
NMSUL	47	352	4	96	128	2
EXTAP	48	288	1
NMTAP	49	0	2
NMTAP	49	0	3
NMTAP	49	96	1
NMTAP	49	96	3
NMTAP	49	192	4
NMTAP	49	192	5
NMTAP	49	288	4
NMTAP	49	288	6
NMSTR	50	0	0
NMSCR	50	0	0	96	192	7
NMTAP	50	0	7
NMTTP	50	96	0	C	1	M1
NMTAP	51	0	0
NMTAP	51	64	0
NMTAP	51	96	7
NMTAP	51	160	7
NMTAP	51	192	0
NMTAP	51	256	0
NMTAP	51	288	1
NMTAP	51	352	1
NMTAP	52	0	2
NMTAP	52	64	2
NMTAP	52	96	3
NMTAP	52	160	3
NMTAP	52	192	4
NMTAP	52	256	4
NMTAP	52	288	5
NMTAP	52	352	5
NMTAP	53	0	6
NMTAP	53	64	6
NMTAP	53	96	7
NMTAP	53	160	7
NMTAP	53	192	0
NMTAP	53	288	0
NMTAP	53	288	1
NMSTR	53	352	2
NMSI_	53	352	2	96	64	6
NMTAP	53	352	6
BRSTR	54	96	0
NMSI_	54	96	0	96	96	3
CNSI_	54	128	6	0	64	0
NMTAP	54	288	4
NMTAP	55	0	5
NMTAP	55	64	5
NMTAP	55	96	4
NMTAP	55	160	4
NMTAP	55	192	3
NMTAP	55	256	3
NMTAP	55	288	2
NMTAP	55	352	2
NMTAP	56	0	6
NMTAP	56	64	6
NMTAP	56	96	4
NMTAP	56	160	4
NMTAP	56	192	3
NMTAP	56	288	2
NMTAP	56	288	3
NMSTR	57	0	0
NMSLL	57	0	0	96	192	4
NMTAP	57	0	1
NMTAP	57	96	1
NMTAP	57	192	0
NMTAP	57	288	0
NMTAP	58	0	6
NMSTR	58	0	7
NMSLR	58	0	7	96	192	3
NMTAP	58	96	6
NMTAP	58	192	7
NMTAP	58	288	7
NMTAP	59	0	0
NMTAP	59	0	2
NMTAP	59	96	3
NMTAP	59	96	4
NMTAP	59	192	5
NMTAP	59	192	7
NMTAP	59	288	0
NMTAP	59	288	7
NMTAP	60	0	1
NMTAP	60	0	2
NMTAP	60	96	3
NMTAP	60	96	4
NMTAP	60	192	5
NMTAP	60	192	6
NMTAP	60	288	0
NMTAP	60	288	7
NMTAP	61	0	0
NMTAP	61	32	7
NMTAP	61	64	0
NMTAP	61	96	6
NMTAP	61	128	1
NMTAP	61	160	6
NMTAP	61	192	2
NMTAP	61	224	5
NMTAP	61	256	2
NMTAP	61	288	4
NMTAP	61	320	3
NMTAP	61	352	4
NMTAP	62	0	2
NMTAP	62	0	5
NMTAP	62	192	3
NMTAP	62	192	4
NMTAP	62	288	0
NMTAP	62	288	7
EXTAP	63	0	0
EXTAP	63	16	1
EXTAP	63	32	2
EXTAP	63	48	3
EXTAP	63	64	4
EXTAP	63	80	5
EXTAP	63	96	6
EXTAP	63	112	7
EXTAP	63	128	0
EXTAP	63	144	1
EXTAP	63	160	2
EXTAP	63	176	3
EXTAP	63	192	4
EXTAP	63	192	5
EXSTR	63	256	4
NMSI_	63	256	4	96	64	0
EXTAP	63	256	5
BRTAP	63	352	4
BRTAP	63	352	7
NMTAP	64	160	1
NMTAP	64	192	3
NMTAP	64	288	6
NMSTR	64	288	7
NMSUL	64	288	7	96	64	3
NMSTR	65	0	1
NMSUR	65	0	1	96	48	5
NMTAP	65	0	7
NMTAP	65	96	1
NMTAP	65	192	7
NMTAP	65	256	0
NMSTR	65	256	6
BRSLL	65	256	6	96	96	0
BRSTR	65	352	0
BRSI_	65	352	0	96	32	6
BRTAP	65	352	6
NMTAP	66	192	4
NMTAP	66	192	5
NMSTR	66	288	6
NMSI_	66	288	6	96	48	2
NMSTR	67	0	7
NMSI_	67	0	7	96	48	3
NMSTR	67	96	0
NMSI_	67	96	0	96	48	4
NMSTR	67	192	1
NMSI_	67	192	1	96	48	5
NMSTR	67	288	2
NMSI_	67	288	2	96	48	6
NMSTR	68	0	3
NMSI_	68	0	3	96	48	7
NMSTR	68	96	4
NMSI_	68	96	4	96	48	0
NMSTR	68	192	5
NMSI_	68	192	5	96	48	1
NMSTR	68	288	6
NMSI_	68	288	6	96	48	2
NMTAP	69	0	7
NMTAP	69	96	7
NMTAP	69	192	0
NMTAP	69	192	1
NMSTR	69	256	0
NMSI_	69	256	0	96	64	5
NMSTR	69	256	1
NMSI_	69	256	1	96	64	4
BRTAP	69	352	0
BRTAP	69	352	1
NMTAP	70	192	2
NMTAP	70	192	6
NMTAP	70	288	2
NMSTR	70	288	6
NMSCL	70	288	6	96	96	3
NMSTR	71	0	3
NMSLR	71	0	3	96	96	7
NMSTR	71	96	7
NMSUL	71	96	7	96	96	2
NMTAP	71	192	1
NMSTR	71	256	1
NMSI_	71	256	1	96	64	5
NMSI_	71	256	1	96	64	7
BRTAP	71	352	1
NMTAP	72	160	6
NMTAP	72	192	0
NMSTR	72	288	1
NMSCR	72	288	1	96	64	4
NMTAP	72	288	5
NMTAP	73	0	1
NMSTR	73	0	7
NMSUL	73	0	7	96	64	3
NMSTR	73	96	0
NMSUR	73	96	0	96	64	4
NMTAP	73	96	7
NMTAP	73	192	0
NMTAP	73	192	6
NMTAP	73	288	7
NMSTR	74	0	2
NMSXR	74	0	2	96	128	3
NMSTR	74	0	6
NMSXR	74	0	6	96	128	7
BRTAP	74	288	1
BRTAP	74	288	5
NMTAP	75	96	0
NMTAP	75	96	7
NMTAP	75	192	0
NMTAP	75	192	1
NMTAP	75	256	2
NMTAP	75	256	3
NMTAP	75	320	4
NMTAP	75	320	5
NMTAP	76	0	6
NMTAP	76	0	7
NMTAP	76	64	4
NMTAP	76	64	5
NMTAP	76	128	2
NMTAP	76	128	3
NMSTR	76	192	0
NMSCL	76	192	0	96	48	5
NMSTR	76	192	1
NMSV_	76	192	1	96	48	4
NMTAP	76	288	0
NMTAP	76	288	1
NMTAP	77	0	2
NMTAP	77	64	2
NMTAP	77	64	3
NMTAP	77	160	5
NMTAP	77	192	4
NMTAP	77	288	6
NMTAP	77	288	7
NMTAP	77	352	0
NMTAP	77	352	5
NMTAP	78	64	2
NMTAP	78	64	6
NMSTR	78	96	2
NMSI_	78	96	2	96	48	7
NMSTR	78	96	6
NMSI_	78	96	6	96	48	3
BRTAP	78	192	2
BRTAP	78	192	6
NMHLD	79	0	1	96
NMSTR	79	0	4
NMSCR	79	0	4	96	672	2
NMHLD	79	192	2	96
NMHLD	80	0	3	96
NMHLD	80	192	4	96
CNSCL	81	0	2	0	576	4
NMHLD	81	0	3	96
NMHLD	81	192	2	96
NMHLD	82	0	1	96
NMTAP	82	192	1
NMTAP	82	288	2
NMTAP	82	288	4
NMSTR	83	0	3
NMSCL	83	0	3	96	672	5
NMHLD	83	0	6	96
NMHLD	83	192	5	96
NMHLD	84	0	4	96
NMHLD	84	192	3	96
NMHLD	85	0	4	96
CNSCR	85	0	5	0	576	3
NMHLD	85	192	5	96
NMHLD	86	0	6	96
EXTAP	86	192	7
EXSTR	86	288	7
NMSCR	86	288	7	96	64	2
NMHLD	87	0	3	96
EXSTR	87	0	7
NMSXR	87	0	7	96	480	2
NMHLD	87	192	3	96
NMHLD	88	0	4	96
NMHLD	88	192	4	96
NMSTR	89	0	1
NMSXR	89	0	1	96	480	6
NMHLD	89	0	4	96
NMHLD	89	192	3	96
NMHLD	90	0	3	96
NMHLD	90	192	4	96
NMSTR	91	0	4
NMSXR	91	0	4	96	480	7
NMHLD	91	0	6	96
NMHLD	91	192	6	96
NMHLD	92	0	5	96
NMHLD	92	192	5	96
NMTTP	93	0	1	E	0	M1
NMTTP	93	32	2	E	0	M1
NMTTP	93	64	3	E	0	M1
NMTTP	93	96	4	E	0	M1
NMTTP	93	192	7	E	0	M1
NMTTP	93	224	6	E	0	M1
NMTTP	93	256	5	E	0	M1
NMTTP	93	288	4	E	0	M1
NMHLD	94	0	3	96
NMHLD	94	0	4	96
NMTAP	94	192	2
NMTAP	94	192	5
NMTAP	95	0	2
NMSTR	95	0	3
NMSCR	95	0	3	96	48	5
NMTAP	95	96	1
NMTAP	95	192	2
NMSTR	95	192	3
NMSUL	95	192	3	96	48	7
NMTAP	95	288	1
NMTAP	96	0	2
NMSTR	96	0	3
NMSCR	96	0	3	96	48	6
NMTAP	96	96	1
NMTAP	96	192	2
NMSTR	96	192	3
NMSUR	96	192	3	96	48	7
NMTAP	96	288	1
NMTAP	97	0	2
NMTAP	97	0	3
NMTAP	97	96	1
NMTAP	97	192	4
NMTAP	97	192	5
NMTAP	97	288	6
BRTAP	98	0	4
BRTAP	98	0	6
BRTAP	98	96	1
BRTAP	98	96	3
BRTAP	98	192	0
BRTAP	98	192	7
NMTAP	98	288	6
NMSTR	99	0	4
NMSCL	99	0	4	96	48	2
NMTAP	99	0	5
NMTAP	99	96	6
NMSTR	99	192	4
NMSUR	99	192	4	96	48	0
NMTAP	99	192	5
NMTAP	99	288	6
NMSTR	100	0	4
NMSCL	100	0	4	96	48	1
NMTAP	100	0	5
NMTAP	100	96	6
NMSTR	100	192	4
NMSUL	100	192	4	96	48	0
NMTAP	100	192	5
NMTAP	100	288	7
NMTAP	101	0	6
NMTAP	101	0	7
NMTAP	101	96	4
NMTAP	101	96	5
NMTAP	101	192	2
NMTAP	101	192	3
NMTAP	101	288	0
NMTAP	101	288	1
BRTAP	102	0	0
BRTAP	102	0	1
BRTAP	102	96	6
BRTAP	102	96	7
BRTAP	102	192	0
BRTAP	102	192	7
NMTAP	102	288	2
NMTAP	103	0	1
NMSTR	103	0	3
NMSCR	103	0	3	96	48	6
NMTAP	103	96	0
NMTAP	103	192	1
NMSTR	103	192	3
NMSUL	103	192	3	96	48	7
NMTAP	103	288	0
NMTAP	104	0	1
NMSTR	104	0	3
NMSCR	104	0	3	96	48	6
NMTAP	104	96	0
NMTAP	104	192	1
NMSTR	104	192	3
NMSUR	104	192	3	96	48	7
NMTAP	104	288	0
NMTAP	105	0	0
NMTAP	105	0	6
NMTAP	105	96	0
NMTAP	105	96	6
NMTAP	105	192	1
NMTAP	105	192	7
NMTAP	105	288	1
NMTAP	105	288	7
BRTAP	106	0	4
BRTAP	106	0	6
BRTAP	106	96	1
BRTAP	106	96	3
BRTAP	106	192	0
BRTAP	106	192	7
NMTAP	106	288	6
NMSTR	107	0	6
NMSI_	107	0	6	96	48	4
NMTAP	107	0	7
NMTAP	107	96	0
NMTAP	107	192	0
NMSTR	107	192	1
NMSI_	107	192	1	96	48	3
NMTAP	107	288	7
NMSTR	108	0	6
NMSCL	108	0	6	96	48	3
NMTAP	108	0	7
NMTAP	108	96	0
NMTAP	108	192	0
NMSTR	108	192	1
NMSCR	108	192	1	96	48	4
NMTAP	108	288	7
BRSTR	109	0	3
NMSXR	109	0	3	96	480	0
BRSTR	109	0	5
NMSXL	109	0	5	96	480	0
BRSTR	111	0	1
NMSXL	111	0	1	96	480	4
BRSTR	111	0	7
NMSXR	111	0	7	96	480	4
NMTHO	113	0	0	384	C	1	M1
NMTTP	113	0	1	B	0	M1
NMTTP	113	0	2	E	0	M1
NMTTP	113	0	5	B	0	M1
NMTTP	113	0	6	E	0	M1
NMSTR	115	0	7
NMSCL	115	0	7	96	192	4
NMSTR	115	192	4
NMSCL	115	192	4	96	192	1
NMSTR	116	0	1
NMSCL	116	0	1	96	192	6
NMSTR	116	192	6
NMSCL	116	192	6	96	192	3
NMSTR	117	0	3
BRSLL	117	0	3	96	264	5
CNSI_	117	360	5	0	216	3
NMHLD	119	0	3	96
NMHLD	119	192	2	96
NMHLD	119	192	4	96
EXHLD	120	0	3	96
EXHLD	120	0	5	96
BRHLD	120	192	1	96
BRHLD	120	192	7	96
NMTAP	121	0	0
NMTAP	121	0	1
NMTAP	121	96	6
NMTAP	121	96	7
NMTAP	121	192	0
NMTAP	121	192	7
NMSTR	121	256	0
NMSI_	121	256	0	96	48	4
NMSTR	121	256	7
NMSI_	121	256	7	96	48	3
BRTAP	121	352	0
BRTAP	121	352	7
NMTTP	121	368	0	C	1	M1
NMTAP	122	192	0
NMTAP	122	192	7
NMSTR	122	288	1
NMSCR	122	288	1	96	48	4
NMTAP	122	288	6
NMTAP	123	0	1
NMSTR	123	0	5
NMSV_	123	0	5	96	48	0
NMSTR	123	96	2
NMSI_	123	96	2	96	48	7
NMTAP	123	96	5
NMTAP	123	192	2
NMTAP	123	192	6
NMSTR	123	256	6
NMSCL	123	256	6	96	56	3
NMSCR	123	256	6	96	56	1
BRTAP	123	352	6
NMTAP	124	160	2
NMTAP	124	192	4
NMSTR	124	288	1
NMSI_	124	288	1	96	48	7
NMSTR	124	288	5
NMSI_	124	288	5	96	48	7
NMSTR	125	0	1
NMSI_	125	0	1	96	48	3
NMSTR	125	0	5
NMSI_	125	0	5	96	48	3
NMSTR	125	96	1
NMSI_	125	96	1	96	48	5
NMSTR	125	96	5
NMSI_	125	96	5	96	48	0
NMTAP	125	192	1
NMTAP	125	192	5
EXTAP	125	288	3
EXTAP	125	288	7
NMSTR	126	0	1
NMSXL	126	0	1	96	120	0
NMSTR	126	0	5
NMSXL	126	0	5	96	120	4
BRTAP	126	288	2
BRTAP	126	288	6
NMTAP	127	96	6
NMTAP	127	96	7
NMTAP	127	192	6
NMTAP	127	192	7
NMTAP	127	256	1
NMTAP	127	256	3
NMTAP	127	320	4
NMTAP	127	320	5
NMTAP	128	0	0
NMTAP	128	0	7
NMTAP	128	64	2
NMTAP	128	64	3
NMTAP	128	128	4
NMTAP	128	128	6
NMSTR	128	192	1
NMSI_	128	192	1	96	48	6
NMSTR	128	192	5
NMSI_	128	192	5	96	48	2
BRTAP	128	288	1
BRTAP	128	288	5
NMTAP	129	96	0
NMTAP	129	96	4
NMTAP	129	192	6
NMTAP	129	192	7
NMTAP	129	256	1
NMTAP	129	256	2
NMTAP	129	320	4
NMTAP	129	320	5
NMTAP	130	0	6
NMTAP	130	0	7
NMTAP	130	64	0
NMTAP	130	64	2
NMTAP	130	128	4
NMTAP	130	128	5
NMSTR	130	192	3
NMSCL	130	192	3	96	48	0
NMSTR	130	192	6
NMSCL	130	192	6	96	48	3
BRTAP	130	288	3
BRTAP	130	288	6
NMTAP	131	96	1
NMTAP	131	96	3
NMHLD	131	192	4	32
NMHLD	131	192	5	32
NMHLD	131	256	1	32
NMHLD	131	256	7	32
NMHLD	131	320	2	32
NMHLD	131	320	3	32
NMHLD	132	0	0	32
NMHLD	132	0	6	32
NMHLD	132	64	1	32
NMHLD	132	64	3	32
NMHLD	132	128	5	32
NMHLD	132	128	6	32
NMSTR	132	192	0
NMSI_	132	192	0	96	48	4
NMSTR	132	192	1
NMSI_	132	192	1	96	48	5
BRTAP	132	288	0
BRTAP	132	288	1
NMTAP	133	0	3
NMTAP	133	0	6
NMTAP	133	64	3
NMTAP	133	64	6
NMTAP	133	160	2
NMTAP	133	160	3
NMSTR	133	192	1
NMSLR	133	192	1	96	96	7
NMTAP	133	192	4
NMTAP	133	288	5
NMTAP	133	352	5
NMTAP	134	64	0
NMTAP	134	64	6
NMSTR	134	96	0
NMSI_	134	96	0	96	64	4
NMSTR	134	96	6
NMSI_	134	96	6	96	64	2
BRTAP	134	192	0
BRTAP	134	192	6
NMTAP	135	0	1
NMTAP	135	0	5
NMTAP	135	64	1
NMTAP	135	64	5
NMTAP	135	160	6
NMTAP	135	160	7
NMSTR	135	192	0
NMSLR	135	192	0	96	96	6
NMTAP	135	192	5
NMTAP	135	288	4
NMTAP	135	352	4
NMTAP	136	64	3
NMTAP	136	64	7
NMSTR	136	96	3
BRSV_	136	96	3	96	48	5
NMSTR	136	96	7
BRSV_	136	96	7	96	48	1
BXTAP	136	192	3
BXTAP	136	192	7
NMTTP	136	208	0	C	1	M1

T_REC_TAP	386
T_REC_BRK	46
T_REC_XTP	28
T_REC_BXX	3
T_REC_HLD	79
T_REC_XHO	2
T_REC_BHO	4
T_REC_BXH	0
T_REC_STR	100
T_REC_BST	7
T_REC_XST	7
T_REC_XBS	0
T_REC_TTP	26
T_REC_THO	2
T_REC_SLD	110
T_REC_BSL	6
T_REC_ALL	806
T_NUM_TAP	547
T_NUM_BRK	66
T_NUM_HLD	83
T_NUM_SLD	110
T_NUM_ALL	806
T_JUDGE_TAP	603
T_JUDGE_HLD	242
T_JUDGE_SLD	116
T_JUDGE_ALL	961
TTM_EACHPAIRS	205
TTM_SCR_TAP	273500
TTM_SCR_BRK	171600
TTM_SCR_HLD	83000
TTM_SCR_SLD	165000
TTM_SCR_ALL	693100
TTM_SCR_S	665950
TTM_SCR_SS	686500
TTM_RAT_ACV	10096

