VERSION	0.00.00	1.04.00
FES_MODE	0
BPM_DEF	221.000	221.000	221.000	221.000
MET_DEF	4	4
RESOLUTION	384
CLK_DEF	384
COMPATIBLE_CODE	MA2

BPM	0	0	221.000
MET	0	0	4	4

NMTAP	2	256	3
NMTAP	2	288	4
NMTAP	2	352	4
NMHLD	3	0	3	192
NMHLD	3	192	5	192
NMTAP	4	0	4
NMSTR	4	64	4
NMSCL	4	64	4	96	96	2
NMHLD	5	0	4	192
NMHLD	5	192	2	192
NMTAP	6	0	3
NMSTR	6	64	3
NMSCR	6	64	3	96	96	5
NMHLD	7	0	3	192
NMHLD	7	192	6	192
NMTAP	8	0	4
NMSTR	8	64	4
NMSCL	8	64	4	96	96	2
NMTTP	9	0	2	E	0	M1
NMTTP	9	96	3	E	0	M1
NMTTP	9	192	4	E	0	M1
NMTTP	9	288	5	E	0	M1
NMTHO	10	0	0	96	C	0	M1
NMTTP	10	0	6	E	0	M1
EXTAP	10	288	1
NMTAP	11	0	0
NMTAP	11	0	1
NMTAP	11	96	0
NMTAP	11	96	7
NMTAP	11	192	6
NMTAP	11	192	7
NMTAP	11	288	5
NMTAP	11	288	6
EXTAP	12	0	4
EXTAP	12	64	4
NMHLD	12	160	3	128
NMHLD	12	160	5	96
NMTAP	13	0	3
NMTAP	13	0	4
NMTAP	13	96	3
NMTAP	13	96	4
NMTAP	13	192	4
NMTAP	13	192	5
NMTAP	13	288	5
NMTAP	13	288	6
EXTAP	14	0	7
EXTAP	14	64	7
EXTAP	14	128	7
BXTAP	14	192	0
BXTAP	14	192	6
NMHLD	15	0	1	96
NMTAP	15	96	3
NMHLD	15	192	5	96
NMTAP	15	288	4
NMHLD	16	0	2	96
NMTAP	16	96	3
NMHLD	16	192	6	96
NMTAP	16	288	4
NMTAP	17	0	2
NMTAP	17	0	3
NMTAP	17	96	2
NMTAP	17	96	3
NMTAP	17	192	0
NMTAP	17	192	1
NMTAP	17	288	6
NMTAP	17	288	7
BRTAP	18	0	1
BRTAP	18	0	5
EXTAP	18	288	3
EXTAP	18	288	4
EXSTR	19	0	3
NMSCL	19	0	3	96	96	0
EXTAP	19	0	4
NMSTR	19	192	6
NMSCL	19	192	6	96	96	3
NMHLD	20	0	0	288
EXHLD	20	160	3	128
NMTAP	21	0	1
NMTAP	21	64	1
NMTAP	21	96	3
NMTAP	21	192	2
NMTAP	21	192	4
NMTAP	21	288	1
NMTAP	21	288	3
NMTAP	22	0	2
NMTAP	22	64	2
NMTAP	22	96	3
NMTAP	22	192	2
NMTAP	22	192	4
NMTAP	22	288	1
NMTAP	22	288	5
NMTAP	23	0	2
NMSTR	23	0	4
NMSCR	23	0	4	96	96	7
NMSTR	23	192	1
NMSCR	23	192	1	96	96	4
NMHLD	24	0	7	288
EXHLD	24	160	4	128
NMTAP	25	0	6
NMTAP	25	64	6
NMTAP	25	96	4
NMTAP	25	192	3
NMTAP	25	192	5
NMTAP	25	288	4
NMTAP	25	288	6
NMHLD	26	0	3	160
NMHLD	26	0	7	160
NMSTR	27	0	7
NMSCL	27	0	7	96	96	4
NMSTR	27	192	2
NMSCL	27	192	2	96	96	7
NMHLD	28	0	5	288
EXHLD	28	160	7	128
NMTAP	29	0	0
NMTAP	29	0	4
NMTAP	29	96	1
NMTAP	29	192	3
NMTAP	29	192	7
NMTAP	29	288	6
NMTAP	30	0	4
NMTAP	30	0	5
NMTAP	30	96	1
NMTAP	30	192	2
NMTAP	30	192	3
NMTAP	30	288	6
NMSTR	31	0	3
NMSCL	31	0	3	96	96	0
NMTAP	31	0	5
NMSTR	31	192	6
NMSCL	31	192	6	96	96	3
NMHLD	32	0	0	288
EXHLD	32	160	2	128
NMTAP	33	0	1
NMTAP	33	0	3
NMTAP	33	96	4
NMTAP	33	96	5
NMTAP	33	192	2
NMTAP	33	192	4
NMSTR	33	288	4
BRSI_	33	288	4	96	48	0
NMTAP	33	288	6
NMTTP	35	0	0	E	0	M1
NMTTP	35	192	7	E	0	M1
NMTTP	36	0	0	C	0	M1
NMTTP	36	0	6	E	0	M1
NMTTP	36	192	7	E	0	M1
NMTTP	37	0	0	E	0	M1
NMTTP	37	192	1	E	0	M1
NMTTP	38	0	0	C	0	M1
NMTTP	38	0	2	E	0	M1
NMTTP	38	192	1	E	0	M1
NMTTP	39	0	0	E	0	M1
NMTTP	39	192	0	C	0	M1
NMTTP	40	0	4	E	0	M1
NMTTP	40	0	5	E	0	M1
NMTTP	40	192	0	C	0	M1
NMTTP	41	0	0	E	0	M1
NMTHO	41	192	0	160	C	0	M1
EXTAP	42	96	7
EXHLD	42	192	7	192
NMSTR	43	0	0
NMSI_	43	0	0	96	96	4
NMHLD	43	192	6	192
NMTAP	44	0	4
NMTAP	44	96	5
NMHLD	44	192	4	192
NMTAP	44	192	6
NMSTR	45	0	7
NMSI_	45	0	7	96	96	3
NMHLD	45	192	2	192
EXTAP	46	0	3
EXTAP	46	64	3
EXTAP	46	128	3
EXHLD	46	192	2	96
EXHLD	46	192	4	96
NMTAP	47	0	1
NMTAP	47	96	1
NMTAP	47	192	2
NMTAP	47	192	4
NMTAP	47	288	3
NMSTR	48	0	4
NMSV_	48	0	4	96	144	7
NMTAP	48	0	5
NMTAP	49	0	6
NMTAP	49	96	0
NMTAP	49	96	6
NMTAP	49	192	1
NMTAP	49	288	1
NMHLD	49	288	7	192
NMTTP	50	96	0	C	1	M1
NMTTP	50	96	3	B	0	M1
NMTTP	50	96	4	B	0	M1
NMTAP	51	0	0
NMTAP	51	96	0
NMTAP	51	192	1
NMTAP	51	288	1
NMTAP	52	0	2
NMTAP	52	0	3
NMTAP	52	96	4
NMTAP	52	192	2
NMTAP	52	192	3
NMTAP	52	288	1
NMTAP	53	0	3
NMTAP	53	0	4
NMTAP	53	96	5
NMTAP	53	192	4
NMTAP	53	192	6
EXTAP	53	288	7
EXHLD	53	352	7	128
NMTTP	54	96	4	B	0	M1
NMTTP	54	96	5	B	0	M1
NMTTP	54	96	5	E	0	M1
NMHLD	54	288	1	96
NMTAP	54	288	7
NMHLD	55	0	0	96
NMHLD	55	96	2	96
NMHLD	55	192	7	96
NMHLD	55	288	4	96
NMHLD	56	0	6	96
NMHLD	56	96	5	96
NMTAP	56	192	4
NMTAP	56	288	4
NMTAP	57	0	5
NMTAP	57	0	6
NMTAP	57	96	5
NMTAP	57	96	6
NMTAP	57	192	6
NMTAP	57	192	7
NMTAP	57	288	6
NMTAP	57	288	7
NMTAP	58	0	0
NMTAP	58	0	7
NMTAP	58	96	0
NMTAP	58	96	7
NMTAP	58	192	0
NMTAP	58	192	1
NMTAP	58	288	0
NMTAP	58	288	1
NMHLD	59	0	3	96
NMHLD	59	96	2	96
NMHLD	59	192	1	96
NMHLD	59	288	0	96
NMHLD	60	0	7	96
NMHLD	60	96	6	96
NMHLD	60	192	5	96
NMSTR	60	288	4
BRSCR	60	288	4	96	384	3
BRTAP	62	0	0
EXTAP	62	192	0
EXTAP	62	192	7
EXTAP	62	288	0
EXTAP	62	288	7
NMTAP	63	0	0
NMHLD	63	0	1	96
NMTAP	63	96	5
NMHLD	63	192	6	96
NMTAP	63	192	7
NMTAP	63	288	2
NMTAP	64	0	0
NMTAP	64	0	1
NMTAP	64	96	6
NMTAP	64	96	7
NMTAP	64	192	4
NMTAP	64	192	5
NMTAP	64	288	2
NMTAP	64	288	3
NMTAP	65	0	0
NMHLD	65	0	5	96
NMTAP	65	96	4
NMHLD	65	192	2	96
NMTAP	65	192	7
NMTAP	65	288	3
NMTAP	66	0	0
NMHLD	66	0	5	96
NMTAP	66	96	4
EXTAP	66	192	2
EXTAP	66	192	4
BXTAP	66	288	1
BXTAP	66	288	5
NMTAP	67	0	0
NMHLD	67	0	6	480
NMTAP	67	96	4
NMTAP	67	192	7
NMTAP	67	288	3
NMTAP	68	0	0
NMTAP	68	96	4
NMTAP	68	192	2
NMTAP	68	192	7
NMTAP	68	288	2
NMTAP	68	288	7
NMTAP	69	0	0
NMTAP	69	0	1
NMTAP	69	96	0
NMTAP	69	96	1
NMTAP	69	192	0
NMTAP	69	192	2
NMTAP	69	288	0
NMTAP	69	288	3
NMTAP	70	0	0
NMTAP	70	0	4
NMTAP	70	96	0
NMTAP	70	96	4
BRTAP	70	192	2
BRTAP	70	192	6
NMHLD	71	0	2	96
NMTAP	71	0	6
NMTAP	71	96	0
NMTAP	71	192	1
NMHLD	71	192	5	96
NMTAP	71	288	7
NMHLD	72	0	2	96
NMTAP	72	0	6
NMTAP	72	96	0
NMTAP	72	192	4
NMTAP	72	192	5
NMTAP	72	288	3
NMTAP	72	288	6
NMHLD	73	0	1	96
NMTAP	73	0	7
NMTAP	73	96	3
NMTAP	73	192	0
NMHLD	73	192	6	96
NMTAP	73	288	4
NMTAP	74	0	3
NMTAP	74	0	5
NMTTP	74	96	0	C	1	M1
NMTTP	74	96	3	B	0	M1
NMTTP	74	96	4	B	0	M1
NMTTP	74	96	5	B	0	M1
NMTTP	74	96	6	B	0	M1
NMSTR	74	288	0
NMSI_	74	288	0	96	96	4
BXTAP	75	96	7
EXTAP	75	192	6
EXTAP	75	256	6
EXTAP	75	320	6
EXTAP	76	0	0
EXTAP	76	64	0
EXTAP	76	128	0
EXTAP	76	192	1
EXTAP	76	192	7
EXTAP	76	288	3
EXTAP	76	288	5
NMTAP	77	0	2
NMTAP	77	0	6
NMHLD	77	64	2	96
NMHLD	77	64	6	128
NMTAP	77	288	1
NMTAP	77	288	5
NMHLD	77	352	1	128
NMHLD	77	352	5	96
BRTAP	78	192	3
BRTAP	78	192	7
NMSTR	79	0	2
NMSXR	79	0	2	96	288	7
NMTTP	80	0	7	E	0	M1
NMTTP	80	192	5	E	0	M1
NMTTP	80	192	6	E	0	M1
NMHLD	81	0	2	96
NMHLD	81	192	1	96
NMHLD	81	192	3	96
NMHLD	82	0	5	96
NMHLD	82	192	4	96
NMHLD	82	192	6	96
NMTAP	83	0	3
NMSTR	83	0	5
NMSXL	83	0	5	96	288	0
NMTTP	84	0	1	E	0	M1
NMTTP	84	192	2	E	0	M1
NMTTP	84	192	3	E	0	M1
NMHLD	85	0	3	96
NMHLD	85	0	5	96
NMHLD	85	192	3	96
NMHLD	85	192	5	96
EXTAP	86	0	5
EXTAP	86	96	7
EXTAP	86	192	0
EXTAP	86	192	6
EXTAP	86	288	2
NMHLD	87	0	1	96
NMHLD	87	0	3	96
NMTAP	87	192	2
NMTAP	87	192	4
NMTAP	87	288	3
NMTAP	87	288	5
NMTAP	88	0	6
NMSTR	88	64	6
NMSCR	88	64	6	96	128	2
NMTAP	89	0	3
NMTAP	89	96	2
NMTAP	89	96	4
NMTAP	89	192	3
NMTAP	89	288	1
NMTAP	89	288	4
NMTAP	90	0	5
NMTAP	90	96	4
NMTAP	90	96	6
NMTAP	90	192	5
NMTAP	90	288	3
NMTAP	90	288	7
NMHLD	91	0	4	96
NMHLD	91	0	6	96
NMTAP	91	192	3
NMTAP	91	192	5
NMTAP	91	288	2
NMTAP	91	288	4
NMTAP	92	0	1
NMSTR	92	64	1
NMSCL	92	64	1	96	128	5
NMTAP	93	0	4
NMTAP	93	96	3
NMTAP	93	96	5
NMTAP	93	192	4
NMTAP	93	288	2
NMTAP	93	288	6
NMTAP	94	0	1
NMTAP	94	0	5
NMTAP	94	96	0
NMTAP	94	96	6
BXTAP	94	192	0
BXTAP	94	192	6
NMTAP	94	288	6
NMTAP	94	352	6
NMTAP	95	0	7
NMTAP	95	96	0
NMTAP	95	96	5
NMTAP	95	192	0
NMTAP	95	192	5
NMTAP	95	288	1
NMTAP	95	352	1
NMTAP	96	0	0
NMTAP	96	96	2
NMTAP	96	96	7
NMTAP	96	192	3
NMHLD	96	192	6	576
NMTTP	97	0	0	E	0	M1
NMTTP	97	96	7	E	0	M1
NMTTP	97	192	6	E	0	M1
NMTTP	97	288	5	E	0	M1
EXTAP	98	0	3
EXTAP	98	96	3
NMTAP	98	192	2
NMTAP	98	192	3
NMTAP	98	288	1
NMTAP	98	352	1
NMTAP	99	0	0
NMTAP	99	96	2
NMTAP	99	96	7
NMTAP	99	192	2
NMTAP	99	192	7
NMTAP	99	288	6
NMTAP	99	352	6
BXTAP	100	0	7
NMTAP	100	96	0
NMTAP	100	96	5
NMTAP	100	192	1
NMHLD	100	192	4	192
NMSTR	101	0	2
NMSCL	101	0	2	96	96	7
NMSTR	101	192	6
NMSCL	101	192	6	96	96	3
BRTAP	102	0	0
BRTAP	102	96	0
BRTAP	102	192	2
BRTAP	102	192	6
NMTAP	102	288	5
NMTAP	102	352	5
NMTAP	103	0	4
NMTAP	103	96	3
NMTAP	103	96	6
NMTAP	103	192	3
NMTAP	103	192	6
NMTAP	103	288	2
NMTAP	103	352	2
BRTAP	104	0	3
NMTAP	104	96	1
NMTAP	104	96	4
NMTAP	104	192	2
NMTAP	104	192	3
NMTAP	104	288	1
NMTAP	104	288	6
EXHLD	105	0	0	192
EXTAP	105	0	7
NMTAP	105	96	1
NMHLD	105	192	7	192
NMTAP	105	288	6
NMTAP	106	0	0
NMTAP	106	96	1
NMTAP	106	96	7
NMTAP	106	192	2
NMTAP	106	192	6
NMTAP	106	288	5
NMTAP	106	352	5
NMTAP	107	0	4
NMTAP	107	96	3
NMTAP	107	96	6
NMTAP	107	192	2
NMTAP	107	192	7
NMTAP	107	288	1
NMTAP	107	352	1
BRTAP	108	0	0
NMSTR	108	96	2
NMSCL	108	96	2	96	96	7
NMSTR	108	96	7
NMSCL	108	96	7	96	96	4
EXTAP	109	0	0
EXTAP	109	0	5
NMTAP	109	192	0
NMTAP	109	192	1
NMTAP	109	288	1
NMTAP	109	288	2
NMTAP	110	0	2
NMTAP	110	0	3
NMSTR	110	96	1
NMSCR	110	96	1	96	96	4
NMSTR	110	96	4
NMSCR	110	96	4	96	96	7
EXTAP	111	0	3
EXTAP	111	0	6
NMTAP	111	192	4
NMTAP	111	192	5
NMTAP	111	288	5
NMTAP	111	288	6
NMTAP	112	0	6
NMTAP	112	0	7
NMTAP	112	96	0
NMTAP	112	96	7
NMTAP	112	192	0
NMTAP	112	192	1
NMTAP	112	288	0
NMTAP	112	288	1
BRTAP	113	0	2
BRTAP	113	0	6
NMTAP	113	96	1
NMTAP	113	96	5
EXTAP	113	192	2
EXTAP	113	224	4
EXTAP	113	256	2
EXTAP	113	288	4
EXTAP	113	320	2
EXTAP	113	352	4
EXHLD	114	0	2	384
NMSTR	115	0	3
NMSCL	115	0	3	96	672	4
NMTHO	117	0	0	768	C	0	M1
NMTAP	119	0	7
NMTAP	119	64	7
EXHLD	119	160	0	32
EXHLD	119	160	6	32
NMTAP	119	288	0
NMTAP	119	352	0
EXHLD	120	64	1	32
EXHLD	120	64	7	32
NMTAP	120	192	2
NMTAP	120	192	6
NMTAP	120	288	3
NMTAP	120	288	5
BRTAP	121	0	2
BRTAP	121	0	4
NMTAP	121	96	1
NMTAP	121	96	3
NMTAP	121	192	2
NMSTR	121	256	2
NMSCL	121	256	2	96	128	5
BXTAP	121	352	3
EXTAP	122	192	3
EXTAP	122	192	4
NMTAP	122	288	0
NMTAP	122	288	7
NMHLD	123	0	1	64
BRTAP	123	0	7
NMTAP	123	96	3
NMTAP	123	192	0
NMHLD	123	192	6	64
NMTAP	123	288	3
NMTAP	124	0	2
NMTAP	124	0	4
NMTAP	124	96	0
NMTAP	124	96	1
NMTAP	124	192	4
NMTAP	124	192	5
BRTAP	124	288	2
BRTAP	124	288	6
NMTAP	125	0	0
NMTAP	125	0	1
NMTAP	125	96	4
NMTAP	125	96	5
NMTAP	125	192	1
NMTAP	125	192	2
NMTAP	125	288	6
NMTAP	125	288	7
NMTAP	126	0	3
NMTAP	126	0	4
NMTTP	126	96	0	B	0	M1
NMTTP	126	96	0	A	0	M1
NMTTP	126	96	1	B	0	M1
NMTTP	126	96	1	E	1	M1
NMTTP	126	96	1	A	0	M1
EXTAP	126	288	7
NMTAP	127	0	6
NMTAP	127	96	3
NMHLD	127	96	5	96
EXTAP	127	192	4
EXTAP	127	256	4
EXTAP	127	320	4
NMTAP	128	0	3
NMTAP	128	0	5
NMTAP	128	64	3
NMTAP	128	64	5
NMTAP	128	128	3
NMTAP	128	128	5
NMSTR	128	192	6
NMSI_	128	192	6	96	48	2
NMSCL	128	192	6	96	48	3
NMHLD	129	96	1	96
NMTAP	129	96	7
NMTAP	129	192	0
NMTAP	129	256	0
NMTAP	129	320	0
NMTAP	130	0	1
NMTAP	130	0	7
NMTAP	130	64	1
NMTAP	130	64	7
NMTAP	130	128	1
NMTAP	130	128	7
NMSTR	130	192	2
NMSI_	130	192	2	96	48	6
NMSCL	130	192	2	96	48	7
NMHLD	131	96	0	96
NMTAP	131	96	6
NMTAP	131	192	7
NMTAP	131	256	7
NMTAP	131	320	7
NMTAP	132	0	0
NMTAP	132	0	6
NMTAP	132	64	0
NMTAP	132	64	6
NMTAP	132	128	0
NMTAP	132	128	6
BXTAP	132	192	1
BXTAP	132	192	5
EXTAP	132	288	3
EXTAP	132	288	4
NMTAP	133	0	6
NMTAP	133	0	7
NMTAP	133	64	6
NMTAP	133	64	7
NMTAP	133	160	5
NMTAP	133	192	4
NMTAP	133	288	0
NMTAP	133	288	1
NMTAP	133	352	0
NMTAP	133	352	1
NMTAP	134	64	2
NMTAP	134	96	3
BRTAP	134	192	0
BRTAP	134	192	5
NMTAP	135	0	5
NMTAP	135	0	6
NMTAP	135	64	5
NMTAP	135	64	6
NMTAP	135	160	3
NMTAP	135	192	4
NMTAP	135	288	1
NMTAP	135	288	2
NMTAP	135	352	1
NMTAP	135	352	2
NMTAP	136	64	4
NMTAP	136	96	3
NMTTP	136	192	0	B	0	M1
NMTTP	136	192	0	C	1	M1
NMTTP	136	192	0	E	0	M1
NMTTP	136	192	0	D	0	M1
NMTTP	136	192	3	B	0	M1
NMTTP	136	192	4	B	0	M1
NMTTP	136	192	4	E	0	M1
NMTTP	136	192	7	B	0	M1

T_REC_TAP	379
T_REC_BRK	22
T_REC_XTP	56
T_REC_BXX	11
T_REC_HLD	73
T_REC_XHO	14
T_REC_BHO	0
T_REC_BXH	0
T_REC_STR	30
T_REC_BST	0
T_REC_XST	1
T_REC_XBS	0
T_REC_TTP	55
T_REC_THO	3
T_REC_SLD	31
T_REC_BSL	2
T_REC_ALL	677
T_NUM_TAP	521
T_NUM_BRK	35
T_NUM_HLD	90
T_NUM_SLD	31
T_NUM_ALL	677
T_JUDGE_TAP	554
T_JUDGE_HLD	272
T_JUDGE_SLD	33
T_JUDGE_ALL	859
TTM_EACHPAIRS	189
TTM_SCR_TAP	260500
TTM_SCR_BRK	91000
TTM_SCR_HLD	90000
TTM_SCR_SLD	46500
TTM_SCR_ALL	488000
TTM_SCR_S	470000
TTM_SCR_SS	484500
TTM_RAT_ACV	10072

