VERSION	0.00.00	1.04.00
FES_MODE	0
BPM_DEF	221.000	221.000	221.000	221.000
MET_DEF	4	4
RESOLUTION	384
CLK_DEF	384
COMPATIBLE_CODE	MA2

BPM	0	0	221.000
MET	0	0	4	4

NMTAP	3	0	1
NMTAP	3	96	1
NMTAP	3	192	1
NMTAP	4	0	2
NMTAP	4	96	2
NMTAP	4	192	2
NMTAP	5	0	3
NMTAP	5	96	3
NMTAP	5	192	3
NMTAP	6	0	4
NMTAP	6	0	5
NMTAP	6	192	4
NMTAP	6	192	5
NMTAP	7	0	6
NMTAP	7	96	6
NMTAP	7	192	6
NMTAP	8	0	5
NMTAP	8	96	5
NMTAP	8	192	5
NMTAP	9	0	4
NMTAP	9	96	4
NMTAP	9	192	4
NMTAP	10	0	2
NMTAP	10	0	3
NMTAP	10	192	2
NMTAP	10	192	3
NMTAP	11	0	2
NMTAP	11	96	2
NMTAP	11	192	2
NMTAP	12	0	1
NMTAP	12	96	1
NMTAP	12	192	1
NMTAP	13	0	0
NMTAP	13	96	0
NMTAP	13	192	0
NMTAP	14	0	6
NMTAP	14	0	7
NMTAP	14	192	6
NMTAP	14	192	7
NMTAP	15	0	5
NMTAP	15	96	5
NMTAP	15	192	5
NMTAP	16	0	6
NMTAP	16	96	6
NMTAP	16	192	6
NMTAP	17	0	7
NMTAP	17	96	7
NMTAP	17	192	7
NMTAP	18	0	0
NMTAP	18	0	1
NMTAP	18	192	0
NMTAP	18	192	1
NMSTR	19	0	1
NMSI_	19	0	1	96	288	4
NMTAP	20	192	5
NMSTR	21	0	6
NMSI_	21	0	6	96	288	3
NMTAP	22	192	2
NMSTR	23	0	1
NMSI_	23	0	1	96	288	5
NMTAP	24	192	6
NMSTR	25	0	7
NMSI_	25	0	7	96	288	3
NMTAP	26	192	2
NMTAP	26	192	3
NMTAP	27	0	2
NMTAP	27	96	2
NMTAP	27	192	2
NMTAP	27	192	3
NMTAP	28	0	1
NMTAP	28	96	1
NMTAP	28	192	0
NMTAP	28	192	1
NMTAP	29	0	7
NMTAP	29	96	7
NMTAP	29	192	6
NMTAP	29	192	7
NMTAP	30	0	4
NMTAP	30	0	5
NMTAP	30	96	4
NMTAP	30	96	5
NMTAP	30	192	4
NMTAP	30	192	5
NMTAP	31	0	5
NMTAP	31	96	5
NMTAP	31	192	4
NMTAP	31	192	5
NMTAP	32	0	6
NMTAP	32	96	6
NMTAP	32	192	6
NMTAP	32	192	7
NMTAP	33	0	0
NMTAP	33	96	0
NMTAP	33	192	0
NMTAP	33	192	1
BXTAP	34	0	2
BXTAP	34	0	3
NMHLD	35	0	2	384
NMHLD	36	0	3	384
NMHLD	37	0	4	384
NMTAP	38	0	5
NMHLD	39	0	5	384
NMHLD	40	0	4	384
NMHLD	41	0	3	384
NMTAP	42	0	2
NMHLD	43	0	1	384
NMHLD	44	0	2	384
NMHLD	45	0	3	384
NMTAP	46	0	4
NMHLD	47	0	6	384
NMHLD	48	0	5	384
NMHLD	49	0	4	384
NMTAP	50	0	3
NMTAP	51	0	4
NMTAP	51	96	4
NMTAP	51	192	5
NMTAP	52	0	6
NMTAP	52	96	6
NMTAP	52	192	7
NMTAP	53	0	0
NMTAP	53	96	0
NMTAP	53	192	1
NMTAP	54	0	2
NMTAP	54	96	2
NMTAP	54	192	2
NMTAP	54	192	3
NMTAP	55	0	3
NMTAP	55	96	3
NMTAP	55	192	2
NMTAP	56	0	1
NMTAP	56	96	1
NMTAP	56	192	0
NMTAP	57	0	7
NMTAP	57	96	7
NMTAP	57	192	6
NMTAP	58	0	5
NMTAP	58	96	5
NMTAP	58	192	4
NMTAP	58	192	5
NMTAP	59	0	2
NMTAP	59	96	2
NMTAP	59	192	2
NMTAP	59	192	3
NMTAP	60	0	4
NMTAP	60	96	4
NMTAP	60	192	3
NMTAP	60	192	4
NMHLD	61	0	3	384
NMHLD	61	0	4	384
NMTAP	63	0	5
NMTAP	63	96	5
NMTAP	63	192	6
NMTAP	63	288	6
NMTAP	64	0	7
NMTAP	64	96	7
NMTAP	64	192	0
NMTAP	64	192	1
NMTAP	65	0	2
NMTAP	65	96	2
NMTAP	65	192	1
NMTAP	65	288	1
NMTAP	66	0	0
NMTAP	66	96	0
NMTAP	66	192	6
NMTAP	66	192	7
NMTAP	67	0	6
NMTAP	67	96	6
NMTAP	67	192	5
NMTAP	67	288	5
NMTAP	68	0	4
NMTAP	68	96	4
NMTAP	68	192	2
NMTAP	68	192	3
NMTAP	69	0	1
NMTAP	69	96	1
NMTAP	69	192	2
NMTAP	69	288	2
NMTAP	70	0	3
NMTAP	70	96	3
NMTAP	70	192	4
NMTAP	70	192	5
NMTAP	71	0	5
NMTAP	71	96	5
NMTAP	71	192	6
NMTAP	71	192	7
NMTAP	71	288	6
NMTAP	71	288	7
NMTAP	72	0	0
NMTAP	72	96	0
NMTAP	72	192	0
NMTAP	72	192	1
NMTAP	73	0	2
NMTAP	73	96	2
NMTAP	73	192	0
NMTAP	73	192	1
NMTAP	73	288	0
NMTAP	73	288	1
NMTAP	74	0	7
NMTAP	74	96	7
NMTAP	74	192	6
NMTAP	74	192	7
NMTAP	75	0	6
NMTAP	75	96	6
NMTAP	75	192	4
NMTAP	75	192	5
NMTAP	75	288	4
NMTAP	75	288	5
NMTAP	76	0	3
NMTAP	76	96	3
NMTAP	76	192	2
NMTAP	76	192	3
NMTAP	77	0	1
NMTAP	77	96	1
NMTAP	77	192	2
NMTAP	77	192	3
NMTAP	77	288	2
NMTAP	77	288	3
NMTAP	78	0	4
NMTAP	78	96	4
BRTAP	78	192	4
BRTAP	78	192	5
NMHLD	79	0	6	192
NMTAP	79	192	7
NMTAP	80	0	6
NMTAP	80	0	7
NMTAP	80	192	6
NMTAP	80	192	7
NMHLD	81	0	5	192
NMTAP	81	192	4
NMTAP	82	0	4
NMTAP	82	0	5
NMTAP	82	192	4
NMTAP	82	192	5
NMHLD	83	0	2	192
NMTAP	83	192	3
NMTAP	84	0	2
NMTAP	84	0	3
NMTAP	84	192	2
NMTAP	84	192	3
NMHLD	85	0	1	192
NMTAP	85	192	0
NMTAP	86	0	0
NMTAP	86	0	1
NMTAP	86	192	0
NMTAP	86	192	1
NMTTP	87	0	1	B	0	L1
NMTTP	87	96	2	B	0	L1
NMTTP	87	192	3	B	0	L1
NMTTP	88	0	6	B	0	L1
NMTTP	88	96	5	B	0	L1
NMTTP	88	192	4	B	0	L1
NMTTP	89	0	2	B	0	L1
NMTTP	89	0	3	B	0	L1
NMTTP	89	192	0	B	0	L1
NMTTP	89	192	1	B	0	L1
NMTTP	90	0	6	B	0	L1
NMTTP	90	0	7	B	0	L1
NMTTP	90	192	4	B	0	L1
NMTTP	90	192	5	B	0	L1
NMTTP	91	0	3	E	0	L1
NMTTP	91	96	2	B	0	L1
NMTTP	91	192	1	B	0	L1
NMTTP	92	0	5	E	0	L1
NMTTP	92	96	5	B	0	L1
NMTTP	92	192	6	B	0	L1
NMTTP	93	0	0	B	0	L1
NMTTP	93	0	1	E	0	L1
NMTTP	93	192	2	B	0	L1
NMTTP	93	192	3	E	0	L1
NMTTP	94	0	4	B	0	L1
NMTTP	94	0	5	E	0	L1
NMTTP	94	192	6	B	0	L1
NMTTP	94	192	7	E	0	L1
NMTAP	95	0	0
NMTAP	95	96	0
NMTAP	95	192	1
NMTAP	96	0	2
NMTAP	96	96	2
NMTAP	96	192	3
NMTAP	97	0	4
NMTAP	97	96	4
NMTAP	97	192	5
NMTAP	98	0	6
NMTAP	98	96	6
NMTAP	98	192	6
NMTAP	98	192	7
NMTAP	99	0	7
NMTAP	99	96	7
NMTAP	99	192	6
NMTAP	100	0	5
NMTAP	100	96	5
NMTAP	100	192	4
NMTAP	101	0	3
NMTAP	101	96	3
NMTAP	101	192	2
NMTAP	102	0	1
NMTAP	102	96	1
NMTAP	102	192	0
NMTAP	102	192	1
NMTAP	103	0	1
NMTAP	103	96	1
NMTAP	103	192	0
NMTAP	103	192	1
NMTAP	104	0	2
NMTAP	104	96	2
NMTAP	104	192	2
NMTAP	104	192	3
NMTAP	105	0	4
NMTAP	105	96	4
NMTAP	105	192	4
NMTAP	105	192	5
NMTAP	106	0	6
NMTAP	106	0	7
NMTAP	106	96	6
NMTAP	106	96	7
NMTAP	106	192	6
NMTAP	106	192	7
NMTAP	107	0	0
NMTAP	107	96	0
NMTAP	107	192	0
NMTAP	108	0	7
NMTAP	108	96	7
NMTAP	108	192	7
NMSTR	109	0	6
NMSI_	109	0	6	96	480	3
NMSTR	109	0	7
NMSI_	109	0	7	96	480	2
NMSTR	111	0	0
NMSI_	111	0	0	96	480	5
NMSTR	111	0	1
NMSI_	111	0	1	96	480	4
NMHLD	113	0	4	384
NMHLD	113	0	5	384
NMHLD	115	0	6	384
NMHLD	116	0	5	384
NMHLD	117	0	4	384
NMTAP	118	0	3
NMHLD	119	0	1	384
NMHLD	120	0	2	384
NMHLD	121	0	3	384
NMTAP	122	0	4
BXTAP	123	0	2
NMTAP	123	96	2
NMTAP	123	192	0
NMTAP	123	192	1
NMTAP	123	288	0
NMTAP	123	288	1
NMTAP	124	0	7
NMTAP	124	96	7
NMTAP	124	192	6
NMTAP	124	192	7
NMTAP	124	288	6
NMTAP	124	288	7
NMTAP	125	0	5
NMTAP	125	96	5
NMTAP	125	192	6
NMTAP	125	192	7
NMTAP	125	288	6
NMTAP	125	288	7
NMTAP	126	0	0
NMTAP	126	96	0
NMTAP	126	192	0
NMTAP	126	192	1
NMTAP	127	0	2
NMTAP	127	0	3
NMTAP	127	96	2
NMTAP	127	96	3
NMTAP	127	192	1
NMTAP	127	192	4
NMTAP	128	0	0
NMTAP	128	0	1
NMTAP	128	96	0
NMTAP	128	96	1
NMTAP	128	192	2
NMTAP	128	192	7
NMTAP	129	0	6
NMTAP	129	0	7
NMTAP	129	96	6
NMTAP	129	96	7
NMTAP	129	192	0
NMTAP	129	192	5
NMTAP	130	0	4
NMTAP	130	0	5
NMTAP	130	96	4
NMTAP	130	96	5
NMTAP	130	192	3
NMTAP	130	192	6
NMTAP	131	0	4
NMTAP	131	0	6
NMTAP	131	96	4
NMTAP	131	96	6
NMTAP	131	192	4
NMTAP	131	192	6
NMTAP	132	0	1
NMTAP	132	0	3
NMTAP	132	96	1
NMTAP	132	96	3
NMTAP	132	192	1
NMTAP	132	192	3
NMTAP	133	0	2
NMTAP	133	0	3
NMTAP	133	96	2
NMTAP	133	96	3
NMTAP	133	192	1
NMTAP	133	192	4
NMTAP	133	288	1
NMTAP	133	288	4
NMTAP	134	0	0
NMTAP	134	0	5
NMTAP	134	96	0
NMTAP	134	96	5
EXTAP	134	192	6
EXTAP	134	192	7
NMTAP	135	0	4
NMTAP	135	0	5
NMTAP	135	96	4
NMTAP	135	96	5
NMTAP	135	192	3
NMTAP	135	192	6
NMTAP	135	288	3
NMTAP	135	288	6
NMTAP	136	0	2
NMTAP	136	0	7
NMTAP	136	96	2
NMTAP	136	96	7
BRTAP	136	192	0
BRTAP	136	192	1

T_REC_TAP	348
T_REC_BRK	4
T_REC_XTP	2
T_REC_BXX	3
T_REC_HLD	26
T_REC_XHO	0
T_REC_BHO	0
T_REC_BXH	0
T_REC_STR	8
T_REC_BST	0
T_REC_XST	0
T_REC_XBS	0
T_REC_TTP	28
T_REC_THO	0
T_REC_SLD	8
T_REC_BSL	0
T_REC_ALL	427
T_NUM_TAP	386
T_NUM_BRK	7
T_NUM_HLD	26
T_NUM_SLD	8
T_NUM_ALL	427
T_JUDGE_TAP	393
T_JUDGE_HLD	192
T_JUDGE_SLD	8
T_JUDGE_ALL	593
TTM_EACHPAIRS	98
TTM_SCR_TAP	193000
TTM_SCR_BRK	18200
TTM_SCR_HLD	26000
TTM_SCR_SLD	12000
TTM_SCR_ALL	249200
TTM_SCR_S	241050
TTM_SCR_SS	248500
TTM_RAT_ACV	10028

