VERSION	0.00.00	1.04.00
FES_MODE	0
BPM_DEF	150.000	150.000	150.000	150.000
MET_DEF	4	4
RESOLUTION	384
CLK_DEF	384
COMPATIBLE_CODE	MA2

BPM	0	0	150.000
MET	0	0	4	4

BXTAP	2	0	0
BXTAP	2	0	5
NMTAP	2	96	6
NMTAP	2	120	7
NMTAP	2	144	6
NMTAP	2	168	7
NMSTR	2	192	6
NMSXR	2	192	6	96	72	4
NMSTR	2	264	4
NMSCR	2	264	4	96	120	1
NMTAP	2	336	0
NMTAP	3	48	3
NMTAP	3	96	3
NMTAP	3	144	3
NMTAP	3	192	1
NMTAP	3	192	3
NMTAP	3	240	3
NMTAP	3	288	0
NMTAP	3	288	3
NMTAP	3	336	3
NMTAP	4	0	2
NMTAP	4	0	7
NMTAP	4	96	1
NMTAP	4	120	0
NMTAP	4	144	1
NMTAP	4	168	0
NMSTR	4	192	1
NMSXL	4	192	1	96	72	3
NMSTR	4	264	3
NMSCL	4	264	3	96	72	7
NMTAP	4	336	7
NMHLD	5	48	5	72
NMHLD	5	120	4	72
NMSTR	5	192	3
NMSI_	5	192	3	96	48	0
NMSI_	5	192	3	96	48	1
NMTAP	5	288	3
BXTAP	6	0	2
BXTAP	6	0	7
NMTAP	6	96	1
NMTAP	6	120	0
NMTAP	6	144	1
NMTAP	6	168	0
NMSTR	6	192	1
NMSXL	6	192	1	96	72	3
NMSTR	6	264	3
NMSCL	6	264	3	96	120	6
NMTAP	6	336	7
NMTAP	7	48	4
NMTAP	7	96	4
NMTAP	7	144	4
NMTAP	7	192	4
NMTAP	7	192	6
NMTAP	7	240	4
NMTAP	7	288	4
NMTAP	7	288	7
NMTAP	7	336	4
NMTAP	8	0	0
NMTAP	8	0	5
NMTAP	8	96	6
NMTAP	8	120	7
NMTAP	8	144	6
NMTAP	8	168	7
NMSTR	8	192	6
NMSXR	8	192	6	96	72	4
NMSTR	8	264	4
NMSCR	8	264	4	96	72	0
NMTAP	8	336	0
NMHLD	9	48	2	72
NMHLD	9	120	3	72
NMSTR	9	192	4
NMSI_	9	192	4	96	48	2
NMTAP	9	288	4
NMTAP	9	288	6
NMHLD	10	0	5	96
NMTAP	10	96	4
NMTAP	10	144	3
NMHLD	10	192	2	96
NMTAP	10	288	3
NMTAP	10	336	4
NMHLD	11	0	5	96
NMTAP	11	96	4
NMTAP	11	144	3
NMTAP	11	192	2
NMTAP	11	288	3
NMTAP	11	288	4
NMHLD	12	0	2	96
NMTAP	12	96	3
NMTAP	12	144	4
NMTAP	12	192	5
NMSTR	12	288	2
NMSV_	12	288	2	96	96	1
NMSTR	12	288	6
NMSV_	12	288	6	96	96	5
NMTAP	13	192	3
NMTAP	13	192	4
NMTAP	13	288	3
NMTAP	13	336	2
NMHLD	14	0	1	72
NMHLD	14	72	3	72
NMSTR	14	144	4
NMSCL	14	144	4	96	48	2
NMTAP	14	240	5
NMTAP	14	288	5
NMHLD	15	0	6	72
NMHLD	15	72	4	72
NMSTR	15	144	3
NMSCR	15	144	3	96	48	5
NMTAP	15	240	2
NMTAP	15	288	2
NMHLD	15	336	3	96
NMHLD	15	336	7	96
NMTAP	16	96	4
NMTAP	16	96	6
NMTAP	16	144	3
NMHLD	16	192	2	72
NMHLD	16	264	1	72
NMSTR	16	336	0
NMSXL	16	336	0	96	144	3
NMTAP	17	48	7
NMTAP	17	96	6
NMTAP	17	144	5
NMTAP	17	192	4
NMTAP	17	288	1
NMTAP	17	288	6
NMTAP	18	0	0
NMTAP	18	0	5
NMTAP	18	48	1
NMTAP	18	96	2
NMTAP	18	96	3
NMTAP	18	144	4
NMTAP	18	192	4
NMTAP	18	192	5
NMTAP	18	240	6
NMTAP	18	288	4
NMTAP	18	288	5
NMTAP	18	336	3
NMTAP	19	0	2
NMTAP	19	0	3
NMTAP	19	48	1
NMTAP	19	96	0
NMTAP	19	96	4
NMTAP	19	144	7
NMTAP	19	192	5
NMTAP	19	192	6
NMTAP	19	240	7
NMTAP	19	288	0
NMTAP	19	288	4
NMTAP	19	336	1
NMTAP	20	0	2
NMTAP	20	0	3
NMTAP	20	48	4
NMTAP	20	96	4
NMTAP	20	96	5
NMTAP	20	144	3
NMTAP	20	192	2
NMTAP	20	192	3
NMTAP	20	240	1
NMTAP	20	288	2
NMTAP	20	288	3
NMTAP	20	336	4
NMTAP	21	0	4
NMTAP	21	0	5
NMTAP	21	48	6
NMSTR	21	96	7
NMSI_	21	96	7	96	48	2
NMSI_	21	96	7	96	48	5
NMTAP	21	192	7
NMTAP	21	288	4
NMTAP	21	336	3
NMHLD	22	0	2	72
NMTAP	22	72	1
NMTAP	22	144	0
NMSTR	22	144	3
NMSCL	22	144	3	96	48	0
NMTAP	22	240	7
NMTAP	22	288	7
NMTAP	22	336	6
NMHLD	23	0	5	72
NMTAP	23	72	4
NMTAP	23	144	3
NMSTR	23	144	6
NMSCL	23	144	6	96	48	3
NMTAP	23	240	2
NMTAP	23	288	1
NMHLD	23	336	0	96
NMHLD	23	336	2	96
NMTAP	24	96	1
NMTAP	24	144	2
NMHLD	24	192	3	72
NMHLD	24	264	5	72
NMSTR	24	336	7
NMSXR	24	336	7	96	144	4
NMTAP	25	48	0
NMTAP	25	96	1
NMTAP	25	144	2
NMTAP	25	192	3
EXTAP	25	288	1
EXTAP	25	288	6
NMTAP	26	0	0
NMTTP	26	0	7	E	0	M1
NMTAP	26	96	0
NMTTP	26	96	6	E	0	M1
NMTAP	26	192	0
NMTTP	26	192	5	E	0	M1
NMTAP	26	288	0
NMTTP	26	288	4	E	0	M1
NMTAP	27	0	0
NMTAP	27	0	2
NMSTR	27	96	0
NMSI_	27	96	0	96	48	3
NMTAP	27	96	1
EXTAP	27	192	0
EXSTR	27	192	7
NMSI_	27	192	7	96	48	4
EXTAP	27	288	0
EXTAP	27	288	7
NMTTP	28	0	1	E	0	M1
NMTAP	28	0	7
NMTTP	28	96	2	E	0	M1
NMTAP	28	96	7
NMTTP	28	192	3	E	0	M1
NMTAP	28	192	7
NMTTP	28	288	4	E	0	M1
NMTAP	28	288	7
NMTAP	29	0	5
NMTAP	29	0	7
NMSTR	29	96	6
NMSUL	29	96	6	96	96	2
NMSTR	29	96	7
NMSUL	29	96	7	96	96	2
EXTAP	29	192	6
EXTAP	29	192	7
NMTAP	30	0	0
NMTAP	30	0	1
NMTAP	30	48	1
NMTAP	30	96	1
NMTTP	30	96	5	B	0	M1
NMTAP	30	144	1
NMTAP	30	192	0
NMTAP	30	192	2
NMTAP	30	240	2
NMTAP	30	288	2
NMTTP	30	288	4	B	0	M1
NMTAP	30	336	2
NMTAP	31	0	6
NMTAP	31	0	7
NMTAP	31	48	6
NMTTP	31	96	2	B	0	M1
NMTAP	31	96	6
NMTAP	31	144	6
NMTAP	31	192	5
NMTAP	31	192	7
NMTAP	31	240	5
NMTTP	31	288	3	B	0	M1
NMTAP	31	288	5
NMTAP	31	336	5
NMTAP	32	0	2
NMTAP	32	24	6
NMTAP	32	48	2
NMTAP	32	72	6
NMTAP	32	96	1
NMTAP	32	120	5
NMTAP	32	144	1
NMTAP	32	168	5
NMTAP	32	192	0
NMTAP	32	216	4
NMTAP	32	240	0
NMTAP	32	264	4
NMSTR	32	288	7
BRSCR	32	288	7	96	96	6
NMTAP	32	312	3
NMTAP	32	336	7
NMTAP	32	360	3
CNSI_	33	96	6	0	24	0
CNSI_	33	120	0	0	72	2
NMTTP	33	192	0	C	1	M1
BRTAP	34	0	0
BRTAP	34	0	6
NMTAP	34	48	1
NMTAP	34	72	3
NMTAP	34	120	6
NMTAP	34	144	4
NMTAP	34	192	1
NMTAP	34	240	0
NMSTR	34	240	2
NMSCR	34	240	2	96	48	4
NMTAP	34	288	1
NMTAP	34	336	2
NMTAP	34	336	7
NMTAP	35	0	6
NMTAP	35	48	6
NMTAP	35	72	5
NMTAP	35	120	5
NMSTR	35	144	7
NMSCL	35	144	7	96	96	3
NMTAP	35	192	0
NMTAP	35	240	0
NMTAP	35	288	1
NMTAP	35	336	2
NMTAP	36	0	1
NMTAP	36	0	7
NMTAP	36	48	6
NMTAP	36	72	4
NMTAP	36	120	1
NMTAP	36	144	3
NMTAP	36	192	6
NMSTR	36	240	5
NMSCL	36	240	5	96	48	3
NMTAP	36	240	7
NMTAP	36	288	6
NMTAP	36	336	0
NMTAP	36	336	5
NMTAP	37	0	1
NMTAP	37	48	1
NMTAP	37	72	3
NMTAP	37	120	3
NMSTR	37	144	2
BRSCL	37	144	2	96	96	4
BXHLD	37	192	7	192
NMHLD	38	0	1	96
NMSTR	38	96	2
NMSI_	38	96	2	96	48	7
NMTAP	38	144	4
NMHLD	38	192	6	96
NMTAP	38	288	5
NMTAP	38	336	3
NMHLD	39	0	1	72
NMHLD	39	72	7	72
NMTAP	39	144	5
NMSTR	39	192	4
NMSI_	39	192	4	96	48	2
NMSTR	39	192	6
NMSI_	39	192	6	96	48	2
NMTAP	39	288	4
NMTAP	39	288	6
NMHLD	40	0	1	96
NMSTR	40	96	2
BRSCR	40	96	2	96	144	1
NMTAP	40	144	3
BXHLD	40	192	4	192
EXHLD	41	0	2	192
NMTAP	41	96	1
NMTAP	41	144	0
NMSTR	41	192	7
NMSI_	41	192	7	96	48	3
NMSI_	41	192	7	96	48	4
BRTAP	41	288	7
NMTAP	42	0	1
NMTAP	42	0	7
NMTAP	42	48	6
NMTAP	42	72	4
NMTAP	42	120	1
NMTAP	42	144	3
NMTAP	42	192	6
NMSTR	42	240	5
NMSCL	42	240	5	96	48	3
NMTAP	42	240	7
NMTAP	42	288	6
NMTAP	42	336	0
NMTAP	42	336	5
NMTAP	43	0	1
NMTAP	43	48	1
NMTAP	43	72	2
NMTAP	43	120	2
NMSTR	43	144	0
NMSCR	43	144	0	96	96	4
NMTAP	43	192	7
NMTAP	43	240	7
NMTAP	43	288	6
NMTAP	43	336	5
NMTAP	44	0	6
NMTAP	44	0	7
NMTAP	44	48	0
NMTAP	44	72	5
NMTAP	44	120	5
NMTAP	44	144	3
NMTAP	44	192	1
NMTAP	44	192	4
NMTAP	44	240	2
NMTAP	44	240	7
NMSTR	44	288	0
NMSCL	44	288	0	96	96	3
NMTAP	44	288	5
NMHLD	44	336	2	144
NMTAP	44	336	7
NMTAP	45	144	2
NMTAP	45	144	4
NMTAP	45	192	2
NMTAP	45	192	4
NMTAP	45	240	3
NMTAP	45	240	5
NMTAP	45	288	4
NMTAP	45	288	6
NMTAP	45	336	5
NMTAP	45	336	7
NMSTR	46	0	0
NMSCL	46	0	0	96	96	3
NMTAP	46	0	6
NMTAP	46	72	2
NMTAP	46	96	2
NMTAP	46	144	1
NMSTR	46	192	7
NMSCR	46	192	7	96	96	4
NMTAP	46	264	5
NMTAP	46	288	5
NMTAP	46	336	6
NMHLD	47	0	0	48
NMHLD	47	48	4	48
NMHLD	47	96	6	48
NMSTR	47	144	2
NMSI_	47	144	2	96	48	6
NMSTR	47	240	2
NMSCR	47	240	2	96	144	1
BRTAP	47	336	2
NMTAP	48	96	3
NMTAP	48	144	3
NMTAP	48	192	4
NMTAP	48	240	4
NMTAP	48	288	2
NMTAP	48	288	5
NMTAP	48	336	2
NMTAP	48	360	3
NMTAP	49	0	1
NMTAP	49	48	5
NMTAP	49	72	4
NMTAP	49	96	6
NMTAP	49	144	2
NMTAP	49	168	3
NMSTR	49	192	0
NMSF_	49	192	0	96	48	4
BRTAP	49	288	0
NMHLD	51	0	5	768
NMTTP	51	192	6	B	0	M1
NMTTP	51	192	7	E	0	M1
NMTTP	52	0	4	B	0	M1
NMTTP	52	0	4	E	0	M1
NMTTP	52	192	2	B	0	M1
NMTTP	52	192	2	E	0	M1
NMHLD	53	0	2	768
NMTTP	53	192	1	B	0	M1
NMTTP	53	192	1	E	0	M1
NMTTP	54	0	3	B	0	M1
NMTTP	54	0	4	E	0	M1
NMTTP	54	192	5	B	0	M1
NMTTP	54	192	6	E	0	M1
NMTAP	55	0	7
NMTAP	55	72	7
NMSTR	55	144	4
NMSI_	55	144	4	96	48	2
NMTAP	55	144	7
CNSCL	55	288	2	0	48	1
NMTAP	56	0	0
NMTAP	56	72	0
NMTAP	56	144	0
NMSTR	56	144	3
NMSI_	56	144	3	96	48	5
CNSCR	56	288	5	0	48	6
NMHLD	57	0	7	192
NMTAP	57	96	6
NMHLD	57	192	5	192
NMTAP	57	288	4
NMHLD	58	0	3	96
NMTAP	58	96	2
NMTAP	58	192	0
NMTAP	58	192	1
NMTAP	58	288	0
NMTAP	58	288	1
NMTAP	59	0	2
NMTAP	59	0	7
NMTAP	59	48	6
NMTAP	59	96	4
NMTAP	59	96	5
NMTAP	59	144	2
NMTAP	59	192	2
NMTAP	59	192	3
NMTAP	59	240	1
NMTAP	59	240	4
NMTAP	59	288	2
NMTAP	59	288	3
NMTAP	59	336	4
NMSTR	60	0	4
NMSI_	60	0	4	96	48	2
NMTAP	60	0	5
NMTAP	60	48	6
NMTAP	60	96	7
NMTAP	60	144	0
NMTAP	60	192	1
NMSTR	60	192	2
NMSI_	60	192	2	96	48	4
NMTAP	60	240	0
NMTAP	60	288	7
NMTAP	60	336	6
NMTAP	61	0	5
NMSTR	61	0	6
NMSCL	61	0	6	96	48	3
NMTAP	61	48	7
NMTAP	61	96	0
NMTAP	61	144	1
NMSTR	61	192	1
NMSCR	61	192	1	96	48	4
NMTAP	61	192	2
NMTAP	61	240	0
NMTAP	61	288	7
NMTAP	61	336	6
NMTAP	62	0	5
NMTAP	62	0	6
NMTAP	62	48	7
NMSTR	62	96	0
NMSI_	62	96	0	96	48	2
NMSI_	62	96	0	96	48	5
NMTAP	62	192	0
NMTAP	62	288	3
NMTAP	62	336	4
NMTAP	63	0	5
NMTAP	63	48	5
NMTAP	63	72	7
NMTAP	63	120	7
NMTAP	63	144	4
NMSTR	63	192	2
NMSCL	63	192	2	96	48	7
NMHLD	63	240	2	96
NMTAP	64	0	1
NMTAP	64	48	1
NMTAP	64	72	0
NMTAP	64	120	0
NMTAP	64	144	3
NMTAP	64	192	7
NMSTR	64	240	6
NMSCR	64	240	6	96	144	3
NMTAP	64	288	5
NMHLD	64	336	4	144
NMTAP	65	144	5
NMTAP	65	192	4
NMTAP	65	192	5
NMTAP	65	240	2
NMTAP	65	264	3
NMTAP	65	312	3
NMHLD	65	336	0	96
NMTAP	66	48	7
NMTAP	66	96	1
NMTAP	66	96	6
NMTAP	66	144	2
NMTAP	66	144	5
NMSTR	66	192	3
NMSI_	66	192	3	96	48	0
NMSTR	66	192	4
NMSI_	66	192	4	96	48	7
EXTAP	66	288	3
EXTAP	66	288	4
NMTTP	67	0	0	C	0	M1
NMTAP	67	0	7
NMTAP	67	96	0
NMTTP	67	96	6	E	0	M1
NMTTP	67	192	2	E	0	M1
NMTAP	67	192	7
NMTAP	67	288	0
NMTTP	67	288	4	E	0	M1
NMTTP	68	0	3	E	0	M1
NMTAP	68	0	7
NMSTR	68	96	0
NMSI_	68	96	0	96	48	3
NMTTP	68	96	5	E	0	M1
EXTAP	68	192	0
EXSTR	68	192	7
NMSI_	68	192	7	96	48	4
EXTAP	68	288	0
EXTAP	68	288	7
NMTAP	69	0	0
NMTTP	69	0	0	C	0	M1
NMTTP	69	96	2	E	0	M1
NMTAP	69	96	7
NMTAP	69	192	0
NMTTP	69	192	6	E	0	M1
NMTTP	69	288	4	E	0	M1
NMTAP	69	288	7
NMTAP	70	0	0
NMTAP	70	0	5
NMSTR	70	96	0
NMSUR	70	96	0	96	96	4
NMSTR	70	96	7
NMSUR	70	96	7	96	96	4
EXTAP	70	192	0
EXTAP	70	192	7
NMSTR	71	0	7
NMSI_	71	0	7	96	48	3
NMTAP	71	48	7
NMTAP	71	96	1
NMTAP	71	96	7
NMTAP	71	144	1
NMSTR	71	192	1
NMSI_	71	192	1	96	48	5
NMTAP	71	240	1
NMTAP	71	288	0
NMTAP	71	288	1
NMTAP	71	336	7
NMSTR	72	0	6
NMSI_	72	0	6	96	48	2
NMTAP	72	48	6
NMTAP	72	96	4
NMTAP	72	96	6
NMTAP	72	144	4
NMSTR	72	192	4
NMSI_	72	192	4	96	48	0
NMTAP	72	240	4
NMTAP	72	288	4
NMTAP	72	288	7
NMTAP	72	336	6
NMTAP	73	0	5
NMTAP	73	24	0
NMTAP	73	48	5
NMTAP	73	72	1
NMTAP	73	96	5
NMTAP	73	120	2
NMTAP	73	144	5
NMTAP	73	168	3
NMTAP	73	192	6
NMTAP	73	216	4
NMTAP	73	240	6
NMTAP	73	264	4
NMSTR	73	288	7
BRSCL	73	288	7	96	96	0
NMTAP	73	312	4
NMTAP	73	336	7
NMTAP	73	360	4
CNSI_	74	96	0	0	48	6
CNSI_	74	144	6	0	48	4
NMTTP	74	192	0	C	1	M1
NMSTR	76	192	1
NMSI_	76	192	1	96	48	4
NMSTR	76	192	6
NMSI_	76	192	6	96	48	3
EXTAP	76	288	1
EXTAP	76	288	6
BXTAP	77	0	0
BXTAP	77	0	6
NMTAP	77	48	1
NMTAP	77	72	3
NMTAP	77	120	6
NMTAP	77	144	4
NMTAP	77	192	2
NMTAP	77	192	7
NMSTR	77	240	0
NMSI_	77	240	0	96	48	4
NMTAP	77	240	5
NMTAP	77	288	2
NMTAP	77	288	7
NMTAP	77	336	0
NMTAP	77	336	5
NMTAP	78	0	6
NMTAP	78	48	6
NMTAP	78	72	4
NMTAP	78	120	4
NMSTR	78	144	5
BRSCR	78	144	5	96	96	3
BXHLD	78	192	0	192
NMHLD	79	0	6	96
NMSTR	79	96	5
NMSI_	79	96	5	96	48	0
NMTAP	79	144	3
NMHLD	79	192	1	96
NMSTR	79	288	2
NMSI_	79	288	2	96	48	7
NMTAP	79	336	4
NMHLD	80	0	6	72
NMHLD	80	72	0	72
NMTAP	80	144	3
NMSTR	80	192	1
NMSI_	80	192	1	96	48	5
NMSTR	80	192	3
NMSI_	80	192	3	96	48	5
NMTAP	80	288	1
NMTAP	80	288	3
NMHLD	81	0	6	96
NMSTR	81	96	5
BRSCL	81	96	5	96	144	6
NMTAP	81	144	4
BXHLD	81	192	3	192
EXHLD	82	0	5	192
NMTAP	82	96	6
NMTAP	82	144	7
NMSTR	82	192	0
NMSI_	82	192	0	96	48	3
NMSI_	82	192	0	96	48	4
BRTAP	82	288	0
NMTAP	83	0	1
NMTAP	83	0	7
NMTAP	83	48	6
NMTAP	83	72	4
NMTAP	83	120	1
NMTAP	83	144	3
NMTAP	83	192	0
NMTAP	83	192	5
NMTAP	83	240	2
NMSTR	83	240	7
NMSI_	83	240	7	96	48	3
NMTAP	83	288	0
NMTAP	83	288	5
NMTAP	83	336	2
NMTAP	83	336	7
NMTAP	84	0	1
NMTAP	84	48	1
NMTAP	84	72	2
NMTAP	84	120	2
NMSTR	84	144	0
NMSCR	84	144	0	96	96	4
NMTAP	84	192	7
NMTAP	84	240	7
NMTAP	84	288	6
NMTAP	84	336	5
NMTAP	85	0	0
NMTAP	85	0	1
NMTAP	85	48	7
NMTAP	85	72	2
NMTAP	85	120	2
NMTAP	85	144	4
NMTAP	85	192	3
NMTAP	85	192	6
NMTAP	85	240	0
NMTAP	85	240	5
NMTAP	85	288	2
NMSTR	85	288	7
NMSCR	85	288	7	96	96	4
NMTAP	85	336	0
NMHLD	85	336	5	144
NMTAP	86	144	3
NMTAP	86	144	5
NMTAP	86	192	3
NMTAP	86	192	5
NMTAP	86	240	2
NMTAP	86	240	4
NMTAP	86	288	1
NMTAP	86	288	3
NMTAP	86	336	0
NMTAP	86	336	2
NMTAP	87	0	1
NMSTR	87	0	7
NMSCR	87	0	7	96	96	4
NMTAP	87	72	5
NMTAP	87	96	5
NMTAP	87	144	6
NMSTR	87	192	0
NMSCL	87	192	0	96	96	3
NMTAP	87	264	2
NMTAP	87	288	2
NMTAP	87	336	1
NMHLD	88	0	7	48
NMHLD	88	48	3	48
NMHLD	88	96	1	48
NMSTR	88	144	5
NMSI_	88	144	5	96	48	1
NMSTR	88	240	5
NMSCL	88	240	5	96	144	6
BRTAP	88	336	5
NMTAP	89	96	4
NMTAP	89	144	4
NMTAP	89	192	3
NMTAP	89	240	3
NMTAP	89	288	2
NMTAP	89	288	5
NMTAP	89	336	5
NMTAP	89	360	4
NMTAP	90	0	6
NMSTR	90	48	2
NMSCR	90	48	2	96	48	5
NMTAP	90	72	3
NMTAP	90	96	1
NMSTR	90	144	2
NMSCL	90	144	2	96	48	7
NMSTR	90	240	2
BRSCR	90	240	2	96	240	1
NMTTP	90	336	0	C	1	M1
BRTAP	90	336	2
CNSUR	91	192	1	0	192	3
NMTAP	92	96	4
NMTAP	92	96	6
NMTAP	92	144	5
NMTAP	92	192	1
NMTAP	92	192	3
NMTAP	92	240	2
NMTAP	92	288	4
NMTAP	92	288	6
NMTAP	92	336	7
NMTAP	93	0	0
NMTAP	93	0	2
NMTAP	93	96	1
NMTAP	93	120	0
NMTAP	93	144	1
NMTAP	93	168	0
NMSTR	93	192	1
NMSXL	93	192	1	96	72	3
NMSTR	93	264	3
NMSCL	93	264	3	96	72	7
NMTAP	93	336	7
NMHLD	94	48	5	72
NMHLD	94	120	4	72
NMSTR	94	192	3
NMSI_	94	192	3	96	48	0
NMSI_	94	192	3	96	48	1
NMTAP	94	288	3
BXTAP	95	0	2
BXTAP	95	0	7
NMTAP	95	96	1
NMTAP	95	120	0
NMTAP	95	144	1
NMTAP	95	168	0
NMSTR	95	192	1
NMSXL	95	192	1	96	72	3
NMSTR	95	264	3
NMSCL	95	264	3	96	120	6
NMTAP	95	336	7
NMTAP	96	48	4
NMTAP	96	96	4
NMTAP	96	144	4
NMTAP	96	192	4
NMTAP	96	192	6
NMTAP	96	240	4
NMTAP	96	288	4
NMTAP	96	288	7
NMTAP	96	336	4
NMTAP	97	0	0
NMTAP	97	24	5
NMTAP	97	48	0
NMTAP	97	72	5
NMTAP	97	96	1
NMTAP	97	120	4
NMTAP	97	144	1
NMTAP	97	168	4
NMTAP	97	192	2
NMTAP	97	216	3
NMTAP	97	240	0
NMTAP	97	264	6
NMTAP	97	288	4
NMTAP	97	312	5
NMHLD	97	336	0	96
NMTAP	98	48	3
NMSTR	98	96	0
NMSI_	98	96	0	96	48	4
NMTAP	98	96	3
NMSTR	98	192	5
NMSI_	98	192	5	96	48	1
NMTAP	98	240	6
EXTAP	98	288	7

T_REC_TAP	527
T_REC_BRK	8
T_REC_XTP	17
T_REC_BXX	8
T_REC_HLD	51
T_REC_XHO	2
T_REC_BHO	0
T_REC_BXH	4
T_REC_STR	86
T_REC_BST	0
T_REC_XST	2
T_REC_XBS	0
T_REC_TTP	37
T_REC_THO	0
T_REC_SLD	87
T_REC_BSL	7
T_REC_ALL	836
T_NUM_TAP	669
T_NUM_BRK	27
T_NUM_HLD	53
T_NUM_SLD	87
T_NUM_ALL	836
T_JUDGE_TAP	685
T_JUDGE_HLD	155
T_JUDGE_SLD	94
T_JUDGE_ALL	934
TTM_EACHPAIRS	128
TTM_SCR_TAP	334500
TTM_SCR_BRK	70200
TTM_SCR_HLD	53000
TTM_SCR_SLD	130500
TTM_SCR_ALL	588200
TTM_SCR_S	567950
TTM_SCR_SS	585500
TTM_RAT_ACV	10046

