VERSION	0.00.00	1.04.00
FES_MODE	0
BPM_DEF	150.000	150.000	150.000	150.000
MET_DEF	4	4
RESOLUTION	384
CLK_DEF	384
COMPATIBLE_CODE	MA2

BPM	0	0	150.000
MET	0	0	4	4

NMHLD	1	192	3	96
NMHLD	1	192	4	96
NMTAP	2	0	1
NMTAP	2	96	1
NMTAP	2	96	3
NMTAP	2	192	6
NMTAP	2	288	4
NMTAP	2	288	6
NMTAP	3	0	2
NMTAP	3	96	2
NMTAP	3	96	3
NMTAP	3	192	3
NMTAP	3	192	4
NMTAP	3	288	4
NMTAP	3	288	5
NMTAP	4	0	6
NMTAP	4	96	4
NMTAP	4	96	6
NMTAP	4	192	1
NMTAP	4	288	1
NMTAP	4	288	3
NMHLD	5	0	5	96
NMHLD	5	96	4	96
NMHLD	5	192	3	96
NMTAP	5	288	2
NMTAP	6	0	1
NMTAP	6	96	0
NMTAP	6	96	1
NMTAP	6	192	6
NMTAP	6	288	6
NMTAP	6	288	7
NMTAP	7	0	1
NMTAP	7	96	1
NMTAP	7	96	3
NMTAP	7	192	3
NMTAP	7	192	4
NMTAP	7	288	4
NMTAP	7	288	6
NMTAP	8	0	2
NMTAP	8	96	1
NMTAP	8	96	3
NMTAP	8	192	5
NMTAP	8	288	4
NMTAP	8	288	6
NMTAP	9	0	3
NMTAP	9	0	4
NMTAP	9	96	0
NMTAP	9	96	7
BRTAP	9	192	1
BRTAP	9	192	6
NMHLD	10	0	2	576
NMTAP	10	144	4
NMTAP	10	192	4
NMTAP	10	336	3
NMTAP	11	0	3
NMTAP	11	144	4
NMTAP	11	192	4
NMTAP	11	336	5
NMHLD	12	0	5	336
NMTAP	12	144	4
NMTAP	12	192	4
NMTAP	12	336	3
NMSTR	13	0	3
NMSV_	13	0	3	96	96	4
NMTAP	13	288	6
EXHLD	14	0	4	72
EXHLD	14	0	5	72
EXTAP	14	144	3
EXTAP	14	144	6
NMTAP	14	288	1
EXHLD	15	0	2	72
EXHLD	15	0	3	72
EXTAP	15	144	1
EXTAP	15	144	4
NMTAP	15	288	6
NMHLD	15	336	6	192
NMTAP	16	144	4
NMTAP	16	192	4
EXSTR	16	264	3
NMSSR	16	264	3	96	216	7
EXTAP	16	264	5
NMTAP	17	288	0
NMTAP	17	288	6
NMTAP	18	0	1
NMTAP	18	96	1
NMTAP	18	96	3
NMTAP	18	192	4
NMTAP	18	240	4
NMTAP	18	288	3
NMTAP	18	288	5
NMTAP	19	0	6
NMTAP	19	96	4
NMTAP	19	96	6
NMTAP	19	192	3
NMTAP	19	240	3
NMTAP	19	288	2
NMTAP	19	288	4
NMHLD	20	0	1	96
NMTAP	20	96	3
NMHLD	20	192	6	96
NMTAP	20	288	4
NMSTR	21	0	3
NMSCL	21	0	3	96	96	0
NMTAP	21	0	5
NMTAP	21	288	6
NMTAP	21	288	7
NMHLD	22	0	6	72
NMHLD	22	72	5	72
NMTAP	22	144	4
NMTAP	22	288	2
NMTAP	22	288	3
NMHLD	23	0	1	72
NMHLD	23	72	2	72
NMTAP	23	144	3
NMTAP	23	288	4
NMTAP	23	288	6
NMHLD	23	336	4	96
NMHLD	23	336	6	192
NMTAP	24	144	4
NMTAP	24	192	4
EXSTR	24	264	3
NMSCL	24	264	3	96	120	7
NMSUR	24	264	3	96	120	7
NMTAP	25	192	0
NMTAP	25	192	6
NMTAP	25	288	1
NMTAP	25	288	5
NMSTR	26	0	2
NMSCL	26	0	2	96	192	6
NMHLD	26	0	4	288
NMHLD	27	0	3	288
NMSTR	27	0	5
NMSCR	27	0	5	96	192	1
NMSTR	28	0	2
NMSLR	28	0	2	96	192	0
NMHLD	28	0	4	288
NMTTP	29	0	7	E	0	M1
NMTTP	29	96	6	E	0	M1
NMTTP	29	192	5	E	0	M1
NMTTP	29	288	0	C	0	M1
NMTAP	30	0	0
NMTAP	30	96	1
NMTAP	30	192	2
NMTAP	30	240	2
NMTAP	30	288	1
NMTAP	30	288	3
NMTAP	31	0	4
NMTAP	31	96	5
NMTAP	31	192	6
NMTAP	31	240	6
NMTAP	31	288	0
NMTAP	31	288	7
NMTAP	32	0	6
NMTAP	32	48	6
NMTAP	32	96	3
NMTAP	32	144	3
NMTAP	32	192	4
NMTAP	32	240	4
NMTAP	32	288	1
NMTAP	32	336	1
NMSTR	33	0	7
NMSI_	33	0	7	96	96	2
NMSI_	33	0	7	96	96	4
NMTAP	33	288	0
NMTAP	33	288	6
BXHLD	34	0	1	72
NMHLD	34	72	0	72
NMTAP	34	144	7
NMTAP	34	240	6
NMTAP	34	240	7
NMTAP	34	336	5
NMHLD	35	0	5	72
NMHLD	35	72	6	72
NMTAP	35	144	7
NMTAP	35	240	0
NMTAP	35	240	1
NMTAP	35	336	1
NMHLD	36	0	1	72
NMHLD	36	72	2	72
NMTAP	36	144	3
EXSTR	36	240	4
NMSI_	36	240	4	96	144	1
EXSTR	36	240	5
NMSI_	36	240	5	96	144	0
BRTAP	37	192	2
BRTAP	37	192	6
NMTAP	37	336	1
NMSTR	38	0	1
NMSCR	38	0	1	96	96	4
NMTAP	38	144	5
NMSTR	38	192	5
NMSCR	38	192	5	96	96	0
NMTAP	38	336	1
NMSTR	39	0	1
NMSUR	39	0	1	96	96	5
NMTAP	39	144	6
NMTAP	39	192	6
NMTAP	39	288	0
NMTAP	39	288	7
NMSTR	40	0	2
NMSCL	40	0	2	96	96	7
NMSTR	40	0	6
NMSCL	40	0	6	96	96	3
NMTAP	40	288	0
NMTAP	40	288	4
NMSTR	41	0	1
NMSCR	41	0	1	96	96	4
NMSTR	41	0	5
NMSCR	41	0	5	96	96	0
BRTAP	41	288	3
BRTAP	41	288	7
NMTAP	42	0	4
NMHLD	42	0	5	72
NMHLD	42	72	6	72
NMTAP	42	144	7
NMTAP	42	240	0
NMTAP	42	240	1
NMTAP	42	336	1
NMHLD	43	0	1	72
NMHLD	43	72	2	72
NMTAP	43	144	3
NMTAP	43	240	3
NMTAP	43	240	4
NMTAP	43	336	5
NMHLD	44	0	5	72
NMHLD	44	72	6	72
NMTAP	44	144	7
NMTAP	44	240	0
NMTAP	44	288	0
NMTAP	44	336	1
NMTAP	44	336	7
BXTAP	45	0	1
BXTAP	45	0	7
NMTAP	45	96	2
NMTAP	45	144	2
NMTAP	45	192	3
NMTAP	45	288	4
NMTAP	45	288	5
EXHLD	46	0	6	72
EXTAP	46	72	7
EXTAP	46	144	0
EXTAP	46	144	5
NMTAP	46	240	2
NMTAP	46	336	1
NMTAP	46	336	3
NMTAP	47	48	4
NMTAP	47	48	6
NMTAP	47	144	0
NMTAP	47	144	7
NMTAP	47	240	1
NMSTR	47	240	3
NMSCL	47	240	3	96	240	4
NMTAP	48	336	2
NMHLD	49	0	2	72
NMHLD	49	72	3	72
NMTAP	49	144	4
NMTAP	49	240	3
NMTAP	49	240	5
NMSTR	49	288	3
NMSUR	49	288	3	96	192	4
NMTAP	49	288	5
NMHLD	51	0	5	576
NMTAP	51	144	3
NMTAP	51	192	3
NMTAP	51	336	4
NMTAP	52	0	4
NMTAP	52	144	3
NMTAP	52	192	3
NMTAP	52	336	2
NMHLD	53	0	2	384
NMTAP	53	144	4
NMTAP	53	192	4
NMTAP	53	336	3
NMSTR	54	0	3
NMSI_	54	0	3	96	96	5
NMTAP	54	288	6
NMHLD	55	0	4	72
NMHLD	55	0	5	72
NMTAP	55	144	3
NMTAP	55	144	6
NMTAP	55	288	1
NMHLD	56	0	2	72
NMHLD	56	0	3	72
NMTAP	56	144	1
NMTAP	56	144	4
NMTAP	56	288	5
NMHLD	56	336	5	192
NMTAP	57	144	4
NMTAP	57	192	4
EXSTR	57	264	3
NMSI_	57	264	3	96	120	0
EXTAP	57	264	5
EXTAP	58	192	7
EXTAP	58	288	0
EXTAP	58	288	7
NMTAP	59	0	1
NMTAP	59	96	0
NMTAP	59	96	1
NMTAP	59	192	2
NMTAP	59	240	2
NMTAP	59	288	1
NMTAP	59	288	3
NMTAP	60	0	5
NMTAP	60	96	4
NMTAP	60	96	6
NMTAP	60	192	6
NMTAP	60	240	6
NMTAP	60	288	6
NMTAP	60	288	7
NMHLD	61	0	5	192
NMTAP	61	96	4
NMHLD	61	192	2	192
NMTAP	61	288	3
NMSTR	62	0	5
NMSI_	62	0	5	96	96	2
NMTAP	62	288	0
NMTAP	62	288	1
NMHLD	63	0	1	72
NMHLD	63	72	2	72
NMTAP	63	144	3
NMTAP	63	288	4
NMTAP	63	288	5
NMHLD	64	0	6	72
NMHLD	64	72	5	72
NMTAP	64	144	4
NMTAP	64	288	1
NMTAP	64	288	3
NMHLD	64	336	1	192
NMHLD	64	336	3	96
NMTAP	65	144	3
NMTAP	65	192	3
EXSTR	65	264	4
NMSCL	65	264	4	96	120	0
NMSUL	65	264	4	96	120	0
NMTAP	66	192	6
NMTAP	66	192	7
EXTAP	66	288	0
EXTAP	66	288	7
NMSTR	67	0	0
NMSCR	67	0	0	96	192	4
NMHLD	67	0	1	288
NMHLD	68	0	6	288
NMSTR	68	0	7
NMSCL	68	0	7	96	192	3
NMSTR	69	0	0
NMSLR	69	0	0	96	192	4
NMHLD	69	0	1	288
NMTTP	70	0	5	E	0	M1
NMTTP	70	96	4	E	0	M1
NMTTP	70	192	3	E	0	M1
NMTTP	70	288	0	C	0	M1
NMTAP	71	0	7
NMTAP	71	96	6
NMTAP	71	192	5
NMTAP	71	240	5
NMTAP	71	288	4
NMTAP	71	288	6
NMTAP	72	0	3
NMTAP	72	96	2
NMTAP	72	192	1
NMTAP	72	240	1
NMTAP	72	288	0
NMTAP	72	288	7
NMTAP	73	0	1
NMTAP	73	48	1
NMTAP	73	96	4
NMTAP	73	144	4
NMTAP	73	192	3
NMTAP	73	240	3
NMTAP	73	288	6
NMTAP	73	336	6
NMSTR	74	0	0
NMSCR	74	0	0	96	192	7
EXSTR	75	0	0
NMSSL	75	0	0	96	480	4
EXTAP	76	288	3
EXTAP	76	288	5
BRHLD	77	0	6	72
BRTAP	77	0	7
NMHLD	77	72	5	72
NMSTR	77	144	4
NMSI_	77	144	4	96	48	0
NMTAP	77	240	3
NMTAP	77	336	2
NMHLD	78	0	2	72
NMHLD	78	72	1	72
NMTAP	78	144	0
BRTAP	78	192	0
BRTAP	78	192	7
NMTAP	78	336	5
NMSTR	79	0	5
NMSI_	79	0	5	96	72	2
NMTAP	79	144	1
NMSTR	79	192	1
NMSI_	79	192	1	96	72	6
NMTAP	79	336	5
NMSTR	80	0	5
NMSI_	80	0	5	96	96	0
NMTAP	80	144	1
NMTAP	80	192	1
NMTAP	80	288	2
NMTAP	80	288	3
NMSTR	81	0	1
NMSCR	81	0	1	96	96	4
NMSTR	81	0	4
NMSCR	81	0	4	96	96	7
NMTAP	81	288	0
NMTAP	81	288	1
NMSTR	82	0	3
NMSCL	82	0	3	96	96	0
NMSTR	82	0	6
NMSCL	82	0	6	96	96	3
BRTAP	82	288	6
BRTAP	82	288	7
NMTAP	83	0	0
NMHLD	83	0	1	72
NMHLD	83	72	2	72
NMSTR	83	144	3
NMSI_	83	144	3	96	48	7
NMTAP	83	240	5
NMTAP	83	336	6
NMHLD	84	0	6	72
NMHLD	84	72	5	72
NMSTR	84	144	4
NMSI_	84	144	4	96	48	0
NMTAP	84	240	2
NMTAP	84	336	1
NMHLD	85	0	1	72
NMHLD	85	72	2	72
NMTAP	85	144	3
EXTAP	85	240	3
EXTAP	85	240	4
EXTAP	85	288	3
EXTAP	85	288	4
EXTAP	85	336	2
EXTAP	85	336	5
BXTAP	86	0	1
BXTAP	86	0	6
NMTAP	86	96	0
NMTAP	86	144	0
NMTAP	86	192	7
NMTAP	86	288	6
NMTAP	86	288	7
NMHLD	87	0	6	72
NMHLD	87	72	5	72
NMTAP	87	144	4
NMTAP	87	240	3
NMTAP	87	336	2
NMTAP	87	336	4
NMTAP	88	48	4
NMTAP	88	48	6
NMTAP	88	144	1
NMTAP	88	144	3
NMSTR	88	240	0
NMSXL	88	240	0	96	240	3
NMSTR	88	240	7
NMSXR	88	240	7	96	240	4
NMTAP	89	336	1
NMHLD	90	0	1	72
NMHLD	90	72	2	72
NMTAP	90	144	3
NMTAP	90	240	4
NMTAP	90	240	5
NMSTR	90	288	4
NMSCR	90	288	4	96	384	3
NMTAP	90	288	5
NMTTP	91	0	0	C	1	M1
NMTAP	92	192	3
NMTAP	92	192	4
NMTAP	92	288	2
NMTAP	92	288	5
NMTAP	93	0	0
NMTAP	93	0	1
NMTAP	93	96	2
NMTAP	93	96	7
NMHLD	93	192	6	72
NMHLD	93	264	5	72
NMTAP	93	336	4
NMTAP	94	0	3
NMTAP	94	0	4
NMTAP	94	96	1
NMTAP	94	96	2
NMTAP	94	192	0
NMTAP	94	192	7
NMTAP	94	288	1
NMTAP	94	288	6
NMTAP	95	0	2
NMTAP	95	48	2
NMTAP	95	96	4
NMTAP	95	144	4
NMTAP	95	192	3
NMTAP	95	240	3
EXTAP	95	288	3
EXTAP	95	288	5
NMTAP	96	0	6
NMTAP	96	48	6
NMTAP	96	96	0
NMTAP	96	144	0
NMTAP	96	192	7
NMTAP	96	240	7
EXTAP	96	288	1
EXTAP	96	288	7
NMTAP	97	0	7
NMTAP	97	48	6
NMTAP	97	96	5
NMTAP	97	144	4
NMTAP	97	192	3
NMTAP	97	240	2
NMTAP	97	288	1
NMTAP	97	336	0
NMTAP	98	0	6
NMTAP	98	0	7
NMTAP	98	96	4
NMTAP	98	96	5
BRSTR	98	192	2
BRSI_	98	192	2	96	48	7
BRSTR	98	192	6
BRSI_	98	192	6	96	48	3

T_REC_TAP	307
T_REC_BRK	11
T_REC_XTP	26
T_REC_BXX	4
T_REC_HLD	65
T_REC_XHO	5
T_REC_BHO	1
T_REC_BXH	1
T_REC_STR	34
T_REC_BST	2
T_REC_XST	7
T_REC_XBS	0
T_REC_TTP	9
T_REC_THO	0
T_REC_SLD	44
T_REC_BSL	2
T_REC_ALL	518
T_NUM_TAP	383
T_NUM_BRK	21
T_NUM_HLD	70
T_NUM_SLD	44
T_NUM_ALL	518
T_JUDGE_TAP	400
T_JUDGE_HLD	211
T_JUDGE_SLD	46
T_JUDGE_ALL	657
TTM_EACHPAIRS	117
TTM_SCR_TAP	191500
TTM_SCR_BRK	54600
TTM_SCR_HLD	70000
TTM_SCR_SLD	66000
TTM_SCR_ALL	382100
TTM_SCR_S	368600
TTM_SCR_SS	380000
TTM_RAT_ACV	10055

