VERSION	0.00.00	1.04.00
FES_MODE	0
BPM_DEF	185.000	185.000	185.000	185.000
MET_DEF	4	4
RESOLUTION	384
CLK_DEF	384
COMPATIBLE_CODE	MA2

BPM	0	0	185.000
MET	0	0	4	4

NMSTR	2	0	2
NMSI_	2	0	2	96	168	4
CNSV_	2	264	4	0	216	3
CNSI_	3	96	3	0	192	5
NMSTR	4	0	6
NMSXR	4	0	6	96	288	4
CNSXR	5	0	4	0	288	3
NMSTR	6	0	2
NMSUR	6	0	2	96	432	5
CNSUL	7	144	5	0	480	3
EXHLD	8	240	6	288
NMTTP	9	144	0	B	0	M1
NMTTP	9	144	0	E	0	M1
NMTTP	9	144	0	A	0	M1
NMTTP	9	144	0	D	1	M1
NMTTP	9	144	7	B	0	M1
NMTTP	9	144	7	A	0	M1
NMTAP	10	0	3
NMTAP	10	0	4
NMTAP	10	96	2
BXHLD	10	144	1	528
BXHLD	10	144	3	144
NMTAP	11	0	2
NMTAP	11	96	2
NMTAP	11	192	3
NMTAP	11	288	3
NMTAP	12	0	3
NMTAP	12	0	4
NMTAP	12	96	5
BXHLD	12	144	4	144
BXHLD	12	144	6	528
NMTAP	13	0	5
NMTAP	13	96	5
NMTAP	13	192	4
NMTAP	13	288	4
NMTAP	14	0	2
NMTAP	14	0	3
NMTAP	14	96	2
BXHLD	14	144	1	240
BXHLD	14	144	3	240
NMTTP	15	144	1	B	0	M1
NMTTP	15	144	1	E	0	M1
NMTTP	15	144	1	A	0	M1
NMTTP	15	144	1	D	0	M1
NMTTP	15	144	2	E	0	M1
NMTTP	15	144	2	D	0	M1
NMTTP	15	144	6	B	0	M1
NMTTP	15	144	6	A	0	M1
NMTTP	15	144	7	B	0	M1
NMTTP	15	144	7	E	0	M1
NMTTP	15	144	7	A	0	M1
NMTTP	15	144	7	D	1	M1
NMTTP	15	336	0	B	0	M1
NMTTP	15	336	0	A	0	M1
NMTTP	15	336	1	B	0	M1
NMTTP	15	336	1	E	0	M1
NMTTP	15	336	1	A	0	M1
NMTTP	15	336	1	D	1	M1
NMTTP	15	336	6	B	0	M1
NMTTP	15	336	6	E	0	M1
NMTTP	15	336	6	A	0	M1
NMTTP	15	336	6	D	0	M1
NMTTP	15	336	7	E	0	M1
NMTTP	15	336	7	D	0	M1
NMSTR	17	0	7
NMSV_	17	0	7	96	96	6
CNSLL	17	192	6	0	96	2
NMTAP	18	0	1
NMTAP	18	0	3
NMTAP	18	96	2
NMHLD	18	144	1	144
NMTAP	18	240	2
NMHLD	18	288	3	144
NMTAP	19	0	2
NMHLD	19	48	1	144
NMTAP	19	144	2
NMHLD	19	192	3	96
NMTAP	19	288	4
NMTAP	20	0	4
NMTAP	20	0	6
NMTAP	20	96	5
NMHLD	20	144	6	144
NMTAP	20	240	5
NMHLD	20	288	4	144
NMTAP	21	0	5
NMHLD	21	48	6	144
NMTAP	21	144	5
NMTAP	21	192	4
NMTAP	21	288	3
NMTAP	21	288	5
NMTAP	22	0	2
NMTAP	22	0	4
NMTAP	22	96	3
NMHLD	22	144	1	144
NMTAP	22	240	2
NMHLD	22	288	4	144
NMTAP	23	0	3
NMHLD	23	48	1	144
NMTAP	23	144	2
NMTAP	23	192	4
NMTAP	23	288	2
NMTAP	23	288	3
NMTAP	24	0	0
NMTAP	24	48	1
NMTAP	24	96	2
NMTAP	24	144	3
NMTAP	24	192	4
NMTAP	24	240	5
NMTAP	24	288	6
NMTAP	24	336	7
NMTAP	25	0	0
NMTAP	25	0	1
NMTAP	25	96	7
NMTAP	25	144	7
NMTAP	25	192	0
NMTAP	25	192	6
NMTAP	25	288	1
NMTAP	25	288	5
BXTAP	26	0	2
BXTAP	26	0	3
NMHLD	26	96	1	48
NMTAP	26	96	4
NMTAP	26	144	5
NMTAP	26	192	3
NMHLD	26	192	6	48
NMTAP	26	240	2
NMHLD	26	288	1	48
NMTAP	26	288	4
NMTAP	26	336	5
NMTAP	27	0	3
NMHLD	27	0	6	48
NMTAP	27	48	2
NMHLD	27	96	1	48
NMTAP	27	96	4
NMTAP	27	144	5
NMTAP	27	192	3
NMHLD	27	192	6	48
NMTAP	27	240	2
NMSTR	27	288	1
NMSI_	27	288	1	96	48	3
NMSTR	27	288	5
NMSI_	27	288	5	96	48	7
NMHLD	28	96	2	48
NMTAP	28	96	7
NMTAP	28	144	6
NMTAP	28	192	0
NMHLD	28	192	5	48
NMTAP	28	240	1
NMHLD	28	288	2	48
NMTAP	28	288	7
NMTAP	28	336	6
NMSTR	29	0	1
NMSI_	29	0	1	96	48	4
NMSTR	29	0	5
NMSI_	29	0	5	96	48	0
NMTAP	29	96	1
NMTAP	29	96	5
NMSTR	29	192	2
NMSI_	29	192	2	96	48	7
NMSTR	29	192	6
NMSI_	29	192	6	96	48	3
NMTAP	29	288	2
NMTAP	29	288	6
BRTAP	30	0	1
BRTAP	30	0	5
EXTAP	30	96	6
EXTAP	30	96	7
NMSTR	30	192	5
BRSI_	30	192	5	96	48	7
NMTAP	30	240	4
NMTAP	30	288	3
NMTAP	30	288	5
NMSTR	31	0	5
BRSI_	31	0	5	96	48	7
NMTAP	31	48	4
NMTAP	31	96	3
NMTAP	31	96	5
NMSTR	31	192	5
BRSI_	31	192	5	96	48	7
NMTAP	31	240	4
NMTAP	31	288	3
NMTAP	31	288	5
NMSTR	32	0	2
BRSI_	32	0	2	96	48	0
NMTAP	32	48	3
NMTAP	32	96	2
NMTAP	32	96	4
NMSTR	32	192	2
BRSI_	32	192	2	96	48	0
NMTAP	32	240	3
NMTAP	32	288	2
NMTAP	32	288	4
NMHLD	33	0	1	48
NMHLD	33	0	7	48
NMHLD	33	96	4	48
NMHLD	33	96	5	48
NMHLD	33	192	0	48
NMHLD	33	192	6	48
NMTAP	33	288	2
NMTAP	33	288	3
NMTAP	33	336	2
NMTAP	33	336	3
BRTAP	34	0	0
BRTAP	34	0	5
NMTAP	34	96	6
NMTAP	34	96	7
NMTAP	34	144	5
NMTAP	34	192	3
NMTAP	34	192	4
NMTAP	34	240	2
NMTAP	34	264	2
NMTAP	34	288	3
NMTAP	34	336	1
NMTAP	34	336	4
NMTAP	35	0	0
NMTAP	35	0	5
NMTAP	35	48	6
NMTAP	35	72	6
NMTAP	35	96	7
NMTAP	35	144	0
NMTAP	35	168	0
NMSTR	35	192	7
NMSCR	35	192	7	96	48	2
NMTAP	35	240	6
BRTAP	35	288	5
BRTAP	35	288	7
NMTAP	36	48	2
NMTAP	36	48	3
NMTAP	36	96	3
NMTAP	36	96	4
NMTAP	36	144	5
NMTAP	36	168	5
NMTAP	36	192	4
NMTAP	36	240	3
NMTAP	36	264	3
NMTAP	36	288	4
NMTAP	36	336	5
NMTAP	36	360	5
NMTAP	37	0	4
NMTAP	37	48	3
NMSTR	37	48	6
NMSCL	37	48	6	96	48	3
NMTAP	37	144	2
NMTAP	37	192	1
NMTAP	37	240	0
NMSTR	37	288	1
NMSI_	37	288	1	96	48	4
NMSTR	37	288	3
NMSI_	37	288	3	96	48	7
BRTAP	38	0	1
BRTAP	38	0	3
EXTAP	38	96	4
EXTAP	38	96	6
NMTAP	38	144	5
NMTAP	38	192	2
NMSTR	38	192	3
NMSCR	38	192	3	96	48	6
NMTAP	38	240	1
NMTAP	38	264	1
NMTAP	38	288	3
NMTAP	38	336	2
NMTAP	39	0	2
NMTAP	39	48	5
NMTAP	39	72	5
NMTAP	39	96	4
NMTAP	39	144	3
NMTAP	39	168	3
NMTAP	39	192	4
NMTAP	39	240	6
NMTAP	39	264	6
NMTAP	39	288	4
NMTAP	40	0	0
NMTAP	40	48	0
NMTAP	40	96	1
NMTAP	40	96	7
NMTAP	40	144	1
NMTAP	40	144	7
NMTAP	40	192	2
NMTAP	40	192	6
NMTAP	40	240	2
NMTAP	40	240	6
NMHLD	40	288	3	24
NMHLD	40	288	5	24
NMHLD	40	336	3	24
NMHLD	40	336	5	24
NMTTP	41	0	4	B	0	M1
NMTTP	41	24	5	B	0	M1
NMTTP	41	48	6	B	0	M1
NMTTP	41	72	7	B	0	M1
NMTTP	41	96	0	B	0	M1
NMTTP	41	120	1	B	0	M1
NMTTP	41	144	2	B	0	M1
NMTTP	41	168	3	B	0	M1
NMTTP	41	192	5	E	0	M1
NMTTP	41	216	6	E	0	M1
NMTTP	41	240	7	E	0	M1
NMTTP	41	264	0	E	0	M1
NMTTP	41	288	1	E	0	M1
NMTTP	41	312	2	E	0	M1
NMTTP	41	336	3	E	0	M1
NMTTP	41	360	4	E	0	M1
NMTTP	42	0	5	E	0	M1
NMHLD	42	0	7	384
NMTAP	42	192	4
NMTAP	42	288	4
NMHLD	43	0	1	384
NMTAP	43	192	3
NMTAP	43	288	3
NMTAP	44	0	6
NMTAP	44	48	6
NMTAP	44	96	4
NMTAP	44	144	4
NMTAP	44	192	3
NMTAP	44	240	3
NMTAP	44	288	1
NMTAP	44	336	1
NMTTP	45	0	0	B	0	M1
NMTTP	45	0	0	C	1	M1
NMTTP	45	0	0	E	0	M1
NMTTP	45	0	4	B	0	M1
NMTTP	45	0	4	E	0	M1
NMSTR	46	0	2
NMSV_	46	0	2	96	96	7
NMTAP	46	0	5
NMTAP	46	96	4
NMTAP	46	192	5
CNSLR	46	192	7	0	96	3
NMTAP	46	240	5
NMTAP	46	288	5
NMTAP	46	336	5
NMTAP	47	0	4
NMSTR	47	0	6
NMSI_	47	0	6	96	72	4
NMTAP	47	96	3
CNSI_	47	168	4	0	48	7
NMTAP	47	192	2
CNSI_	47	216	7	0	72	3
NMTAP	47	288	1
NMTAP	48	0	0
NMTAP	48	48	0
NMTAP	48	96	2
NMTAP	48	144	2
NMTAP	48	192	4
NMTAP	48	240	4
NMSTR	48	288	6
NMSI_	48	288	6	96	48	2
NMTAP	48	336	6
NMSTR	49	0	7
NMSV_	49	0	7	96	48	4
NMSTR	49	96	0
NMSV_	49	96	0	96	48	3
NMSTR	49	192	1
NMSI_	49	192	1	96	48	5
NMTAP	49	288	7
NMSTR	50	0	4
NMSI_	50	0	4	96	72	1
NMTAP	50	0	7
NMTAP	50	96	5
CNSI_	50	168	1	0	72	3
NMTAP	50	192	6
CNSV_	50	240	3	0	48	0
NMTAP	50	240	6
NMTAP	50	288	6
NMTAP	50	336	6
NMTAP	51	0	2
NMSTR	51	0	5
NMSI_	51	0	5	96	72	3
NMTAP	51	96	1
CNSI_	51	168	3	0	48	6
NMTAP	51	192	0
CNSI_	51	216	6	0	72	2
NMTAP	51	288	7
NMTAP	52	0	0
NMTAP	52	48	0
NMTAP	52	96	6
NMTAP	52	144	6
NMTAP	52	192	2
NMTAP	52	240	2
NMSTR	52	288	4
NMSI_	52	288	4	96	48	7
NMTAP	52	336	4
NMSTR	53	0	4
NMSI_	53	0	4	96	48	1
NMSTR	53	96	4
NMSI_	53	96	4	96	48	0
NMTAP	53	192	4
NMTAP	53	240	7
BRTAP	53	288	7
NMSTR	54	0	1
NMSV_	54	0	1	96	48	4
NMTAP	54	0	7
NMSTR	54	96	7
NMSLL	54	96	7	96	96	3
NMTAP	54	192	3
NMTAP	54	264	1
CNSI_	54	288	3	0	48	6
NMTAP	54	336	0
NMSTR	55	0	0
NMSUR	55	0	0	96	48	4
NMSTR	55	96	5
NMSXL	55	96	5	96	48	6
NMTAP	55	192	3
CNSI_	55	240	6	0	96	3
NMTAP	55	264	1
NMTAP	55	336	0
NMTAP	56	0	0
NMTAP	56	48	3
NMTAP	56	96	3
NMTAP	56	144	2
NMTAP	56	192	2
NMTAP	56	192	4
NMTAP	56	240	1
NMTAP	56	264	3
NMSTR	56	288	1
NMSUL	56	288	1	96	96	4
NMTAP	56	336	4
NMSTR	57	0	4
NMSXR	57	0	4	96	216	0
NMTAP	57	96	6
NMTAP	57	192	7
NMTAP	57	264	6
NMTAP	57	336	5
NMSTR	58	0	5
NMSV_	58	0	5	96	48	2
NMSTR	58	96	0
NMSUR	58	96	0	96	48	4
NMTAP	58	192	4
CNSCL	58	240	4	0	96	1
NMTAP	58	264	5
NMTAP	58	336	6
NMSTR	59	0	6
NMSV_	59	0	6	96	48	3
NMSTR	59	96	2
NMSCL	59	96	2	96	72	7
NMTAP	59	192	4
NMTAP	59	264	5
CNSLR	59	264	7	0	72	3
NMTAP	59	336	6
NMTAP	60	0	6
NMTAP	60	48	4
NMTAP	60	96	4
NMTAP	60	144	5
NMTAP	60	192	3
NMTAP	60	192	6
NMTAP	60	240	1
NMTAP	60	264	0
NMSTR	60	288	1
NMSUR	60	288	1	96	48	5
NMTAP	60	336	1
NMSTR	61	0	0
NMSUR	61	0	0	96	48	4
NMSTR	61	96	7
NMSUL	61	96	7	96	48	3
NMSTR	61	192	6
NMSUL	61	192	6	96	48	2
NMTAP	61	288	0
NMTTP	62	0	0	C	0	M1
NMTTP	63	0	2	B	0	M1
NMTTP	63	0	3	B	0	M1
NMTTP	63	288	4	E	0	M1
NMTTP	64	0	5	E	0	M1
NMTTP	65	0	4	B	0	M1
NMTTP	65	0	5	B	0	M1
NMTTP	65	288	4	E	0	M1
NMTTP	66	0	3	E	0	M1
NMTTP	67	0	1	B	0	M1
NMTTP	67	0	3	B	0	M1
NMTTP	67	288	4	B	0	M1
NMTTP	68	0	6	B	0	M1
NMTAP	69	0	3
NMTAP	69	0	4
NMTAP	69	192	1
NMTAP	69	192	3
NMTAP	69	240	1
NMTAP	69	240	3
NMSTR	69	288	0
NMSCR	69	288	0	96	192	5
NMTAP	69	288	4
NMTTP	70	0	0	C	1	M1
NMSTR	70	192	6
NMSLR	70	192	6	96	96	2
NMHLD	70	288	6	192
CNSI_	71	0	2	0	96	4
NMTAP	71	192	3
NMTAP	71	192	5
NMTAP	71	288	2
NMSTR	71	288	6
NMSCR	71	288	6	96	192	3
NMTTP	72	0	0	C	1	M1
NMTAP	72	192	0
NMSTR	72	288	0
NMSI_	72	288	0	96	48	2
NMSTR	73	0	0
NMSI_	73	0	0	96	48	6
NMSTR	73	96	0
NMSI_	73	96	0	96	48	3
NMSTR	73	192	0
NMSI_	73	192	0	96	48	5
NMSTR	73	288	0
NMSXL	73	288	0	96	192	4
NMTTP	74	0	0	A	1	M1
NMSTR	74	192	6
NMSXR	74	192	6	96	192	0
NMHLD	74	288	6	192
NMTAP	75	192	1
NMTAP	75	192	4
NMSTR	75	288	3
NMSI_	75	288	3	96	48	1
NMTAP	75	288	6
NMSTR	76	0	3
NMSI_	76	0	3	96	48	7
NMSTR	76	96	3
NMSI_	76	96	3	96	48	0
NMSTR	76	192	3
NMSI_	76	192	3	96	48	6
NMSTR	76	288	3
NMSI_	76	288	3	96	48	7
NMSTR	77	0	3
NMSI_	77	0	3	96	48	5
NMSTR	77	96	3
NMSXR	77	96	3	96	192	7
NMHLD	78	0	6	384
NMTAP	78	192	0
NMTAP	78	288	0
NMHLD	79	0	1	384
NMTAP	79	192	7
NMTAP	79	288	6
NMHLD	80	0	5	384
NMTAP	80	192	2
NMTAP	80	288	3
NMTAP	81	0	4
NMTAP	81	96	4
NMTAP	81	96	5
NMTAP	81	192	3
NMTAP	81	192	6
EXHLD	82	0	7	384
NMTTP	82	192	7	E	0	M1
EXHLD	83	0	6	384
NMTTP	83	192	6	E	0	M1
EXHLD	84	0	5	192
EXHLD	84	192	4	192
BXHLD	85	0	3	96
BXTAP	85	96	2
BXTAP	85	192	1
NMTAP	85	192	4
BXSTR	85	288	0
NMSXR	85	288	0	96	192	3
NMSTR	85	288	5
NMSXL	85	288	5	96	192	3
NMTTP	86	0	0	B	0	M1
NMTTP	86	0	0	C	1	M1
NMTTP	86	0	5	B	0	M1
EXTAP	86	288	1
EXTAP	86	288	5
NMTAP	87	0	0
NMTAP	87	0	6
NMTAP	87	48	2
NMTAP	87	72	3
NMTAP	87	96	1
NMTAP	87	120	4
NMTAP	87	144	0
NMTAP	87	192	6
NMTAP	87	192	7
NMTAP	87	240	5
NMTAP	87	288	0
NMTAP	87	288	1
NMTAP	87	336	2
NMTAP	88	0	4
NMTAP	88	0	6
NMTAP	88	48	2
NMTAP	88	72	3
NMTAP	88	120	3
NMTAP	88	144	1
NMTAP	88	192	0
NMTAP	88	192	7
NMTAP	88	240	6
NMTAP	88	264	4
NMTAP	88	312	4
NMTAP	88	336	5
NMTAP	89	0	2
NMTAP	89	0	3
NMTAP	89	48	1
NMTAP	89	72	0
NMTAP	89	96	1
NMTAP	89	120	0
NMTAP	89	144	2
NMTAP	89	192	6
NMTAP	89	216	7
NMTAP	89	240	6
NMTAP	89	264	7
NMTAP	89	288	5
NMTAP	89	336	1
NMTAP	89	336	3
NMTAP	90	0	1
NMTAP	90	0	3
NMTAP	90	48	0
NMTAP	90	96	4
NMTAP	90	96	6
NMTAP	90	144	7
NMTAP	90	192	0
NMTAP	90	192	1
NMTAP	90	240	4
NMTAP	90	240	5
BRTAP	90	288	2
BRTAP	90	288	6
NMTAP	91	0	1
NMTAP	91	0	7
NMTAP	91	48	5
NMTAP	91	72	4
NMTAP	91	96	6
NMTAP	91	120	3
NMTAP	91	144	7
NMTAP	91	192	0
NMTAP	91	192	1
NMTAP	91	240	2
NMTAP	91	288	6
NMTAP	91	288	7
NMTAP	91	336	5
NMTAP	92	0	1
NMTAP	92	0	3
NMTAP	92	48	5
NMTAP	92	72	4
NMTAP	92	120	4
NMTAP	92	144	6
NMTAP	92	192	0
NMTAP	92	192	7
NMTAP	92	240	1
NMTAP	92	264	3
NMTAP	92	312	3
NMTAP	92	336	2
NMTAP	93	0	3
NMTAP	93	0	4
NMTAP	93	48	6
NMTAP	93	72	7
NMTAP	93	96	5
NMTAP	93	120	7
NMTAP	93	144	4
NMTAP	93	192	1
NMTAP	93	216	0
NMTAP	93	240	2
NMTAP	93	264	0
NMTAP	93	288	3
NMTAP	93	336	4
NMTAP	93	336	6
NMTAP	94	0	4
NMTAP	94	0	6
NMTAP	94	48	1
NMTAP	94	72	3
EXTAP	94	120	0
EXTAP	94	120	7
EXTAP	94	144	0
EXTAP	94	144	7
NMTAP	94	192	1
NMTAP	94	204	2
NMTAP	94	216	3
NMTAP	94	228	4
NMTAP	94	240	5
NMTAP	94	252	6
NMTAP	94	264	7
NMTAP	94	276	0
BXTAP	94	288	1
BXTAP	94	288	5
NMSTR	95	0	2
NMSI_	95	0	2	96	48	7
NMTAP	95	0	3
NMTAP	95	96	2
NMTAP	95	96	5
NMSTR	95	144	6
NMSLR	95	144	6	96	120	3
NMHLD	95	240	5	240
NMTAP	95	240	6
CNSLR	95	360	3	0	120	1
NMTAP	96	192	3
NMTAP	96	192	7
NMTAP	96	288	0
NMTAP	96	288	1
NMTAP	96	336	2
NMTAP	96	336	7
NMTAP	97	0	3
NMSTR	97	0	6
NMSI_	97	0	6	96	48	3
NMTAP	97	96	3
NMTAP	97	96	6
NMSTR	97	144	2
NMSLR	97	144	2	96	48	6
NMHLD	97	240	1	144
NMTAP	97	240	2
CNSI_	97	288	6	0	48	0
CNSV_	97	336	0	0	96	5
NMTAP	98	48	1
NMTAP	98	144	3
NMTAP	98	144	6
NMTAP	98	240	0
NMTAP	98	240	4
BRTAP	98	288	0
BRTAP	98	288	4
NMTAP	99	0	2
NMTAP	99	0	3
NMSTR	99	96	1
NMSI_	99	96	1	96	48	5
NMSTR	99	144	0
NMSI_	99	144	0	96	72	6
NMTAP	99	192	1
NMTAP	99	240	0
CNSI_	99	312	6	0	72	3
CNSI_	100	0	3	0	72	1
CNSI_	100	72	1	0	72	4
CNSI_	100	144	4	0	48	7
NMTAP	100	288	0
NMTAP	100	288	6
NMTAP	101	0	1
NMTAP	101	0	5
NMSTR	101	48	1
NMSCR	101	48	1	96	48	4
NMSTR	101	48	5
NMSCR	101	48	5	96	48	0
NMSTR	101	144	1
NMSXL	101	144	1	96	336	4
NMSTR	101	144	5
NMSXL	101	144	5	96	336	0
NMTAP	102	288	2
NMTAP	102	288	6
BRTAP	103	0	0
BRTAP	103	0	4
NMTAP	103	96	2
NMTAP	103	120	3
NMTAP	103	144	2
NMTAP	103	192	5
NMTAP	103	216	4
NMTAP	103	240	5
NMTAP	103	288	1
NMTAP	103	312	3
NMTAP	103	336	1
NMTAP	104	0	6
NMTAP	104	24	4
NMTAP	104	48	6
NMTAP	104	96	1
NMTAP	104	120	3
NMTAP	104	144	2
NMTAP	104	192	5
NMTAP	104	216	4
NMTAP	104	240	6
NMSTR	104	288	0
NMSF_	104	288	0	96	48	4
NMTAP	105	96	6
NMTAP	105	120	7
NMTAP	105	144	6
NMTAP	105	192	1
NMTAP	105	216	0
NMTAP	105	240	1
NMTAP	105	288	6
NMTAP	105	312	7
NMTAP	105	336	6
NMTAP	106	0	1
NMTAP	106	24	0
NMTAP	106	48	1
NMTAP	106	96	6
NMTAP	106	120	7
NMTAP	106	144	5
NMTAP	106	192	1
NMTAP	106	216	0
NMTAP	106	240	2
NMTAP	106	288	4
NMSTR	106	288	6
NMSI_	106	288	6	96	48	3
BRTAP	107	0	6
BRTAP	107	0	7
NMTAP	107	96	2
NMTAP	107	120	3
NMHLD	107	144	2	48
NMTAP	107	192	5
NMTAP	107	216	4
NMHLD	107	240	5	48
NMTAP	107	288	1
NMTAP	107	312	3
NMHLD	107	336	2	48
NMTAP	108	0	6
NMTAP	108	24	4
NMHLD	108	48	5	48
NMTAP	108	96	2
NMTAP	108	120	3
NMHLD	108	144	1	48
NMTAP	108	192	5
NMTAP	108	216	4
NMHLD	108	240	6	48
NMTAP	108	288	2
NMTAP	108	312	3
NMTAP	108	336	1
NMTAP	108	360	4
EXTAP	109	0	0
NMTAP	109	96	6
NMTAP	109	120	7
NMHLD	109	144	6	48
NMTAP	109	192	1
NMTAP	109	216	0
NMHLD	109	240	1	48
NMTAP	109	288	6
NMTAP	109	312	7
NMHLD	109	336	5	48
NMTAP	110	0	1
NMTAP	110	24	0
NMHLD	110	48	2	48
NMTAP	110	96	5
NMTAP	110	120	4
NMHLD	110	144	6	48
NMTAP	110	192	1
NMTAP	110	216	3
NMTAP	110	240	2
BRSTR	110	288	3
NMSI_	110	288	3	96	48	0
BRSTR	110	288	4
NMSI_	110	288	4	96	48	7
BRTAP	111	0	3
BRTAP	111	0	4
BXTAP	111	96	6
BXTAP	111	96	7
NMTAP	111	144	6
NMTAP	111	144	7
NMTAP	111	192	0
NMTAP	111	192	1
NMTAP	111	240	0
NMTAP	111	240	1
BRTAP	111	288	2
BRTAP	111	288	3
NMTAP	111	336	0
NMTAP	111	336	1
NMTAP	112	0	6
NMTAP	112	0	7
NMTAP	112	48	4
NMTAP	112	48	5
BRTAP	112	96	1
BRTAP	112	96	3
NMTAP	112	144	1
NMTAP	112	144	3
NMTAP	112	192	4
NMTAP	112	192	6
NMTAP	112	240	4
NMTAP	112	240	6
BRTAP	112	288	1
BRTAP	112	312	0
BRTAP	112	336	1
BRTAP	112	360	0
BRTAP	113	0	1
NMTAP	113	48	2
NMTAP	113	48	7
BRTAP	113	96	0
BRTAP	113	96	1
NMTAP	113	144	4
NMTAP	113	144	5
NMTAP	113	192	6
NMTAP	113	192	7
NMTAP	113	240	2
NMTAP	113	240	3
BRTAP	113	288	1
BRTAP	113	288	4
NMTAP	113	336	1
NMTAP	113	336	4
NMTAP	114	0	3
NMTAP	114	0	6
NMTAP	114	48	3
NMTAP	114	48	6
BRTAP	114	96	0
BRTAP	114	96	1
NMTAP	114	144	4
NMTAP	114	144	6
NMTAP	114	192	1
NMTAP	114	192	3
NMTAP	114	240	6
NMTAP	114	240	7
BRSTR	114	288	1
BRSUR	114	288	1	96	48	5
BRTAP	114	288	5
BRTAP	114	336	0
BRTAP	114	360	7
BRTAP	115	0	1
NMTTP	115	96	0	B	0	M1
NMTTP	115	96	0	E	0	M1
NMTTP	115	96	7	B	0	M1

T_REC_TAP	504
T_REC_BRK	38
T_REC_XTP	11
T_REC_BXX	8
T_REC_HLD	49
T_REC_XHO	5
T_REC_BHO	0
T_REC_BXH	7
T_REC_STR	74
T_REC_BST	3
T_REC_XST	0
T_REC_XBS	1
T_REC_TTP	76
T_REC_THO	0
T_REC_SLD	72
T_REC_BSL	6
T_REC_ALL	854
T_NUM_TAP	665
T_NUM_BRK	63
T_NUM_HLD	54
T_NUM_SLD	72
T_NUM_ALL	854
T_JUDGE_TAP	715
T_JUDGE_HLD	185
T_JUDGE_SLD	78
T_JUDGE_ALL	978
TTM_EACHPAIRS	152
TTM_SCR_TAP	332500
TTM_SCR_BRK	163800
TTM_SCR_HLD	54000
TTM_SCR_SLD	108000
TTM_SCR_ALL	658300
TTM_SCR_S	632450
TTM_SCR_SS	652000
TTM_RAT_ACV	10096

