VERSION	0.00.00	1.04.00
FES_MODE	0
BPM_DEF	185.000	185.000	185.000	185.000
MET_DEF	4	4
RESOLUTION	384
CLK_DEF	384
COMPATIBLE_CODE	MA2

BPM	0	0	185.000
MET	0	0	4	4

NMSTR	2	0	2
NMSUR	2	0	2	96	480	4
NMSTR	4	0	5
NMSUL	4	0	5	96	288	6
CNSI_	5	0	6	0	120	4
CNSCL	5	120	4	0	72	3
NMSTR	6	0	1
NMSI_	6	0	1	96	168	7
CNSV_	6	264	7	0	264	2
CNSCR	7	144	2	0	72	3
CNSI_	7	216	3	0	240	6
CNSI_	8	72	6	0	168	4
BXHLD	10	0	1	96
BXHLD	10	0	5	96
BXHLD	10	144	1	432
BXTAP	10	144	5
NMTAP	10	288	3
NMTAP	11	0	3
NMTAP	11	96	3
NMTAP	11	192	3
NMTAP	11	288	3
NMTAP	11	288	4
BXHLD	12	0	2	96
BXHLD	12	0	6	96
BXTAP	12	144	2
BXHLD	12	144	6	336
NMTAP	12	288	4
NMTAP	13	0	4
NMTAP	13	96	4
NMTAP	13	192	4
NMTAP	13	192	6
BXTAP	13	288	0
BXTAP	13	288	7
BXHLD	14	0	1	96
BXHLD	14	0	5	96
BXHLD	14	144	1	432
BXTAP	14	144	5
NMTAP	14	288	3
NMTAP	15	0	3
NMTAP	15	96	4
NMTAP	15	192	4
NMTAP	15	288	3
NMTAP	15	288	5
BXHLD	16	0	2	96
BXHLD	16	0	6	96
BXTAP	16	144	2
BXHLD	16	144	6	240
NMTAP	16	288	4
NMSTR	17	0	3
NMSV_	17	0	3	96	96	4
EXTAP	17	288	5
BXTAP	18	0	2
BXTAP	18	0	5
NMTAP	18	96	1
EXTAP	18	144	3
NMTAP	18	192	2
NMTAP	18	288	3
EXTAP	18	288	4
NMTAP	19	0	5
EXTAP	19	48	3
NMTAP	19	96	4
EXTAP	19	192	2
NMTAP	19	192	3
NMTAP	19	288	3
NMTAP	19	288	4
BXTAP	20	0	4
BXTAP	20	0	5
NMTAP	20	96	6
EXTAP	20	144	4
NMTAP	20	192	5
EXTAP	20	288	3
NMTAP	20	288	4
NMTAP	21	0	2
EXTAP	21	48	4
NMTAP	21	96	3
NMTAP	21	192	4
EXTAP	21	192	5
NMTAP	21	288	3
EXTAP	21	288	4
BXTAP	22	0	1
BXTAP	22	0	3
NMTAP	22	96	1
NMTAP	22	96	3
NMTAP	22	192	3
NMTAP	22	192	4
NMTAP	22	288	3
NMTAP	22	288	4
BXTAP	23	0	4
BXTAP	23	0	6
NMTAP	23	96	4
NMTAP	23	96	6
NMTAP	23	192	3
NMTAP	23	192	4
NMTAP	23	288	3
NMTAP	23	288	4
BXTAP	24	0	3
NMTAP	24	48	3
NMTAP	24	96	5
NMTAP	24	144	5
BXTAP	24	192	1
NMTAP	24	240	1
NMTAP	24	288	7
NMTAP	24	336	7
BRTAP	25	0	0
BRTAP	25	96	1
BRTAP	25	192	2
BRSTR	25	288	3
BRSF_	25	288	3	96	48	7
EXHLD	26	96	0	48
EXHLD	26	96	6	48
EXHLD	26	192	0	48
EXHLD	26	192	6	48
NMHLD	26	288	4	48
NMHLD	26	288	5	48
NMHLD	27	0	2	48
NMHLD	27	0	3	48
NMHLD	27	96	1	48
NMHLD	27	96	7	48
NMHLD	27	192	1	48
NMHLD	27	192	7	48
NMHLD	27	288	2	48
NMHLD	27	288	3	48
NMHLD	28	0	4	48
NMHLD	28	0	5	48
NMHLD	28	96	0	48
NMHLD	28	96	6	48
NMHLD	28	192	0	48
NMHLD	28	192	6	48
NMHLD	28	288	4	48
NMHLD	28	288	5	48
NMSTR	29	0	3
NMSCL	29	0	3	96	96	0
NMSTR	29	0	6
NMSCL	29	0	6	96	96	3
NMTAP	29	288	1
NMTAP	29	288	4
EXTAP	30	0	2
EXTAP	30	0	3
BRTAP	30	96	0
BRTAP	30	96	6
NMTAP	30	192	4
NMTAP	30	192	5
BRTAP	30	288	1
BRTAP	30	288	7
NMTAP	31	0	2
NMTAP	31	0	3
BRTAP	31	96	6
BRTAP	31	96	7
NMTAP	31	192	4
NMTAP	31	192	5
BRTAP	31	288	0
BRTAP	31	288	1
NMTAP	32	0	1
NMTAP	32	0	3
BRTAP	32	96	6
BRTAP	32	96	7
NMTAP	32	192	4
NMTAP	32	192	6
BRTAP	32	288	0
BRTAP	32	288	1
NMSTR	33	0	1
BRSI_	33	0	1	96	96	4
CNSI_	33	192	4	0	96	7
BRTAP	34	0	0
BRTAP	34	0	6
NMTAP	34	96	6
NMTAP	34	144	6
NMTAP	34	192	7
NMTAP	34	240	7
NMTAP	34	288	5
NMTAP	34	336	5
NMTAP	35	0	4
NMTAP	35	48	4
NMTAP	35	96	6
NMTAP	35	144	6
NMTAP	35	192	5
NMTAP	35	288	4
NMTAP	35	288	7
NMTAP	36	0	2
NMTAP	36	48	2
NMTAP	36	96	0
NMTAP	36	144	0
NMTAP	36	192	1
NMTAP	36	240	1
NMTAP	36	288	3
NMTAP	37	0	0
NMSTR	37	48	0
NMSCR	37	48	0	96	48	3
NMTAP	37	144	4
NMSTR	37	192	4
NMSCR	37	192	4	96	48	7
NMTAP	37	288	0
BRTAP	38	0	0
BRTAP	38	0	1
NMTAP	38	96	1
NMTAP	38	144	1
NMTAP	38	192	0
NMTAP	38	240	0
NMTAP	38	288	2
NMTAP	38	336	2
NMTAP	39	0	3
NMTAP	39	48	3
NMTAP	39	96	1
NMTAP	39	144	1
NMTAP	39	192	2
NMTAP	39	288	0
NMTAP	39	288	3
NMTAP	40	0	5
NMHLD	40	48	5	48
NMTAP	40	96	7
NMHLD	40	144	7	48
NMTAP	40	192	0
NMHLD	40	240	0	48
NMSTR	40	288	2
BRSI_	40	288	2	96	96	5
NMTAP	40	336	2
CNSI_	41	96	5	0	96	1
CNSCL	41	192	1	0	96	6
BXHLD	42	0	4	96
BXHLD	42	0	5	96
NMHLD	42	192	3	96
NMHLD	42	192	4	96
BXHLD	43	0	2	96
BXHLD	43	0	3	96
NMHLD	43	192	3	96
NMHLD	43	192	4	96
BXTAP	44	0	5
NMTAP	44	48	5
NMTAP	44	96	1
NMTAP	44	144	1
NMTAP	44	192	7
NMTAP	44	240	7
NMSTR	44	288	0
NMSCR	44	288	0	96	192	3
NMSTR	44	288	7
NMSCL	44	288	7	96	192	4
BRTAP	45	288	2
BRTAP	45	288	5
NMSTR	46	0	2
NMSLL	46	0	2	96	96	6
NMHLD	46	192	5	48
NMHLD	46	288	5	48
NMSTR	47	0	5
NMSLR	47	0	5	96	96	1
NMHLD	47	192	2	48
NMHLD	47	288	2	48
NMTAP	48	0	0
NMTAP	48	48	0
NMTAP	48	96	1
NMTAP	48	144	1
NMTAP	48	192	6
NMTAP	48	240	6
NMTAP	48	288	7
NMTAP	48	336	7
NMTTP	49	0	5	B	0	M1
NMTTP	49	0	5	E	0	M1
NMTTP	49	96	1	B	0	M1
NMTTP	49	96	1	E	0	M1
NMTTP	49	192	7	B	0	M1
NMTTP	49	192	7	E	0	M1
NMTTP	49	288	3	B	0	M1
NMTTP	49	288	3	E	0	M1
NMSTR	50	0	5
NMSLR	50	0	5	96	96	1
NMHLD	50	192	2	48
NMHLD	50	288	2	48
NMSTR	51	0	2
NMSLL	51	0	2	96	96	6
NMHLD	51	192	5	48
NMHLD	51	288	5	48
NMTAP	52	0	0
NMTAP	52	48	0
NMTAP	52	96	2
NMTAP	52	144	2
NMTAP	52	192	4
NMTAP	52	240	4
NMTAP	52	288	6
NMTAP	52	336	6
NMSTR	53	0	6
NMSI_	53	0	6	96	96	3
CNSI_	53	192	3	0	96	7
BRTAP	53	288	0
NMSTR	54	0	0
NMSUR	54	0	0	96	48	4
NMSTR	54	0	1
NMSCR	54	0	1	96	48	4
NMHLD	54	192	5	72
NMHLD	54	264	6	72
NMTAP	54	336	7
NMSTR	55	0	7
NMSCL	55	0	7	96	48	4
NMSUL	55	0	7	96	48	3
NMHLD	55	192	2	72
NMHLD	55	264	1	72
NMTAP	55	336	0
NMTAP	56	0	7
NMTAP	56	48	7
NMTAP	56	96	3
NMTAP	56	144	3
NMHLD	56	192	6	72
NMHLD	56	264	5	72
NMTAP	56	336	4
NMSTR	57	0	4
NMSI_	57	0	4	96	48	2
NMSI_	57	0	4	96	48	6
NMTAP	57	192	1
NMTAP	57	192	7
NMTAP	57	264	2
NMTAP	57	264	6
NMTAP	57	336	3
NMTAP	57	336	5
NMSTR	58	0	3
NMSV_	58	0	3	96	48	0
NMSTR	58	0	5
NMSCR	58	0	5	96	48	0
NMHLD	58	192	1	72
NMHLD	58	264	2	72
NMTAP	58	336	3
NMSTR	59	0	3
NMSCL	59	0	3	96	48	0
NMSUL	59	0	3	96	48	7
NMHLD	59	192	6	72
NMHLD	59	264	5	72
NMTAP	59	336	4
NMTAP	60	0	3
NMTAP	60	48	3
NMTAP	60	96	4
NMTAP	60	144	4
NMHLD	60	192	1	72
NMHLD	60	264	2	72
NMTAP	60	336	3
EXSTR	61	0	3
NMSI_	61	0	3	96	48	7
EXSTR	61	96	4
NMSI_	61	96	4	96	48	6
EXSTR	61	192	2
NMSI_	61	192	2	96	48	0
EXTAP	61	288	7
NMTTP	62	0	0	B	0	M1
NMTTP	62	0	0	C	1	M1
NMTTP	62	0	6	B	0	M1
NMTTP	66	0	5	D	0	M1
NMTTP	67	0	4	D	0	M1
NMTTP	68	0	3	D	0	M1
NMTHO	69	0	0	192	C	0	M1
BXHLD	70	0	1	192
BXTAP	70	0	6
NMTTP	70	192	0	E	0	M1
BXHLD	70	288	2	96
BXHLD	70	288	7	96
BXTAP	71	96	0
BXHLD	71	96	5	96
NMTTP	71	192	0	E	0	M1
BXTAP	71	288	0
BXTAP	71	288	4
BXTAP	72	0	2
BXHLD	72	0	6	192
NMTTP	72	192	0	E	0	M1
BXHLD	72	288	0	96
BXHLD	72	288	5	96
BXHLD	73	96	2	96
BXTAP	73	96	7
NMTTP	73	192	0	E	0	M1
BXTAP	73	288	3
BXTAP	73	288	7
BXHLD	74	0	2	192
BXTAP	74	0	6
NMTTP	74	192	4	E	0	M1
BXHLD	74	288	1	96
BXHLD	74	288	4	96
BXTAP	75	96	3
BXHLD	75	96	6	96
NMTTP	75	192	4	E	0	M1
NMTAP	75	288	3
NMTAP	75	288	7
NMTAP	76	0	2
NMTAP	76	0	6
NMTAP	76	96	1
NMTAP	76	96	5
NMSTR	76	192	0
NMSLR	76	192	0	96	288	4
NMSTR	76	192	4
NMSLR	76	192	4	96	288	0
NMSTR	78	0	6
NMSI_	78	0	6	96	96	4
NMTAP	78	192	3
NMSTR	79	0	1
NMSI_	79	0	1	96	96	3
NMTAP	79	192	4
NMSTR	80	0	5
NMSCL	80	0	5	96	96	3
NMTAP	80	192	2
NMSTR	81	0	2
NMSCR	81	0	2	96	96	4
NMTAP	81	192	5
BRHLD	82	0	7	288
NMTAP	82	96	6
NMTAP	82	192	6
NMTAP	82	288	6
BRHLD	83	0	6	288
NMTAP	83	96	5
NMTAP	83	192	5
NMTAP	83	288	5
BRHLD	84	0	5	96
NMTAP	84	96	4
BRHLD	84	192	4	96
NMTAP	84	288	3
BRHLD	85	0	3	96
BRHLD	85	96	2	96
BRHLD	85	192	1	96
BRTAP	85	288	0
NMTTP	86	0	0	C	1	M1
NMTTP	86	0	2	E	0	M1
NMTTP	86	0	6	E	0	M1
BXSTR	86	288	1
NMSI_	86	288	1	96	48	3
BXTAP	86	288	7
NMSTR	87	0	0
NMSI_	87	0	0	96	48	4
NMSTR	87	96	1
NMSI_	87	96	1	96	48	3
NMSTR	87	192	0
NMSI_	87	192	0	96	48	4
NMSTR	87	288	1
NMSI_	87	288	1	96	48	5
NMSTR	88	0	0
NMSI_	88	0	0	96	48	6
NMSTR	88	96	1
NMSI_	88	96	1	96	48	5
NMSTR	88	192	0
NMSI_	88	192	0	96	48	6
NMSTR	88	288	1
NMSI_	88	288	1	96	48	3
NMSTR	89	0	0
NMSI_	89	0	0	96	48	4
NMSTR	89	96	1
NMSI_	89	96	1	96	48	3
NMTAP	89	192	5
NMTAP	89	288	4
NMTAP	89	288	5
NMTAP	90	0	1
NMTAP	90	0	7
BRTAP	90	48	1
BRTAP	90	48	7
BRTAP	90	144	2
BRTAP	90	144	3
BRTAP	90	240	0
BRTAP	90	240	6
BRTAP	90	288	0
BRSTR	90	288	6
NMSI_	90	288	6	96	48	4
NMSTR	91	0	7
NMSI_	91	0	7	96	48	3
NMSTR	91	96	6
NMSI_	91	96	6	96	48	4
NMSTR	91	192	7
NMSI_	91	192	7	96	48	3
NMSTR	91	288	6
NMSI_	91	288	6	96	48	2
NMSTR	92	0	7
NMSI_	92	0	7	96	48	1
NMSTR	92	96	6
NMSI_	92	96	6	96	48	2
NMTAP	92	192	7
BRSTR	92	288	0
NMSI_	92	288	0	96	48	4
NMSTR	93	0	7
NMSI_	93	0	7	96	48	3
NMSTR	93	96	1
NMSI_	93	96	1	96	48	5
NMSTR	93	192	6
NMSI_	93	192	6	96	48	2
NMSTR	93	288	0
NMSCR	93	288	0	96	192	7
BRSTR	94	288	1
NMSI_	94	288	1	96	48	4
BRTAP	94	288	6
NMSTR	95	0	5
NMSI_	95	0	5	96	48	0
NMSTR	95	96	2
NMSI_	95	96	2	96	48	7
NMSTR	95	192	6
NMSI_	95	192	6	96	48	3
NMSTR	95	288	1
NMSI_	95	288	1	96	48	4
NMSTR	96	0	5
NMSI_	96	0	5	96	48	0
NMSTR	96	96	2
NMSI_	96	96	2	96	48	7
NMSTR	96	192	6
NMSI_	96	192	6	96	48	3
NMSTR	96	288	1
NMSI_	96	288	1	96	48	4
NMSTR	97	0	5
NMSI_	97	0	5	96	48	0
NMSTR	97	96	2
NMSI_	97	96	2	96	48	7
NMTAP	97	192	6
NMTAP	97	288	6
NMTAP	97	288	7
NMTAP	98	0	0
NMTAP	98	0	5
BRTAP	98	48	0
BRTAP	98	48	5
BRTAP	98	144	3
BRTAP	98	144	4
BRTAP	98	240	2
BRTAP	98	240	6
BRTAP	98	288	2
BRSTR	98	288	6
NMSI_	98	288	6	96	48	3
NMSTR	99	0	2
NMSI_	99	0	2	96	48	7
NMSTR	99	96	5
NMSI_	99	96	5	96	48	0
NMSTR	99	192	1
NMSI_	99	192	1	96	48	4
NMSTR	99	288	6
NMSI_	99	288	6	96	48	3
NMSTR	100	0	2
NMSI_	100	0	2	96	48	7
NMSTR	100	96	5
NMSI_	100	96	5	96	48	0
NMTAP	100	192	1
BRTAP	100	288	0
BRTAP	100	288	1
NMTAP	101	0	0
NMTAP	101	0	7
NMTAP	101	48	0
NMTAP	101	48	7
NMSTR	101	144	2
NMSCL	101	144	2	96	96	0
NMSTR	101	144	5
NMSCR	101	144	5	96	96	7
CNSXL	101	336	0	0	336	3
CNSXR	101	336	7	0	336	4
BRTAP	103	0	2
BRTAP	103	0	5
NMHLD	103	96	2	48
NMHLD	103	96	4	48
NMHLD	103	192	2	48
NMHLD	103	192	4	48
NMHLD	103	288	2	48
NMHLD	103	288	4	48
NMHLD	104	0	3	48
NMHLD	104	0	5	48
NMHLD	104	96	3	48
NMHLD	104	96	5	48
NMHLD	104	192	2	48
NMHLD	104	192	6	48
NMHLD	104	288	2	48
NMHLD	104	288	6	48
NMHLD	105	0	1	48
NMHLD	105	0	5	48
NMHLD	105	96	1	48
NMHLD	105	96	5	48
NMHLD	105	192	2	48
NMHLD	105	192	3	48
NMHLD	105	288	2	48
NMHLD	105	288	3	48
NMHLD	106	0	4	48
NMHLD	106	0	5	48
NMHLD	106	96	4	48
NMHLD	106	96	5	48
NMHLD	106	192	6	72
NMHLD	106	264	5	72
NMTAP	106	336	4
BRTAP	107	0	3
BRTAP	107	0	4
NMHLD	107	96	3	48
NMHLD	107	96	5	48
NMHLD	107	192	3	48
NMHLD	107	192	5	48
NMHLD	107	288	3	48
NMHLD	107	288	5	48
NMHLD	108	0	2	48
NMHLD	108	0	6	48
NMHLD	108	96	2	48
NMHLD	108	96	6	48
NMHLD	108	192	1	48
NMHLD	108	192	5	48
NMHLD	108	288	1	48
NMHLD	108	288	5	48
NMHLD	109	0	3	48
NMHLD	109	0	6	48
NMHLD	109	96	4	48
NMHLD	109	96	5	48
NMHLD	109	192	2	48
NMHLD	109	192	3	48
NMHLD	109	288	1	48
NMHLD	109	288	4	48
NMSTR	110	0	2
BRSV_	110	0	2	96	192	0
NMSTR	110	0	3
BRSLR	110	0	3	96	192	7
NMTAP	111	0	0
NMTAP	111	0	7
BRTAP	111	96	1
BRTAP	111	96	7
BRTAP	111	144	1
BRTAP	111	144	7
BRTAP	111	192	1
BRTAP	111	192	7
BRTAP	111	240	1
BRTAP	111	240	7
BRTAP	111	288	2
BRTAP	111	288	6
BRTAP	111	336	2
BRTAP	111	336	6
BRTAP	112	0	2
BRTAP	112	0	6
BRTAP	112	48	2
BRTAP	112	48	6
BRTAP	112	96	3
BRTAP	112	96	5
BRTAP	112	144	3
BRTAP	112	144	5
BRTAP	112	192	3
BRTAP	112	192	5
BRTAP	112	240	3
BRTAP	112	240	5
BXHLD	112	288	2	24
BXHLD	112	288	6	24
BXHLD	112	336	2	24
BXHLD	112	336	6	24
BRTAP	113	0	1
BRTAP	113	0	5
BRTAP	113	48	1
BRTAP	113	48	5
BRTAP	113	96	0
BRTAP	113	96	4
BRTAP	113	144	0
BRTAP	113	144	4
BRTAP	113	192	3
BRTAP	113	192	7
BRTAP	113	240	3
BRTAP	113	240	7
BRTAP	113	288	0
BRTAP	113	288	4
BRTAP	113	336	0
BRTAP	113	336	4
BRTAP	114	0	1
BRTAP	114	0	5
BRTAP	114	48	1
BRTAP	114	48	5
BRTAP	114	96	2
BRTAP	114	96	6
BRTAP	114	144	2
BRTAP	114	144	6
BRTAP	114	192	3
BRTAP	114	192	7
BRTAP	114	240	3
BRTAP	114	240	7
BRTAP	114	288	0
BRTAP	114	288	4
BXHLD	114	336	0	24
BXHLD	114	336	4	24
BRSTR	115	0	3
NMSV_	115	0	3	96	48	1
BRSTR	115	0	7
NMSV_	115	0	7	96	48	5

T_REC_TAP	181
T_REC_BRK	98
T_REC_XTP	13
T_REC_BXX	28
T_REC_HLD	95
T_REC_XHO	4
T_REC_BHO	7
T_REC_BXH	34
T_REC_STR	70
T_REC_BST	7
T_REC_XST	3
T_REC_XBS	1
T_REC_TTP	23
T_REC_THO	1
T_REC_SLD	79
T_REC_BSL	5
T_REC_ALL	649
T_NUM_TAP	290
T_NUM_BRK	180
T_NUM_HLD	100
T_NUM_SLD	79
T_NUM_ALL	649
T_JUDGE_TAP	424
T_JUDGE_HLD	233
T_JUDGE_SLD	84
T_JUDGE_ALL	741
TTM_EACHPAIRS	160
TTM_SCR_TAP	145000
TTM_SCR_BRK	468000
TTM_SCR_HLD	100000
TTM_SCR_SLD	118500
TTM_SCR_ALL	831500
TTM_SCR_S	789100
TTM_SCR_SS	813500
TTM_RAT_ACV	10221

