VERSION	0.00.00	1.04.00
FES_MODE	0
BPM_DEF	185.000	185.000	185.000	185.000
MET_DEF	4	4
RESOLUTION	384
CLK_DEF	384
COMPATIBLE_CODE	MA2

BPM	0	0	185.000
MET	0	0	4	4

NMSTR	2	0	7
NMSI_	2	0	7	96	288	3
NMSTR	4	0	1
NMSI_	4	0	1	96	288	4
NMSTR	6	0	6
NMSUL	6	0	6	96	672	3
NMTAP	10	0	1
NMTAP	10	96	1
NMTAP	10	192	1
NMTAP	11	0	2
NMTAP	11	96	2
NMTAP	11	192	2
NMTAP	12	0	3
NMTAP	12	96	3
NMTAP	12	192	3
NMTAP	13	0	4
NMTAP	13	0	5
NMTAP	13	192	4
NMTAP	13	192	5
NMTAP	14	0	6
NMTAP	14	96	6
NMTAP	14	192	6
NMTAP	15	0	5
NMTAP	15	96	5
NMTAP	15	192	5
NMTAP	16	0	4
NMTAP	16	96	4
NMTAP	16	192	4
NMTAP	17	0	2
NMTAP	17	0	3
NMTAP	17	192	2
NMTAP	17	192	3
NMTAP	18	0	4
NMTAP	18	96	4
NMTAP	18	192	5
NMTAP	19	0	6
NMTAP	19	96	6
NMTAP	19	192	7
NMTAP	20	0	0
NMTAP	20	96	0
NMTAP	20	192	1
NMTAP	21	0	2
NMTAP	21	96	2
NMTAP	21	192	2
NMTAP	21	192	3
NMTAP	22	0	3
NMTAP	22	96	3
NMTAP	22	192	2
NMTAP	23	0	1
NMTAP	23	96	1
NMTAP	23	192	0
NMTAP	24	0	7
NMTAP	24	96	7
NMTAP	24	192	6
NMTAP	25	0	5
NMTAP	25	96	5
NMTAP	25	192	4
NMTAP	25	192	5
BXTAP	26	0	5
NMTAP	26	96	5
NMTAP	26	192	6
NMTAP	26	288	6
NMTAP	27	0	7
NMTAP	27	96	7
NMTAP	27	192	0
NMTAP	27	192	1
NMTAP	28	0	2
NMTAP	28	96	2
NMTAP	28	192	1
NMTAP	28	288	1
NMTAP	29	0	0
NMTAP	29	96	0
NMTAP	29	192	6
NMTAP	29	192	7
NMTAP	30	0	6
NMTAP	30	96	6
NMTAP	30	192	5
NMTAP	30	288	5
NMTAP	31	0	4
NMTAP	31	96	4
NMTAP	31	192	2
NMTAP	31	192	3
NMTAP	32	0	1
NMTAP	32	96	1
NMTAP	32	192	2
NMTAP	32	288	2
NMTAP	33	0	3
NMTAP	33	96	3
NMTAP	33	192	4
NMTAP	33	192	5
NMTAP	34	0	5
NMTAP	34	96	5
NMTAP	34	192	6
NMTAP	34	288	6
NMTAP	35	0	7
NMTAP	35	96	7
NMTAP	35	192	0
NMTAP	35	192	1
NMTAP	36	0	2
NMTAP	36	96	2
NMTAP	36	192	1
NMTAP	36	288	1
NMTAP	37	0	0
NMTAP	37	96	0
NMTAP	37	192	6
NMTAP	37	192	7
NMTAP	38	0	6
NMTAP	38	96	6
NMTAP	38	192	5
NMTAP	38	288	5
NMTAP	39	0	4
NMTAP	39	96	4
NMTAP	39	192	2
NMTAP	39	192	3
NMTAP	40	0	1
NMTAP	40	96	1
NMTAP	40	192	2
NMTAP	40	288	2
NMTAP	41	0	3
NMTAP	41	96	3
NMTAP	41	192	4
NMTAP	41	192	5
NMHLD	42	0	5	192
NMTAP	42	192	4
NMHLD	43	0	2	192
NMTAP	43	192	3
NMHLD	44	0	5	192
NMTAP	44	192	4
BRTAP	45	0	3
BRTAP	45	0	4
NMHLD	46	0	2	192
NMHLD	46	192	3	192
NMHLD	47	0	4	192
NMTAP	47	192	5
NMHLD	48	0	5	192
NMHLD	48	192	4	192
NMHLD	49	0	3	192
NMTAP	49	192	2
NMHLD	50	0	1	192
NMHLD	50	192	2	192
NMHLD	51	0	3	192
NMTAP	51	192	4
NMHLD	52	0	6	192
NMHLD	52	192	5	192
NMHLD	53	0	4	192
NMTAP	53	192	3
NMTAP	54	0	2
NMTAP	54	96	2
NMTAP	54	192	2
NMTAP	55	0	1
NMTAP	55	96	1
NMTAP	55	192	1
NMTAP	56	0	0
NMTAP	56	96	0
NMTAP	56	192	0
NMTAP	57	0	6
NMTAP	57	0	7
NMTAP	57	192	6
NMTAP	57	192	7
NMTAP	58	0	5
NMTAP	58	96	5
NMTAP	58	192	5
NMTAP	59	0	6
NMTAP	59	96	6
NMTAP	59	192	6
NMTAP	60	0	7
NMTAP	60	96	7
NMTAP	60	192	7
NMTAP	61	0	0
NMTAP	61	0	1
NMTAP	61	192	0
NMTAP	61	192	1
NMSTR	62	0	1
NMSI_	62	0	1	96	288	4
NMSTR	64	0	6
NMSI_	64	0	6	96	288	3
NMSTR	66	0	1
NMSI_	66	0	1	96	288	5
NMSTR	68	0	7
NMSI_	68	0	7	96	288	3
NMTAP	70	0	2
NMTAP	70	96	2
NMTAP	70	192	2
NMTAP	70	192	3
NMTAP	71	0	1
NMTAP	71	96	1
NMTAP	71	192	0
NMTAP	71	192	1
NMTAP	72	0	7
NMTAP	72	96	7
NMTAP	72	192	6
NMTAP	72	192	7
NMTAP	73	0	4
NMTAP	73	0	5
NMTAP	73	96	4
NMTAP	73	96	5
NMTAP	73	192	4
NMTAP	73	192	5
NMTAP	74	0	5
NMTAP	74	96	5
NMTAP	74	192	4
NMTAP	74	192	5
NMTAP	75	0	6
NMTAP	75	96	6
NMTAP	75	192	6
NMTAP	75	192	7
NMTAP	76	0	0
NMTAP	76	96	0
NMTAP	76	192	0
NMTAP	76	192	1
NMTAP	77	0	2
NMTAP	77	0	3
NMTAP	77	96	2
NMTAP	77	96	3
NMTAP	77	192	2
NMTAP	77	192	3
NMTTP	78	0	1	B	0	L1
NMTTP	78	96	2	B	0	L1
NMTTP	78	192	3	B	0	L1
NMTTP	79	0	6	B	0	L1
NMTTP	79	96	5	B	0	L1
NMTTP	79	192	4	B	0	L1
NMTTP	80	0	1	B	0	L1
NMTTP	80	96	2	B	0	L1
NMTTP	80	192	3	B	0	L1
NMTTP	80	288	4	B	0	L1
NMTTP	81	0	0	C	0	L1
NMTTP	82	0	7	B	0	L1
NMTTP	82	96	6	B	0	L1
NMTTP	82	192	4	B	0	L1
NMTTP	82	192	5	B	0	L1
NMTTP	83	0	0	B	0	L1
NMTTP	83	96	1	B	0	L1
NMTTP	83	192	2	B	0	L1
NMTTP	83	192	3	B	0	L1
NMTTP	84	0	6	B	0	L1
NMTTP	84	96	5	B	0	L1
NMTTP	84	192	4	B	0	L1
NMTTP	84	288	3	B	0	L1
NMTHO	85	0	0	384	C	1	L1
EXTAP	87	0	7
EXTAP	87	96	7
EXTAP	87	192	0
EXTAP	87	192	7
EXTAP	87	288	0
EXTAP	87	288	7
NMTAP	88	0	1
NMTAP	88	96	1
NMTAP	88	192	0
NMTAP	88	192	1
NMTAP	89	0	2
NMTAP	89	96	2
NMTAP	89	192	0
NMTAP	89	192	1
NMTAP	89	288	0
NMTAP	89	288	1
NMTAP	90	0	7
NMTAP	90	96	7
NMTAP	90	192	6
NMTAP	90	192	7
NMTAP	91	0	6
NMTAP	91	96	6
NMTAP	91	192	4
NMTAP	91	192	5
NMTAP	91	288	4
NMTAP	91	288	5
NMTAP	92	0	3
NMTAP	92	96	3
NMTAP	92	192	2
NMTAP	92	192	3
NMTAP	93	0	1
NMTAP	93	96	1
NMTAP	93	192	2
NMTAP	93	192	3
NMTAP	93	288	2
NMTAP	93	288	3
NMTAP	94	0	4
NMTAP	94	96	4
NMTAP	94	192	4
NMTAP	94	192	5
NMTAP	95	0	5
NMTAP	95	96	5
NMTAP	95	192	6
NMTAP	95	192	7
NMTAP	95	288	6
NMTAP	95	288	7
NMTAP	96	0	0
NMTAP	96	96	0
NMTAP	96	192	0
NMTAP	96	192	1
NMTAP	96	288	0
NMTAP	96	288	1
NMTAP	97	0	2
NMTAP	97	96	2
NMTAP	97	192	0
NMTAP	97	192	1
NMTAP	97	288	0
NMTAP	97	288	1
NMTAP	98	0	7
NMTAP	98	96	7
NMTAP	98	192	6
NMTAP	98	192	7
NMTAP	99	0	6
NMTAP	99	96	6
NMTAP	99	192	4
NMTAP	99	192	5
NMTAP	99	288	4
NMTAP	99	288	5
NMTAP	100	0	3
NMTAP	100	96	3
NMTAP	100	192	2
NMTAP	100	192	3
NMTAP	100	288	2
NMTAP	100	288	3
NMTAP	101	0	1
NMTAP	101	96	1
NMTAP	101	192	2
NMTAP	101	192	3
NMTAP	101	288	2
NMTAP	101	288	3
NMTAP	102	0	4
NMTAP	102	96	4
NMTAP	102	192	4
NMTAP	102	192	5
NMTAP	103	0	5
NMTAP	103	96	5
NMTAP	103	192	5
NMTAP	103	288	4
NMTAP	103	288	5
NMTAP	104	0	6
NMTAP	104	96	6
NMTAP	104	192	6
NMTAP	104	288	6
NMTAP	104	288	7
NMTAP	105	0	0
NMTAP	105	96	0
NMTAP	105	192	0
NMTAP	105	288	0
NMTAP	105	288	1
NMTAP	106	0	2
NMTAP	106	0	3
NMTAP	106	96	2
NMTAP	106	96	3
NMTAP	106	192	2
NMTAP	106	192	3
NMTAP	107	0	2
NMTAP	107	96	2
NMTAP	107	192	2
NMTAP	107	288	2
NMTAP	107	288	3
NMTAP	108	0	1
NMTAP	108	96	1
NMTAP	108	192	1
NMTAP	108	288	0
NMTAP	108	288	1
NMTAP	109	0	7
NMTAP	109	96	7
NMTAP	109	192	7
NMTAP	109	288	6
NMTAP	109	288	7
NMTAP	110	0	4
NMTAP	110	0	5
NMTAP	110	96	4
NMTAP	110	96	5
NMTAP	110	192	4
NMTAP	110	192	5
NMTAP	111	0	4
NMTAP	111	0	5
NMTAP	111	96	4
NMTAP	111	96	5
NMTAP	111	192	3
NMTAP	111	192	6
NMTAP	112	0	6
NMTAP	112	0	7
NMTAP	112	96	6
NMTAP	112	96	7
NMTAP	112	192	0
NMTAP	112	192	5
NMTAP	113	0	0
NMTAP	113	0	1
NMTAP	113	96	0
NMTAP	113	96	1
NMTAP	113	192	2
NMTAP	113	192	7
NMTAP	114	0	2
NMTAP	114	0	3
NMTAP	114	96	2
NMTAP	114	96	3
NMTAP	114	192	1
NMTAP	114	192	4
NMTTP	115	0	0	C	1	L1
NMTTP	115	0	1	B	0	L1
NMTTP	115	0	2	B	0	L1
NMTTP	115	0	5	B	0	L1
NMTTP	115	0	6	B	0	L1

T_REC_TAP	328
T_REC_BRK	2
T_REC_XTP	6
T_REC_BXX	1
T_REC_HLD	15
T_REC_XHO	0
T_REC_BHO	0
T_REC_BXH	0
T_REC_STR	7
T_REC_BST	0
T_REC_XST	0
T_REC_XBS	0
T_REC_TTP	28
T_REC_THO	1
T_REC_SLD	7
T_REC_BSL	0
T_REC_ALL	395
T_NUM_TAP	369
T_NUM_BRK	3
T_NUM_HLD	16
T_NUM_SLD	7
T_NUM_ALL	395
T_JUDGE_TAP	372
T_JUDGE_HLD	68
T_JUDGE_SLD	7
T_JUDGE_ALL	447
TTM_EACHPAIRS	81
TTM_SCR_TAP	184500
TTM_SCR_BRK	7800
TTM_SCR_HLD	16000
TTM_SCR_SLD	10500
TTM_SCR_ALL	218800
TTM_SCR_S	211950
TTM_SCR_SS	218500
TTM_RAT_ACV	10013

