VERSION	0.00.00	1.04.00
FES_MODE	0
BPM_DEF	102.000	204.000	204.000	102.000
MET_DEF	4	4
RESOLUTION	384
CLK_DEF	384
COMPATIBLE_CODE	MA2

BPM	0	0	102.000
BPM	6	0	204.000
MET	0	0	4	4

NMHLD	1	0	5	384
NMTTP	1	64	3	E	0	M1
NMTTP	1	128	3	B	0	M1
NMTTP	1	192	4	B	0	M1
NMHLD	2	0	2	384
NMTTP	2	64	5	E	0	M1
NMTTP	2	128	4	B	0	M1
NMTTP	2	192	3	B	0	M1
NMHLD	3	0	5	390
NMTTP	3	64	4	E	0	M1
NMTTP	3	128	4	B	0	M1
NMTTP	3	192	5	B	0	M1
EXHLD	4	6	2	752
NMTTP	4	96	6	E	0	M1
NMTTP	4	198	4	B	0	M1
EXHLD	4	326	3	432
EXTAP	5	378	1
EXTAP	5	378	4
EXHLD	6	0	0	672
EXHLD	6	0	5	672
BXSTR	8	0	4
BRSSL	8	0	4	96	384	0
NMTTP	9	192	2	B	0	M1
NMTTP	9	192	2	E	0	M1
NMTTP	9	192	2	A	0	M1
NMTTP	9	192	3	B	0	M1
NMTTP	9	192	3	E	0	M1
NMTTP	9	192	3	A	0	M1
NMTAP	10	0	4
NMHLD	10	0	5	192
NMTAP	10	96	6
NMHLD	10	192	4	192
NMTAP	10	288	7
NMHLD	11	0	5	64
NMHLD	11	96	6	64
NMTAP	11	192	7
NMTAP	11	288	4
NMTAP	11	288	6
NMTAP	12	0	3
NMTAP	12	64	3
NMHLD	12	96	5	64
NMTAP	12	192	4
NMTAP	12	256	4
NMHLD	12	288	6	64
NMHLD	13	0	5	64
NMTAP	13	96	4
NMTAP	13	192	3
NMSTR	13	192	5
NMSI_	13	192	5	96	48	2
NMHLD	14	0	1	96
NMTAP	14	192	0
NMTAP	14	192	2
NMTAP	14	288	1
NMTAP	14	288	3
NMTAP	15	0	0
NMTAP	15	0	2
NMHLD	15	96	1	64
NMHLD	15	192	2	64
NMTAP	15	288	3
NMTAP	16	0	4
NMTAP	16	64	4
NMHLD	16	96	2	96
NMTAP	16	192	3
NMTAP	16	256	3
NMSTR	16	288	1
NMSCR	16	288	1	96	96	2
CNSV_	17	96	2	0	48	5
NMSTR	17	192	7
NMSI_	17	192	7	96	48	3
EXTAP	17	288	7
EXTAP	18	0	2
EXTAP	18	0	4
EXTAP	18	60	2
EXTAP	18	60	4
EXTAP	18	132	3
EXTAP	18	132	5
EXTAP	18	192	3
EXTAP	18	192	5
EXTAP	18	288	0
EXTAP	18	288	7
NMHLD	19	0	1	64
NMHLD	19	96	3	64
NMTAP	19	192	4
NMTAP	19	288	4
NMTAP	19	288	6
NMTAP	20	0	5
NMTAP	20	64	5
NMTAP	20	96	3
NMTAP	20	160	3
NMTAP	20	192	4
NMTAP	20	256	4
NMTAP	20	288	2
NMTAP	20	352	2
NMTAP	21	0	3
NMTAP	21	64	3
NMTAP	21	96	1
NMTAP	21	160	1
NMSTR	21	192	2
NMSCL	21	192	2	96	96	5
NMTTP	22	0	0	C	0	M1
NMTTP	22	0	3	B	0	M1
NMTTP	22	0	4	B	0	M1
NMSTR	22	192	1
NMSI_	22	192	1	96	48	5
NMTAP	22	288	7
NMHLD	23	0	6	64
NMHLD	23	96	4	64
NMTAP	23	192	3
NMTAP	23	288	1
NMTAP	23	288	3
NMTAP	24	0	2
NMTAP	24	64	2
NMTAP	24	96	4
NMTAP	24	160	4
NMTAP	24	192	3
NMTAP	24	256	3
NMTAP	24	288	5
NMTAP	24	352	5
NMTTP	25	0	2	E	0	M1
NMTTP	25	32	2	B	0	M1
NMTTP	25	64	3	B	0	M1
NMTTP	25	96	6	E	0	M1
NMTTP	25	128	5	B	0	M1
NMTTP	25	160	4	B	0	M1
NMTTP	25	192	0	B	0	M1
NMTTP	25	192	0	E	0	M1
NMTTP	25	192	7	B	0	M1
BRTAP	25	288	1
BRTAP	25	288	6
NMSTR	26	0	6
NMSI_	26	0	6	96	48	3
EXTAP	26	96	0
EXTAP	26	96	6
NMSTR	26	192	7
NMSI_	26	192	7	96	48	2
EXTAP	26	288	5
EXTAP	26	288	7
NMSTR	27	0	6
NMSI_	27	0	6	96	48	1
EXTAP	27	96	3
EXTAP	27	96	6
NMSTR	27	192	2
NMSCR	27	192	2	96	48	5
EXTAP	27	288	0
EXTAP	27	288	2
NMSTR	28	0	7
NMSI_	28	0	7	96	48	3
EXTAP	28	96	3
EXTAP	28	96	7
NMSTR	28	192	1
NMSUL	28	192	1	96	48	5
EXTAP	28	288	1
EXTAP	28	288	4
NMSTR	29	0	3
NMSCR	29	0	3	96	48	6
EXTAP	29	96	0
EXTAP	29	96	3
NMHLD	29	192	7	48
EXTAP	29	288	0
EXTAP	29	288	6
NMTAP	30	0	5
NMTAP	30	48	4
NMTAP	30	96	3
NMTAP	30	144	2
NMTAP	30	192	0
NMTAP	30	192	1
NMTAP	30	240	7
NMTAP	30	288	6
NMTAP	30	336	5
NMTAP	31	0	2
NMTAP	31	0	4
NMTAP	31	48	1
NMTAP	31	48	5
NMTAP	31	96	0
NMSTR	31	96	6
BRSSR	31	96	6	96	96	2
NMTAP	31	144	7
NMSTR	31	288	1
NMSCR	31	288	1	96	96	5
NMSTR	32	0	5
NMSCR	32	0	5	96	96	0
NMSTR	32	96	0
NMSCR	32	96	0	96	96	2
NMTAP	32	192	3
NMTAP	32	288	3
EXTAP	33	0	4
EXTAP	33	0	6
EXTAP	33	60	0
EXTAP	33	60	7
EXTAP	33	120	1
EXTAP	33	120	3
BRTAP	33	192	2
BRSTR	33	192	5
BRSI_	33	192	5	96	48	1
EXTAP	34	0	2
NMTAP	34	96	2
NMTAP	34	96	3
NMHLD	34	192	1	240
NMTAP	34	240	3
NMTAP	34	288	4
NMTAP	34	336	5
NMTAP	35	48	7
NMTAP	35	96	6
NMTAP	35	144	3
NMTAP	35	144	5
NMTAP	35	240	3
NMTAP	35	240	4
NMSTR	35	288	5
NMSUR	35	288	5	96	144	3
NMTAP	35	336	6
NMHLD	36	0	7	96
NMHLD	36	192	6	240
NMTAP	36	240	4
NMTAP	36	288	3
NMTAP	36	336	2
NMTAP	37	48	0
NMTAP	37	96	1
NMTAP	37	144	2
NMTAP	37	144	4
NMTAP	37	240	3
NMTAP	37	240	4
NMSTR	37	288	2
NMSUL	37	288	2	96	144	4
NMTAP	37	336	1
NMHLD	38	0	0	96
NMHLD	38	192	1	528
EXTAP	38	240	7
NMTAP	38	264	6
NMTAP	38	288	5
NMTAP	38	312	4
EXTAP	38	336	3
EXTAP	39	48	3
NMTAP	39	72	4
NMTAP	39	96	5
NMTAP	39	120	6
EXTAP	39	144	7
EXTAP	39	240	7
NMTAP	39	264	6
NMTAP	39	288	5
NMTAP	39	312	4
EXTAP	39	336	3
NMTTP	40	0	1	A	0	M1
NMTTP	40	16	2	D	0	M1
NMTTP	40	32	2	A	0	M1
NMTTP	40	48	3	D	0	M1
NMTTP	40	64	3	A	0	M1
NMTTP	40	80	4	D	0	M1
NMTTP	40	96	4	A	0	M1
NMHLD	40	192	6	336
EXTAP	40	240	0
NMTAP	40	264	1
NMTAP	40	288	2
NMTAP	40	312	3
EXTAP	40	336	4
EXTAP	41	48	4
NMTAP	41	72	3
NMTAP	41	96	2
NMTAP	41	120	1
EXTAP	41	144	0
EXTAP	41	192	0
EXTAP	41	192	5
NMSTR	41	288	6
NMSCL	41	288	6	96	24	5
NMSTR	41	288	7
NMSCR	41	288	7	96	24	0
CNSI_	42	24	0	0	72	3
CNSI_	42	24	5	0	72	2
EXHLD	42	192	2	288
EXTAP	42	192	5
NMTAP	42	216	6
NMTAP	42	240	7
NMTAP	42	264	0
EXTAP	42	288	1
EXTAP	43	0	1
NMTAP	43	24	0
NMTAP	43	48	7
NMTAP	43	72	6
EXTAP	43	96	5
NMTAP	43	192	3
NMTAP	43	240	4
NMTAP	43	240	5
NMTAP	43	288	6
NMTAP	43	336	7
NMSTR	44	0	0
NMSI_	44	0	0	96	48	4
EXTAP	44	192	2
EXHLD	44	192	5	288
NMTAP	44	216	1
NMTAP	44	240	0
NMTAP	44	264	7
EXTAP	44	288	6
EXTAP	45	0	6
NMTAP	45	24	7
NMTAP	45	48	0
NMTAP	45	72	1
EXSTR	45	96	2
NMSSL	45	96	2	96	96	6
BRHLD	46	0	5	96
BRHLD	46	0	7	96
EXTAP	46	192	3
EXTAP	46	192	5
EXTAP	46	264	2
EXTAP	46	264	4
EXTAP	46	336	1
EXTAP	46	336	3
EXTAP	47	0	1
EXTAP	47	0	3
EXTAP	47	72	2
EXTAP	47	72	4
EXTAP	47	144	3
EXTAP	47	144	5
NMSTR	47	192	4
NMSI_	47	192	4	96	48	1
NMSTR	47	192	6
NMSI_	47	192	6	96	48	3
BRTAP	48	0	0
BRTAP	48	0	2
BRTAP	48	72	3
BRTAP	48	72	4
BRTAP	48	144	5
BRTAP	48	144	7
BRTAP	48	192	5
BRTAP	48	192	7
BRTAP	48	264	3
BRTAP	48	264	4
BRTAP	48	336	0
BRTAP	48	336	2
BRSTR	49	0	0
BRSLL	49	0	0	96	96	4
BRSTR	49	0	2
BRSLL	49	0	2	96	96	6
NMTTP	49	192	4	A	1	M1
NMTTP	49	192	5	D	0	M1
EXSTR	50	0	5
NMSCR	50	0	5	96	1248	2
NMTTP	50	192	3	E	0	M1
NMTTP	51	0	2	E	0	M1
NMTTP	51	192	1	E	0	M1
NMTTP	52	0	0	E	0	M1
NMTTP	52	192	7	E	0	M1
NMTTP	53	0	6	E	0	M1
NMTTP	53	192	5	E	0	M1
NMSTR	54	0	3
NMSCL	54	0	3	96	1248	4
NMTTP	54	192	5	A	0	M1
NMTTP	55	0	6	A	0	M1
NMTTP	55	192	7	A	0	M1
NMTTP	56	0	0	A	0	M1
NMTTP	56	192	1	A	0	M1
NMTTP	57	0	2	A	0	M1
NMTTP	57	192	3	A	0	M1
NMHLD	58	0	1	64
NMTAP	58	0	4
NMSTR	58	96	3
NMSI_	58	96	3	96	48	5
NMTAP	58	192	0
NMTAP	58	288	2
NMTAP	59	0	3
NMHLD	59	0	6	64
NMSTR	59	96	4
NMSI_	59	96	4	96	48	2
NMTAP	59	192	7
NMTAP	59	288	5
NMHLD	60	0	1	64
NMTAP	60	0	4
NMTAP	60	96	3
NMTAP	60	192	5
NMSTR	60	192	7
NMSCL	60	192	7	96	192	2
NMHLD	60	288	4	192
NMTAP	61	192	5
NMTAP	61	256	5
NMTAP	61	288	4
NMTAP	61	288	6
NMHLD	62	0	2	64
NMTAP	62	0	7
NMSTR	62	96	0
NMSI_	62	96	0	96	48	6
NMTAP	62	192	3
NMTAP	62	288	1
NMTAP	63	0	0
NMHLD	63	0	5	64
NMSTR	63	96	7
NMSI_	63	96	7	96	48	1
NMTAP	63	192	4
NMTAP	63	288	6
NMHLD	64	0	2	64
NMTAP	64	0	7
NMTAP	64	96	0
NMSTR	64	192	3
NMSXR	64	192	3	96	192	7
NMTAP	64	192	5
NMHLD	64	288	4	96
BRHLD	65	192	4	96
BRHLD	65	192	5	96
NMTAP	66	0	3
NMTAP	66	0	6
NMSTR	66	96	5
NMSLR	66	96	5	96	144	3
NMSTR	66	192	0
NMSI_	66	192	0	96	48	2
NMTAP	66	192	5
NMTAP	67	0	4
NMSTR	67	96	2
NMSLL	67	96	2	96	144	4
NMTAP	67	192	2
NMSTR	67	192	7
NMSI_	67	192	7	96	48	5
NMTAP	68	0	3
NMTAP	68	96	2
NMTAP	68	160	2
NMTAP	68	192	4
NMTAP	68	256	4
NMSTR	68	288	1
NMSCL	68	288	1	96	96	4
NMTAP	69	192	5
NMTAP	69	256	5
NMTAP	69	288	4
NMTAP	69	288	6
NMTAP	70	0	2
NMTAP	70	0	7
NMSTR	70	96	6
NMSLL	70	96	6	96	144	0
NMSTR	70	192	3
NMSI_	70	192	3	96	48	1
NMTAP	70	192	6
NMTAP	71	0	7
NMSTR	71	96	1
NMSLR	71	96	1	96	144	7
NMTAP	71	192	1
NMSTR	71	192	4
NMSI_	71	192	4	96	48	6
NMTAP	72	0	0
NMTAP	72	96	1
NMTAP	72	160	1
NMTAP	72	192	3
NMTAP	72	256	3
NMTAP	72	288	4
NMTAP	72	352	4
NMSTR	73	0	6
NMSI_	73	0	6	96	48	2
NMTAP	73	288	0
NMTAP	73	288	7
NMHLD	74	0	1	48
NMHLD	74	0	5	48
NMHLD	74	96	1	48
NMHLD	74	96	7	48
NMHLD	74	192	1	48
NMHLD	74	192	5	48
NMHLD	74	288	1	48
NMHLD	74	288	3	48
NMHLD	75	0	3	48
NMHLD	75	0	7	48
NMHLD	75	96	3	48
NMHLD	75	96	5	48
NMHLD	75	192	3	48
NMHLD	75	192	7	48
NMHLD	75	288	1	48
NMHLD	75	288	3	48
NMHLD	76	0	2	48
NMHLD	76	0	3	48
NMHLD	76	96	1	48
NMHLD	76	96	7	48
NMHLD	76	192	5	48
NMHLD	76	192	7	48
NMHLD	76	288	3	48
NMHLD	76	288	5	48
NMHLD	77	0	1	48
NMHLD	77	0	3	48
NMHLD	77	96	5	48
NMHLD	77	96	7	48
BRHLD	77	192	4	48
BRHLD	77	192	6	48
BXTAP	77	288	4
BXTAP	77	288	6
NMSTR	78	0	3
NMSCL	78	0	3	96	48	0
NMTAP	78	48	3
NMSTR	78	96	5
NMSI_	78	96	5	96	48	0
NMTAP	78	144	5
NMSTR	78	192	1
NMSCR	78	192	1	96	48	4
NMTAP	78	240	1
NMSTR	78	288	6
NMSI_	78	288	6	96	48	3
NMTAP	78	336	6
NMSTR	79	0	1
NMSUR	79	0	1	96	48	5
NMTAP	79	48	1
NMSTR	79	96	0
NMSI_	79	96	0	96	48	4
NMTAP	79	144	0
NMSTR	79	192	7
NMSI_	79	192	7	96	48	3
NMTAP	79	240	7
NMSTR	79	288	6
NMSCL	79	288	6	96	96	0
NMTAP	79	336	6
CNSLR	80	96	0	0	192	4
EXTAP	81	0	5
EXTAP	81	0	7
EXTAP	81	60	0
EXTAP	81	60	4
EXTAP	81	120	1
EXTAP	81	120	3
BRTAP	81	192	0
BRTAP	81	192	7
NMHLD	82	0	1	96
NMSTR	82	96	2
NMSI_	82	96	2	96	48	5
NMSI_	82	96	2	96	48	7
NMHLD	83	0	6	96
NMSTR	83	96	5
NMSV_	83	96	5	96	48	0
NMSV_	83	96	5	96	48	2
BRTAP	84	0	1
BRTAP	84	0	3
BRTAP	84	64	4
BRTAP	84	64	6
BRTAP	84	128	0
BRTAP	84	128	7
BRTAP	84	192	1
BRTAP	84	192	2
BRTAP	84	256	3
BRTAP	84	256	4
BRTAP	84	320	5
BRTAP	84	320	6
BRSTR	85	0	0
BRSCR	85	0	0	96	48	3
BRSTR	85	0	7
BRSCL	85	0	7	96	48	4
NMTTP	85	192	0	B	0	M1
NMTTP	85	192	0	C	0	M1
NMTTP	85	192	0	E	1	M1
NMTTP	85	192	0	A	0	M1
NMTTP	85	192	0	D	0	M1
NMTTP	85	192	4	D	0	M1
NMTTP	85	192	7	B	0	M1
NMTTP	85	192	7	A	0	M1
EXHLD	86	96	2	0
EXHLD	86	192	3	0
EXHLD	86	288	4	0
EXHLD	87	0	5	0
EXHLD	87	96	6	0
EXSTR	87	192	7
NMSF_	87	192	7	96	48	3
EXHLD	88	0	1	288
EXHLD	88	0	5	288
BRTAP	89	0	0
BRTAP	89	0	6
BRTAP	89	64	1
BRTAP	89	64	7
BRSTR	89	128	0
BRSI_	89	128	0	96	48	4
BRSTR	89	128	6
BRSI_	89	128	6	96	48	2
NMHLD	90	0	3	96
NMSTR	90	0	5
NMSI_	90	0	5	96	48	1
NMTAP	90	96	5
EXTAP	90	192	2
EXTAP	90	192	3
NMTAP	90	264	0
NMTAP	90	264	7
NMTAP	90	336	4
NMTAP	90	336	5
NMSTR	91	0	1
NMSUR	91	0	1	96	48	5
NMTAP	91	0	3
NMTAP	91	96	7
NMTAP	91	144	7
NMSTR	91	192	6
NMSI_	91	192	6	96	48	3
NMTAP	91	288	2
NMTAP	91	336	2
NMSTR	92	0	1
NMSCL	92	0	1	96	48	6
NMTAP	92	96	5
NMSTR	92	144	5
NMSCL	92	144	5	96	48	2
NMTAP	92	240	7
NMSTR	92	288	7
NMSSR	92	288	7	96	96	3
NMTAP	93	96	5
EXTAP	93	192	0
EXTAP	93	192	7
NMTAP	93	264	1
NMTAP	93	264	3
NMTAP	93	336	4
NMTAP	93	336	6
EXSTR	94	0	3
NMSCR	94	0	3	96	96	7
NMTAP	94	24	2
NMTAP	94	48	1
NMTAP	94	72	0
NMTAP	94	96	7
NMTAP	94	288	1
NMTAP	94	336	1
NMSTR	95	0	0
NMSI_	95	0	0	96	48	4
NMTAP	95	96	7
NMTAP	95	192	1
NMTAP	95	192	5
NMTAP	95	240	2
NMTAP	95	240	6
NMTAP	95	288	3
NMTAP	95	288	7
NMTAP	95	336	2
NMTAP	95	336	6
EXSTR	96	0	1
NMSCL	96	0	1	96	48	6
EXTAP	96	0	5
EXTAP	96	96	5
EXTAP	96	112	4
EXTAP	96	128	3
EXTAP	96	144	2
NMSTR	96	288	3
NMSI_	96	288	3	96	48	6
NMSTR	96	288	7
NMSI_	96	288	7	96	48	2
BRTAP	97	0	3
BRTAP	97	0	7
NMTAP	97	96	1
NMTAP	97	96	5
NMSTR	97	192	0
NMSF_	97	192	0	96	48	4
NMTAP	97	288	0
BRHLD	98	0	2	96
BRHLD	98	0	6	192
EXSTR	98	192	3
NMSCR	98	192	3	96	96	7
NMSTR	98	288	7
NMSCR	98	288	7	96	96	3
NMSTR	99	0	3
NMSUR	99	0	3	96	96	7
NMSTR	99	96	7
NMSLR	99	96	7	96	96	3
NMTAP	99	192	3
NMTAP	99	288	7
NMSTR	100	0	6
NMSCR	100	0	6	96	96	2
NMSTR	100	96	2
NMSLL	100	96	2	96	96	5
NMSTR	100	192	5
NMSCR	100	192	5	96	96	2
NMTAP	100	288	2
NMTAP	101	0	3
NMTAP	101	96	4
NMTAP	101	96	5
NMTAP	101	192	6
NMTAP	101	216	7
NMTAP	101	240	6
NMTAP	101	264	7
NMHLD	101	288	5	96
NMTAP	102	0	0
NMTAP	102	24	1
NMTAP	102	48	2
NMTAP	102	72	3
NMTAP	102	96	4
NMTAP	102	192	6
NMTAP	102	192	7
NMTAP	102	264	3
NMTAP	102	264	4
NMTAP	102	336	0
NMTAP	102	336	1
BRTAP	103	0	2
BRTAP	103	0	7
BRTAP	103	72	4
BRTAP	103	72	5
BRTAP	103	144	2
BRTAP	103	144	3
BRTAP	103	192	1
BRTAP	103	192	4
BRTAP	103	288	0
BRTAP	103	288	7
BRTAP	104	0	1
BXSTR	104	72	1
BRSI_	104	72	1	96	48	4
EXTAP	104	144	5
EXTAP	104	160	6
EXTAP	104	176	7
BXTAP	104	192	0
BXSTR	104	264	0
BRSI_	104	264	0	96	48	5
EXTAP	104	336	4
EXTAP	104	352	3
EXTAP	104	368	2
BXTAP	105	0	1
NMTAP	105	192	0
NMTAP	105	192	7
NMTAP	105	288	2
NMTAP	105	288	5
BRSTR	106	0	0
NMSI_	106	0	0	96	48	6
BRSTR	106	0	7
NMSI_	106	0	7	96	48	1
CNSI_	106	144	1	0	48	5
CNSI_	106	144	6	0	48	2
CNSI_	106	192	2	0	48	4
CNSI_	106	192	5	0	48	3
CNSI_	106	240	3	0	48	5
CNSI_	106	240	4	0	48	2
CNSI_	106	288	2	0	48	6
CNSI_	106	288	5	0	48	1
CNSI_	106	336	1	0	336	7
CNSI_	106	336	6	0	336	0
BRTAP	108	0	0
NMTAP	108	24	4
NMTAP	108	48	0
NMTAP	108	72	4
NMTAP	108	96	0
NMTAP	108	120	4
NMTAP	108	144	0
NMTAP	108	168	4
BRTAP	108	192	7
NMTAP	108	216	3
NMTAP	108	240	7
NMTAP	108	264	3
NMTAP	108	288	7
NMTAP	108	312	3
NMTAP	108	336	7
NMTAP	108	360	3
NMTAP	109	0	7
NMSTR	109	96	2
NMSI_	109	96	2	96	48	5
NMSTR	109	96	6
NMSI_	109	96	6	96	48	1
EXTAP	109	192	2
EXTAP	109	192	6

T_REC_TAP	254
T_REC_BRK	48
T_REC_XTP	90
T_REC_BXX	4
T_REC_HLD	65
T_REC_XHO	13
T_REC_BHO	8
T_REC_BXH	0
T_REC_STR	68
T_REC_BST	9
T_REC_XST	6
T_REC_XBS	3
T_REC_TTP	60
T_REC_THO	0
T_REC_SLD	77
T_REC_BSL	11
T_REC_ALL	716
T_NUM_TAP	478
T_NUM_BRK	83
T_NUM_HLD	78
T_NUM_SLD	77
T_NUM_ALL	716
T_JUDGE_TAP	542
T_JUDGE_HLD	293
T_JUDGE_SLD	88
T_JUDGE_ALL	923
TTM_EACHPAIRS	137
TTM_SCR_TAP	239000
TTM_SCR_BRK	215800
TTM_SCR_HLD	78000
TTM_SCR_SLD	115500
TTM_SCR_ALL	648300
TTM_SCR_S	620800
TTM_SCR_SS	640000
TTM_RAT_ACV	10129

