VERSION	0.00.00	1.04.00
FES_MODE	0
BPM_DEF	102.000	204.000	204.000	102.000
MET_DEF	4	4
RESOLUTION	384
CLK_DEF	384
COMPATIBLE_CODE	MA2

BPM	0	0	102.000
BPM	6	0	204.000
MET	0	0	4	4

BXSTR	6	0	0
BRSXL	6	0	0	96	480	3
BXSTR	6	0	7
NMSXR	6	0	7	96	480	4
BXSTR	8	0	3
BRSSR	8	0	3	96	288	7
BXSTR	8	0	4
NMSSL	8	0	4	96	288	0
BXTAP	9	192	1
BXTAP	9	192	6
NMHLD	10	0	2	384
NMTAP	10	192	3
NMTAP	10	288	4
NMHLD	11	0	4	288
NMTAP	11	192	3
NMTAP	11	288	2
NMTAP	12	0	1
NMTAP	12	64	1
NMTAP	12	96	3
NMTAP	12	160	3
NMTAP	12	192	2
NMTAP	12	256	2
NMTAP	12	288	4
NMTAP	12	352	4
NMTAP	13	0	3
NMTAP	13	64	3
NMTAP	13	96	5
NMTAP	13	160	5
NMTAP	13	192	4
NMTAP	13	288	4
NMTAP	13	288	5
NMHLD	14	0	5	384
NMTAP	14	192	4
NMTAP	14	288	3
NMHLD	15	0	3	288
NMTAP	15	192	4
NMTAP	15	288	5
NMTAP	16	0	6
NMTAP	16	64	6
NMTAP	16	96	4
NMTAP	16	160	4
NMTAP	16	192	5
NMTAP	16	256	5
NMTAP	16	288	3
NMTAP	16	352	3
NMTAP	17	0	4
NMTAP	17	64	4
NMTAP	17	96	2
BRTAP	17	192	1
BRTAP	17	192	3
NMHLD	18	0	3	384
NMTAP	18	192	2
NMTAP	18	288	1
NMHLD	19	0	0	288
NMTAP	19	192	1
NMTAP	19	288	2
NMTAP	20	0	3
NMTAP	20	64	3
NMTAP	20	96	2
NMTAP	20	160	2
NMTAP	20	192	1
NMTAP	20	256	1
NMTAP	20	288	0
NMTAP	20	352	0
NMTAP	21	0	7
NMTAP	21	64	7
NMTAP	21	96	6
NMTAP	21	160	6
NMTAP	21	192	5
NMTAP	21	288	4
NMTAP	21	288	5
NMHLD	22	0	4	384
NMTAP	22	192	5
NMTAP	22	288	6
NMHLD	23	0	7	288
NMTAP	23	192	6
NMTAP	23	288	5
NMTAP	24	0	4
NMTAP	24	64	4
NMTAP	24	96	5
NMTAP	24	160	5
NMTAP	24	192	6
NMTAP	24	256	6
NMTAP	24	288	7
NMTAP	24	352	7
NMTAP	25	0	0
NMSTR	25	96	0
NMSI_	25	96	0	96	96	3
NMSTR	25	96	7
NMSI_	25	96	7	96	96	4
NMTAP	26	0	3
NMTAP	26	0	4
NMTAP	26	96	3
NMTAP	26	96	4
NMTAP	26	192	2
NMTAP	26	192	3
NMTAP	26	288	2
NMTAP	26	288	3
NMTAP	27	0	1
NMTAP	27	0	2
NMTAP	27	96	1
NMTAP	27	96	2
NMTAP	27	192	0
NMTAP	27	192	1
NMTAP	27	288	0
NMTAP	27	288	1
NMTAP	28	0	0
NMTAP	28	0	7
NMTAP	28	96	0
NMTAP	28	96	7
NMTAP	28	192	6
NMTAP	28	192	7
NMTAP	28	288	6
NMTAP	28	288	7
NMTAP	29	0	5
NMTAP	29	0	6
NMTAP	29	96	5
NMTAP	29	96	6
NMTAP	29	192	4
NMTAP	29	192	5
NMTAP	29	288	4
NMTAP	29	288	5
NMTAP	30	0	3
NMTAP	30	48	3
NMTAP	30	96	3
NMTAP	30	192	4
NMTAP	30	240	4
NMTAP	30	288	4
NMTAP	31	0	3
NMTAP	31	48	3
NMTAP	31	96	3
NMHLD	31	192	4	192
NMTAP	32	0	3
NMTAP	32	24	4
NMTAP	32	48	3
NMTAP	32	72	4
NMTAP	32	96	3
NMTAP	32	120	4
NMTAP	32	144	3
NMTAP	32	168	4
NMTAP	32	192	3
NMTAP	32	288	3
NMTAP	32	288	4
NMTTP	33	0	3	E	0	M1
NMTTP	33	0	5	E	0	M1
NMTTP	33	60	2	E	0	M1
NMTTP	33	60	6	E	0	M1
NMTTP	33	120	1	E	0	M1
NMTTP	33	120	7	E	0	M1
NMTTP	33	192	0	C	1	M1
NMSTR	34	0	1
NMSI_	34	0	1	96	144	6
NMHLD	34	0	7	576
CNSI_	34	240	6	0	144	2
CNSI_	35	0	2	0	96	4
NMTAP	35	192	4
NMTAP	35	288	3
NMTAP	35	288	7
NMHLD	36	0	1	576
NMSTR	36	0	5
NMSV_	36	0	5	96	168	0
CNSLL	36	264	0	0	216	3
NMTAP	37	192	3
NMTAP	37	288	1
NMTAP	37	288	4
NMSTR	38	0	3
NMSXL	38	0	3	96	216	4
NMHLD	38	0	6	576
CNSUL	38	312	4	0	168	0
NMTAP	39	192	0
NMTAP	39	288	0
NMTAP	39	288	7
NMSTR	40	0	0
NMSCR	40	0	0	96	96	3
NMSTR	40	192	7
NMSCL	40	192	7	96	96	4
NMTAP	41	0	3
NMSTR	41	96	2
NMSV_	41	96	2	96	96	3
NMSTR	41	96	5
NMSV_	41	96	5	96	96	4
BRHLD	42	0	1	480
BRTAP	42	0	6
NMSTR	42	192	5
NMSI_	42	192	5	96	48	3
NMSTR	43	0	2
NMSI_	43	0	2	96	48	6
NMTAP	43	192	7
NMTAP	43	288	7
NMTAP	44	0	0
NMHLD	44	0	6	480
NMSTR	44	192	1
NMSI_	44	192	1	96	48	4
NMSTR	45	0	5
NMSI_	45	0	5	96	48	3
NMTAP	45	192	2
NMTAP	45	288	2
BRTAP	46	0	3
BRTAP	46	0	6
NMHLD	46	192	6	72
NMHLD	46	264	4	72
NMTAP	46	336	5
NMHLD	47	0	1	72
NMHLD	47	72	3	72
NMTAP	47	144	2
NMTAP	47	192	1
NMTAP	47	192	4
NMHLD	48	0	5	72
NMHLD	48	72	7	72
NMTAP	48	144	6
NMHLD	48	192	2	72
NMHLD	48	264	0	72
NMTAP	48	336	1
NMTAP	49	0	2
NMTAP	49	0	7
NMTHO	49	192	0	192	C	1	M1
NMTAP	54	0	2
NMSTR	54	0	5
NMSUL	54	0	5	96	480	3
CNSCL	55	192	3	0	576	4
NMTAP	57	192	3
NMTAP	57	192	4
NMTAP	58	0	2
NMTAP	58	0	4
NMTAP	58	96	1
NMTAP	58	192	0
NMTAP	58	192	3
NMTAP	58	288	1
NMTAP	59	0	2
NMTAP	59	0	4
NMTAP	59	96	3
NMTAP	59	192	4
NMTAP	59	240	4
NMTAP	59	288	3
NMTAP	60	0	3
NMTAP	60	0	5
NMTAP	60	96	6
NMTAP	60	192	4
NMTAP	60	192	7
NMTAP	60	288	6
NMTAP	61	0	3
NMTAP	61	0	5
NMTAP	61	96	4
NMTAP	61	192	3
NMTAP	61	240	3
NMTAP	61	288	4
NMTAP	62	0	2
NMTAP	62	0	3
NMTAP	62	96	1
NMTAP	62	192	0
NMTAP	62	192	7
NMTAP	62	288	6
NMTAP	63	0	4
NMTAP	63	0	5
NMTAP	63	96	6
NMTAP	63	192	0
NMTAP	63	192	7
NMTAP	63	288	1
NMTAP	64	0	2
NMTAP	64	0	3
NMTAP	64	96	1
NMTAP	64	96	4
NMTAP	64	192	0
NMTAP	64	192	5
NMTAP	64	288	6
NMSTR	64	288	7
NMSLL	64	288	7	96	192	3
NMSLR	64	288	7	96	192	3
NMHLD	66	0	2	336
NMTAP	66	96	3
NMTTP	66	192	3	E	0	M1
NMTAP	66	336	5
NMHLD	67	0	5	336
NMTAP	67	96	4
NMTTP	67	192	5	E	0	M1
NMTAP	67	336	1
NMHLD	68	0	1	336
NMTAP	68	96	3
NMTTP	68	192	0	C	0	M1
NMTAP	68	336	7
NMTAP	69	0	1
NMTAP	69	0	7
NMTAP	69	96	2
NMTAP	69	96	6
NMTAP	69	192	3
NMTAP	69	192	5
NMTAP	69	240	3
NMTAP	69	240	5
NMTAP	69	288	3
NMTAP	69	288	5
NMHLD	70	0	7	336
NMTAP	70	96	4
NMTTP	70	192	5	B	0	M1
NMTTP	70	192	6	E	0	M1
NMTAP	70	336	0
NMHLD	71	0	0	336
NMTAP	71	96	3
NMTTP	71	192	2	B	0	M1
NMTTP	71	192	2	E	0	M1
NMTAP	71	336	7
NMHLD	72	0	0	96
NMHLD	72	0	7	96
NMHLD	72	144	1	96
NMHLD	72	144	6	96
NMSTR	72	288	2
NMSXR	72	288	2	96	288	3
NMSTR	72	288	5
NMSXL	72	288	5	96	288	4
NMTAP	74	0	3
NMTAP	74	0	4
NMTAP	74	96	4
NMTAP	74	96	5
NMTAP	74	192	5
NMTAP	74	192	6
NMTAP	74	288	6
NMTAP	74	288	7
NMTAP	75	0	0
NMTAP	75	0	7
NMTAP	75	96	0
NMTAP	75	96	1
NMTAP	75	192	1
NMTAP	75	192	2
NMTAP	75	288	2
NMTAP	75	288	3
NMTAP	76	0	3
NMTAP	76	0	4
NMTAP	76	96	2
NMTAP	76	96	3
NMTAP	76	192	1
NMTAP	76	192	2
NMTAP	76	288	0
NMTAP	76	288	1
NMTAP	77	0	0
NMTAP	77	0	7
NMTAP	77	96	6
NMTAP	77	96	7
NMTAP	77	192	5
NMTAP	77	192	6
NMTAP	77	288	4
NMTAP	77	288	5
NMTAP	78	0	3
NMTAP	78	48	3
NMTAP	78	96	3
NMTAP	78	144	3
NMTAP	78	192	4
NMTAP	78	240	4
NMTAP	78	288	4
NMTAP	78	336	4
NMTAP	79	0	3
NMTAP	79	48	3
NMTAP	79	96	4
NMTAP	79	144	4
NMHLD	79	192	3	192
NMTAP	80	0	4
NMTAP	80	24	3
NMTAP	80	48	4
NMTAP	80	72	3
NMTAP	80	96	4
NMTAP	80	120	3
NMTAP	80	144	4
NMTAP	80	168	3
NMTAP	80	192	4
NMTAP	80	288	3
NMTAP	80	288	4
NMTTP	81	0	3	D	0	M1
NMTTP	81	0	5	D	0	M1
NMTTP	81	60	2	D	0	M1
NMTTP	81	60	6	D	0	M1
NMTTP	81	120	1	D	0	M1
NMTTP	81	120	7	D	0	M1
NMTTP	81	192	0	C	1	M1
NMTAP	82	0	1
NMTAP	82	0	7
NMSTR	82	96	1
NMSV_	82	96	1	96	96	4
NMSTR	82	96	7
NMSV_	82	96	7	96	96	4
NMTAP	83	0	3
NMSTR	83	96	3
NMSV_	83	96	3	96	96	0
NMSV_	83	96	3	96	96	6
EXTAP	84	0	1
EXTAP	84	64	2
EXTAP	84	128	3
EXTAP	84	192	4
EXTAP	84	256	5
EXTAP	84	320	6
EXTAP	85	0	0
EXTAP	85	0	7
NMTAP	85	96	1
NMTAP	85	96	6
BRTAP	85	192	0
NMTAP	86	0	1
NMTAP	86	0	6
NMTTP	86	96	7	A	0	M1
NMTTP	86	192	1	E	0	M1
NMTTP	86	288	6	E	0	M1
NMTTP	87	0	3	E	0	M1
NMTTP	87	96	4	A	0	M1
NMTAP	87	192	3
NMTAP	87	192	5
NMTAP	87	288	2
NMSTR	87	288	4
NMSV_	87	288	4	96	128	3
CNSI_	88	128	3	0	96	1
CNSLL	88	224	1	0	160	5
EXTAP	89	0	4
EXTAP	89	64	4
EXTAP	89	128	4
BXTAP	89	192	3
BXTAP	89	192	5
NMSTR	90	0	4
NMSI_	90	0	4	96	48	0
NMSI_	90	0	4	96	48	6
NMHLD	90	192	1	72
NMHLD	90	264	7	72
NMTAP	90	336	0
NMTAP	91	0	0
NMTAP	91	96	2
NMTAP	91	96	3
NMTAP	91	192	4
NMTAP	91	192	6
NMTAP	91	288	0
NMTAP	91	288	1
NMTAP	92	0	0
NMSTR	92	0	1
NMSUR	92	0	1	96	48	5
NMTAP	92	192	6
NMTAP	92	288	4
NMTAP	92	288	5
NMTAP	93	0	6
NMTAP	93	0	7
NMTAP	93	96	0
NMTAP	93	96	1
NMHLD	93	192	2	72
NMHLD	93	264	4	72
NMTAP	93	336	3
NMSTR	94	0	3
NMSI_	94	0	3	96	48	0
NMSTR	94	0	5
NMSI_	94	0	5	96	48	0
NMTAP	94	192	1
NMTAP	94	192	7
NMTAP	94	288	4
NMTAP	94	288	5
NMTAP	95	0	1
NMTAP	95	0	3
NMTAP	95	96	6
NMTAP	95	96	7
NMTAP	95	192	0
NMTAP	95	240	0
NMTAP	95	288	1
NMTAP	95	288	7
NMHLD	96	0	2	96
NMTAP	96	0	6
NMSTR	96	96	7
NMSUL	96	96	7	96	48	3
NMTAP	96	288	1
NMSTR	97	0	0
NMSUR	97	0	0	96	48	4
NMTAP	97	0	5
NMTAP	97	192	5
NMTAP	97	288	0
NMTAP	97	288	7
BRTAP	98	0	1
BRTAP	98	0	6
NMHLD	98	192	0	96
NMTAP	98	288	6
NMHLD	99	0	6	96
NMTAP	99	96	4
NMHLD	99	192	4	96
NMTAP	99	288	2
NMHLD	100	0	2	96
NMTAP	100	96	0
NMHLD	100	192	0	96
NMTAP	100	288	7
NMTAP	101	0	7
NMTAP	101	96	0
NMTAP	101	96	7
NMTAP	101	192	1
NMTAP	101	192	6
NMSTR	101	288	2
NMSCR	101	288	2	96	96	5
NMTAP	101	288	5
NMHLD	102	192	6	72
NMHLD	102	264	5	72
NMTAP	102	336	4
NMHLD	103	0	1	72
NMHLD	103	72	2	72
NMTAP	103	144	3
BRTAP	103	192	3
BRTAP	103	192	6
NMHLD	104	0	7	72
NMHLD	104	72	6	72
NMTAP	104	144	5
NMHLD	104	192	0	72
NMHLD	104	264	1	72
NMTAP	104	336	2
NMTAP	105	0	2
NMTAP	105	0	7
NMTAP	105	96	4
NMTAP	105	96	5
NMTAP	105	192	2
NMTAP	105	192	3
NMTAP	105	288	0
NMTAP	105	288	7
BRSTR	106	0	1
BRSCR	106	0	1	96	144	3
BRSTR	106	0	6
NMSCL	106	0	6	96	144	4
CNSSR	106	240	3	0	336	7
CNSSL	106	240	4	0	336	0
NMTAP	108	0	0
NMTAP	108	24	7
NMTAP	108	48	0
NMTAP	108	72	7
NMTAP	108	96	0
NMTAP	108	120	7
NMTAP	108	144	0
NMTAP	108	168	7
NMTAP	108	192	0
NMTAP	108	216	7
NMTAP	108	240	0
NMTAP	108	264	7
NMTAP	108	288	0
NMTAP	108	312	7
NMTAP	108	336	0
NMTAP	108	360	7
NMTAP	109	0	1
NMSTR	109	96	2
NMSI_	109	96	2	96	48	5
NMSTR	109	96	6
NMSI_	109	96	6	96	48	1

T_REC_TAP	347
T_REC_BRK	10
T_REC_XTP	11
T_REC_BXX	4
T_REC_HLD	49
T_REC_XHO	0
T_REC_BHO	1
T_REC_BXH	0
T_REC_STR	30
T_REC_BST	2
T_REC_XST	0
T_REC_XBS	4
T_REC_TTP	26
T_REC_THO	1
T_REC_SLD	36
T_REC_BSL	3
T_REC_ALL	524
T_NUM_TAP	414
T_NUM_BRK	24
T_NUM_HLD	50
T_NUM_SLD	36
T_NUM_ALL	524
T_JUDGE_TAP	434
T_JUDGE_HLD	219
T_JUDGE_SLD	39
T_JUDGE_ALL	692
TTM_EACHPAIRS	112
TTM_SCR_TAP	207000
TTM_SCR_BRK	62400
TTM_SCR_HLD	50000
TTM_SCR_SLD	54000
TTM_SCR_ALL	373400
TTM_SCR_S	359900
TTM_SCR_SS	371000
TTM_RAT_ACV	10064

