VERSION	0.00.00	1.04.00
FES_MODE	0
BPM_DEF	102.000	204.000	204.000	102.000
MET_DEF	4	4
RESOLUTION	384
CLK_DEF	384
COMPATIBLE_CODE	MA2

BPM	0	0	102.000
BPM	6	0	204.000
MET	0	0	4	4

EXHLD	6	0	2	384
EXHLD	6	0	3	384
EXHLD	8	0	4	384
EXHLD	8	0	5	384
NMHLD	10	0	5	192
NMHLD	10	192	4	192
NMHLD	11	0	3	192
NMTAP	11	192	2
NMHLD	12	0	2	192
NMHLD	12	192	3	192
NMHLD	13	0	4	192
NMTAP	13	192	5
NMHLD	14	0	6	192
NMHLD	14	192	7	192
NMHLD	15	0	0	192
NMTAP	15	192	1
NMHLD	16	0	1	192
NMHLD	16	192	0	192
NMHLD	17	0	7	192
NMTAP	17	192	6
NMTAP	18	0	6
NMTAP	18	96	6
NMTAP	18	192	6
NMTAP	18	192	7
NMTAP	19	0	5
NMTAP	19	96	5
NMTAP	19	192	4
NMTAP	19	192	5
NMTAP	20	0	3
NMTAP	20	96	3
NMTAP	20	192	2
NMTAP	20	192	3
NMTAP	21	0	0
NMTAP	21	0	1
NMTAP	21	96	0
NMTAP	21	96	1
NMTAP	21	192	0
NMTAP	21	192	1
NMTAP	22	0	1
NMTAP	22	96	1
NMTAP	22	192	0
NMTAP	22	192	1
NMTAP	23	0	2
NMTAP	23	96	2
NMTAP	23	192	2
NMTAP	23	192	3
NMTAP	24	0	4
NMTAP	24	96	4
NMTAP	24	192	4
NMTAP	24	192	5
NMTAP	25	0	6
NMTAP	25	0	7
NMTAP	25	96	6
NMTAP	25	96	7
NMTAP	25	192	6
NMTAP	25	192	7
NMTAP	26	0	6
NMTAP	26	96	6
NMTAP	26	192	6
NMTAP	27	0	5
NMTAP	27	96	5
NMTAP	27	192	5
NMTAP	28	0	4
NMTAP	28	96	4
NMTAP	28	192	4
NMTAP	29	0	2
NMTAP	29	0	3
NMTAP	29	192	2
NMTAP	29	192	3
NMTAP	30	0	1
NMTAP	30	96	1
NMTAP	30	192	1
NMTAP	31	0	2
NMTAP	31	96	2
NMTAP	31	192	2
NMTAP	32	0	3
NMTAP	32	96	3
NMTAP	32	192	3
NMTAP	33	0	3
NMTAP	33	0	4
NMTAP	33	192	3
NMTAP	33	192	4
BXTAP	34	0	2
NMTAP	34	96	2
NMTAP	34	192	1
NMTAP	34	288	1
NMTAP	35	0	0
NMTAP	35	96	0
NMTAP	35	192	6
NMTAP	35	192	7
NMTAP	36	0	5
NMTAP	36	96	5
NMTAP	36	192	6
NMTAP	36	288	6
NMTAP	37	0	7
NMTAP	37	96	7
NMTAP	37	192	0
NMTAP	37	192	1
NMTAP	38	0	1
NMTAP	38	96	1
NMTAP	38	192	2
NMTAP	38	288	2
NMTAP	39	0	3
NMTAP	39	96	3
NMTAP	39	192	4
NMTAP	39	192	5
NMTAP	40	0	6
NMTAP	40	96	6
NMTAP	40	192	5
NMTAP	40	288	5
NMTAP	41	0	4
NMTAP	41	96	4
NMTAP	41	192	2
NMTAP	41	192	3
NMTAP	42	0	2
NMTAP	42	96	2
NMTAP	42	192	0
NMTAP	42	192	1
NMTAP	42	288	0
NMTAP	42	288	1
NMTAP	43	0	7
NMTAP	43	96	7
NMTAP	43	192	6
NMTAP	43	192	7
NMTAP	44	0	5
NMTAP	44	96	5
NMTAP	44	192	6
NMTAP	44	192	7
NMTAP	44	288	6
NMTAP	44	288	7
NMTAP	45	0	0
NMTAP	45	96	0
NMTAP	45	192	0
NMTAP	45	192	1
NMTAP	46	0	1
NMTAP	46	96	1
NMTAP	46	192	2
NMTAP	46	192	3
NMTAP	46	288	2
NMTAP	46	288	3
NMTAP	47	0	4
NMTAP	47	96	4
NMTAP	47	192	4
NMTAP	47	192	5
NMTAP	48	0	6
NMTAP	48	96	6
NMTAP	48	192	4
NMTAP	48	192	5
NMTAP	48	288	4
NMTAP	48	288	5
NMTAP	49	0	3
NMTAP	49	96	3
BRTAP	49	192	2
BRTAP	49	192	3
NMSTR	50	0	1
NMSI_	50	0	1	96	288	4
NMSTR	52	0	5
NMSI_	52	0	5	96	288	0
NMSTR	54	0	1
NMSI_	54	0	1	96	288	5
NMSTR	56	0	7
NMSI_	56	0	7	96	288	3
NMTTP	58	0	1	B	0	L1
NMTTP	58	96	2	B	0	L1
NMTTP	58	192	3	B	0	L1
NMTTP	59	0	6	B	0	L1
NMTTP	59	96	5	B	0	L1
NMTTP	59	192	4	B	0	L1
NMTTP	60	0	1	B	0	L1
NMTTP	60	96	2	B	0	L1
NMTTP	60	192	3	B	0	L1
NMTTP	60	288	4	B	0	L1
NMTTP	61	0	0	C	0	L1
NMTTP	62	0	7	B	0	L1
NMTTP	62	96	6	B	0	L1
NMTTP	62	192	4	B	0	L1
NMTTP	62	192	5	B	0	L1
NMTTP	63	0	0	B	0	L1
NMTTP	63	96	1	B	0	L1
NMTTP	63	192	2	B	0	L1
NMTTP	63	192	3	B	0	L1
NMTTP	64	0	6	B	0	L1
NMTTP	64	96	5	B	0	L1
NMTTP	64	192	4	B	0	L1
NMTTP	64	288	3	B	0	L1
NMTTP	65	0	0	C	0	L1
EXTAP	66	0	0
EXTAP	66	0	1
EXTAP	66	96	0
EXTAP	66	96	1
EXTAP	66	192	0
EXTAP	66	192	1
EXTAP	67	0	6
EXTAP	67	0	7
EXTAP	67	96	6
EXTAP	67	96	7
EXTAP	67	192	6
EXTAP	67	192	7
NMTAP	68	0	1
NMTAP	68	96	1
NMTAP	68	192	2
NMTAP	68	192	3
NMTAP	68	288	2
NMTAP	68	288	3
NMTAP	69	0	4
NMTAP	69	96	4
NMTAP	69	192	4
NMTAP	69	192	5
NMTAP	70	0	6
NMTAP	70	0	7
NMTAP	70	96	6
NMTAP	70	96	7
NMTAP	70	192	6
NMTAP	70	192	7
NMTAP	71	0	0
NMTAP	71	0	1
NMTAP	71	96	0
NMTAP	71	96	1
NMTAP	71	192	0
NMTAP	71	192	1
NMTAP	72	0	6
NMTAP	72	96	6
NMTAP	72	192	4
NMTAP	72	192	5
NMTAP	72	288	4
NMTAP	72	288	5
NMTAP	73	0	3
NMTAP	73	96	3
NMTAP	73	192	2
NMTAP	73	192	3
NMTAP	74	0	2
NMTAP	74	96	2
NMTAP	74	192	2
NMTAP	74	288	2
NMTAP	75	0	1
NMTAP	75	96	1
NMTAP	75	192	1
NMTAP	75	288	1
NMTAP	76	0	0
NMTAP	76	96	0
NMTAP	76	192	0
NMTAP	76	288	0
NMTAP	77	0	6
NMTAP	77	0	7
NMTAP	78	0	5
NMTAP	78	96	5
NMTAP	78	192	5
NMTAP	78	288	5
NMTAP	79	0	6
NMTAP	79	96	6
NMTAP	79	192	6
NMTAP	79	288	6
NMTAP	80	0	7
NMTAP	80	96	7
NMTAP	80	192	7
NMTAP	80	288	7
NMTAP	81	0	0
NMTAP	81	0	1
NMHLD	82	0	2	192
NMTAP	82	192	3
NMTAP	83	0	2
NMTAP	83	96	2
NMTAP	83	192	2
NMTAP	83	192	3
NMHLD	84	0	1	192
NMTAP	84	192	0
NMTAP	85	0	1
NMTAP	85	96	1
NMTAP	85	192	0
NMTAP	85	192	1
NMHLD	86	0	6	192
NMTAP	86	192	7
NMTAP	87	0	6
NMTAP	87	96	6
NMTAP	87	192	6
NMTAP	87	192	7
NMHLD	88	0	5	192
NMTAP	88	192	4
EXHLD	89	0	3	192
EXHLD	89	0	4	192
BRTAP	90	0	5
NMTAP	90	96	5
NMTAP	90	192	6
NMTAP	90	192	7
NMTAP	90	288	6
NMTAP	90	288	7
NMTAP	91	0	0
NMTAP	91	96	0
NMTAP	91	192	0
NMTAP	91	192	1
NMTAP	91	288	0
NMTAP	91	288	1
NMTAP	92	0	2
NMTAP	92	96	2
NMTAP	92	192	0
NMTAP	92	192	1
NMTAP	92	288	0
NMTAP	92	288	1
NMTAP	93	0	7
NMTAP	93	96	7
NMTAP	93	192	6
NMTAP	93	192	7
NMTAP	94	0	6
NMTAP	94	96	6
NMTAP	94	192	4
NMTAP	94	192	5
NMTAP	94	288	4
NMTAP	94	288	5
NMTAP	95	0	3
NMTAP	95	96	3
NMTAP	95	192	2
NMTAP	95	192	3
NMTAP	95	288	2
NMTAP	95	288	3
NMTAP	96	0	1
NMTAP	96	96	1
NMTAP	96	192	2
NMTAP	96	192	3
NMTAP	96	288	2
NMTAP	96	288	3
NMTAP	97	0	4
NMTAP	97	96	4
NMTAP	97	192	4
NMTAP	97	192	5
NMTAP	98	0	5
NMTAP	98	48	5
NMTAP	98	96	5
NMTAP	98	192	6
NMTAP	98	192	7
NMTAP	98	288	6
NMTAP	98	288	7
NMTAP	99	0	0
NMTAP	99	48	0
NMTAP	99	96	0
NMTAP	99	192	0
NMTAP	99	192	1
NMTAP	100	0	2
NMTAP	100	48	2
NMTAP	100	96	2
NMTAP	100	192	0
NMTAP	100	192	1
NMTAP	100	288	0
NMTAP	100	288	1
NMTAP	101	0	7
NMTAP	101	48	7
NMTAP	101	96	7
NMTAP	101	192	6
NMTAP	101	192	7
NMTAP	102	0	6
NMTAP	102	48	6
NMTAP	102	96	6
NMTAP	102	192	4
NMTAP	102	192	5
NMTAP	102	288	4
NMTAP	102	288	5
NMTAP	103	0	3
NMTAP	103	48	3
NMTAP	103	96	3
NMTAP	103	192	2
NMTAP	103	192	3
NMTAP	104	0	1
NMTAP	104	48	1
NMTAP	104	96	1
NMTAP	104	192	2
NMTAP	104	192	3
NMTAP	104	288	2
NMTAP	104	288	3
NMTAP	105	0	4
NMTAP	105	48	4
NMTAP	105	96	4
NMTAP	105	192	4
NMTAP	105	192	5
NMSTR	106	0	3
NMSI_	106	0	3	96	480	0
NMSTR	106	0	4
NMSI_	106	0	4	96	480	7
NMTAP	108	0	7
NMTAP	108	48	7
NMTAP	108	96	7
NMTAP	108	192	0
NMTAP	108	240	0
NMTAP	108	288	0
NMTAP	109	0	0
NMTAP	109	0	7
NMTAP	109	96	0
NMTAP	109	96	7
BXTAP	109	192	1
BXTAP	109	192	6

T_REC_TAP	312
T_REC_BRK	3
T_REC_XTP	12
T_REC_BXX	3
T_REC_HLD	16
T_REC_XHO	6
T_REC_BHO	0
T_REC_BXH	0
T_REC_STR	6
T_REC_BST	0
T_REC_XST	0
T_REC_XBS	0
T_REC_TTP	24
T_REC_THO	0
T_REC_SLD	6
T_REC_BSL	0
T_REC_ALL	388
T_NUM_TAP	354
T_NUM_BRK	6
T_NUM_HLD	22
T_NUM_SLD	6
T_NUM_ALL	388
T_JUDGE_TAP	360
T_JUDGE_HLD	104
T_JUDGE_SLD	6
T_JUDGE_ALL	470
TTM_EACHPAIRS	88
TTM_SCR_TAP	177000
TTM_SCR_BRK	15600
TTM_SCR_HLD	22000
TTM_SCR_SLD	9000
TTM_SCR_ALL	223600
TTM_SCR_S	216350
TTM_SCR_SS	223000
TTM_RAT_ACV	10026

