VERSION	0.00.00	1.04.00
FES_MODE	0
BPM_DEF	142.000	142.000	142.000	142.000
MET_DEF	4	4
RESOLUTION	384
CLK_DEF	384
COMPATIBLE_CODE	MA2

BPM	0	0	142.000
MET	0	0	4	4

NMTAP	1	240	3
NMTAP	1	240	4
NMTAP	1	288	3
NMTAP	1	288	4
BXTAP	2	48	0
BXTAP	2	48	1
BXTAP	2	96	2
BXTAP	2	96	7
BXTAP	2	192	6
BXTAP	2	192	7
BXTAP	2	240	0
BXTAP	2	240	5
NMTAP	2	336	2
NMTAP	2	336	4
NMTAP	3	0	2
NMTAP	3	0	4
NMTAP	3	96	2
NMTAP	3	96	3
NMTAP	3	144	2
NMTAP	3	144	3
NMHLD	3	192	1	480
NMSTR	3	288	0
NMSCL	3	288	0	96	288	2
NMTAP	4	0	0
NMTTP	5	96	0	C	0	M1
NMTTP	5	96	2	E	0	M1
NMTTP	5	288	0	C	0	M1
NMTTP	5	288	0	E	0	M1
NMTTP	6	96	0	C	0	M1
NMTTP	6	96	6	E	0	M1
NMTTP	6	288	4	E	0	M1
NMHLD	6	336	4	96
NMTAP	6	336	5
NMTAP	7	48	5
NMTAP	7	96	6
NMHLD	7	144	7	144
NMSTR	7	192	4
NMSI_	7	192	4	96	48	0
EXTAP	7	288	4
NMTAP	8	0	1
NMTAP	8	0	4
NMTAP	8	48	2
NMTAP	8	72	3
NMTAP	8	96	2
NMTAP	8	144	5
NMTAP	8	168	4
NMHLD	8	192	6	72
EXTAP	8	264	4
NMHLD	8	336	7	96
NMTAP	9	48	4
NMTAP	9	96	3
NMTAP	9	144	2
NMHLD	9	192	0	96
NMSTR	9	192	1
NMSI_	9	192	1	96	48	4
NMTAP	9	288	1
NMTAP	10	0	3
NMTAP	10	0	6
NMTAP	10	48	5
NMTAP	10	72	4
NMTAP	10	96	5
NMTAP	10	144	2
NMTAP	10	168	3
NMHLD	10	192	1	72
EXTAP	10	264	3
NMHLD	10	336	0	96
NMTAP	10	336	4
EXTAP	11	48	2
NMTAP	11	96	1
NMTAP	11	96	3
NMTAP	11	144	1
NMTAP	11	144	3
BRTAP	11	192	2
BRTAP	11	192	4
NMTAP	11	240	2
NMTAP	11	240	4
NMTAP	11	288	1
NMTAP	11	288	5
NMTAP	11	336	1
NMTAP	11	336	5
NMHLD	12	0	2	96
NMHLD	12	0	6	96
NMTAP	12	144	3
NMTAP	12	144	5
NMHLD	12	192	4	96
NMHLD	12	192	5	96
NMTAP	12	336	4
NMTAP	12	336	5
EXTAP	13	0	6
EXTAP	13	24	7
EXTAP	13	72	6
BXTAP	13	96	7
NMTAP	13	240	4
NMTAP	13	240	6
NMTAP	13	288	5
NMTAP	13	336	4
NMHLD	14	0	3	96
NMHLD	14	0	5	96
NMTAP	14	144	2
NMTAP	14	144	4
NMHLD	14	192	2	96
NMHLD	14	192	4	96
NMTAP	14	336	2
NMTAP	14	336	3
NMTAP	15	0	2
NMSTR	15	0	3
NMSCR	15	0	3	96	96	7
NMSTR	15	96	7
NMSCR	15	96	7	96	96	3
NMSTR	15	192	3
NMSV_	15	192	3	96	96	6
NMTAP	15	288	7
NMTAP	16	0	2
NMTAP	16	48	2
NMTAP	16	96	7
NMTAP	16	144	7
NMHLD	16	192	1	72
NMTAP	16	264	0
NMSTR	16	336	1
NMSCR	16	336	1	96	48	6
NMHLD	16	336	7	240
CNSUL	17	96	6	0	96	0
NMTAP	17	288	1
NMTAP	17	288	5
NMTAP	17	336	1
NMTAP	17	336	5
NMTAP	18	0	0
NMSTR	18	0	6
NMSCR	18	0	6	96	96	3
NMHLD	18	48	0	144
NMTAP	18	48	6
EXTAP	18	288	2
EXTAP	18	288	4
NMTAP	18	336	5
NMHLD	19	0	6	96
NMTAP	19	48	4
NMTAP	19	96	3
NMTAP	19	144	2
NMTAP	19	192	1
NMTAP	19	192	4
NMTAP	19	240	1
NMTAP	19	240	4
NMSTR	19	288	2
NMSCL	19	288	2	96	240	4
NMSTR	19	288	3
NMSCR	19	288	3	96	240	1
NMTAP	20	0	2
NMTAP	20	0	3
NMTAP	20	336	2
NMTAP	20	336	4
NMTAP	21	48	2
NMTAP	21	48	4
NMSTR	21	96	1
NMSI_	21	96	1	96	48	6
NMSTR	21	96	5
NMSI_	21	96	5	96	48	2
NMTAP	21	192	1
NMTAP	21	192	5
NMTTP	21	288	0	E	0	M1
NMSTR	22	0	1
NMSI_	22	0	1	96	96	4
NMSTR	22	96	4
NMSI_	22	96	4	96	96	7
NMSTR	22	192	7
NMSI_	22	192	7	96	96	2
NMSTR	22	288	2
NMSCR	22	288	2	96	96	5
NMTTP	23	0	0	C	0	M1
NMSTR	23	192	4
NMSI_	23	192	4	96	48	0
NMSTR	23	192	5
NMSI_	23	192	5	96	48	0
NMTAP	23	288	4
NMTAP	23	288	5
NMSTR	24	0	1
NMSI_	24	0	1	96	96	3
NMSTR	24	96	3
NMSI_	24	96	3	96	96	7
NMSTR	24	192	7
NMSI_	24	192	7	96	96	5
NMSTR	24	288	5
NMSUL	24	288	5	96	192	2
NMTTP	25	0	0	C	0	M1
NMTAP	25	192	7
NMTAP	25	288	1
NMTAP	25	288	3
NMHLD	26	0	1	96
NMHLD	26	0	3	96
NMTAP	26	144	3
NMTAP	26	144	4
NMHLD	26	192	4	96
NMHLD	26	192	6	96
NMTAP	26	336	4
NMTAP	26	336	5
NMSTR	27	0	4
NMSUR	27	0	4	96	108	3
NMSTR	27	0	5
NMSCR	27	0	5	96	108	2
NMTTP	27	192	3	E	1	M1
EXTAP	27	288	0
EXTAP	27	288	1
NMTAP	28	0	6
NMHLD	28	0	7	48
NMTAP	28	48	4
NMHLD	28	96	0	48
NMTAP	28	96	1
NMTAP	28	144	3
NMTAP	28	192	6
NMHLD	28	192	7	48
NMTAP	28	240	4
NMHLD	28	288	0	48
NMTAP	28	288	1
NMTAP	28	336	3
NMTAP	29	0	6
NMTAP	29	0	7
NMTAP	29	48	3
NMTAP	29	48	4
NMHLD	29	96	0	96
NMSTR	29	96	1
NMSCL	29	96	1	96	96	3
NMTAP	29	192	1
NMTAP	29	336	1
NMTAP	29	336	7
NMHLD	30	0	1	96
NMTAP	30	0	7
NMTAP	30	48	6
NMTAP	30	96	5
NMTAP	30	144	2
NMTAP	30	144	4
NMTAP	30	240	3
NMTAP	30	240	5
NMTAP	30	288	3
NMTAP	30	288	5
NMTAP	30	336	2
NMTAP	30	336	6
NMHLD	31	0	2	72
NMTAP	31	0	6
NMHLD	31	72	0	72
NMHLD	31	144	7	144
NMSTR	31	192	6
NMSI_	31	192	6	96	48	3
NMTAP	31	288	6
NMTAP	31	336	0
NMTAP	32	0	1
NMTAP	32	0	4
NMTAP	32	48	5
NMTAP	32	96	3
NMTAP	32	96	6
NMTAP	32	144	2
NMTAP	32	192	1
NMTAP	32	192	4
NMTAP	32	240	5
NMTAP	32	288	2
NMTAP	32	288	6
NMTAP	32	336	1
NMTAP	33	0	0
NMTAP	33	0	7
NMSTR	33	48	0
NMSCR	33	48	0	96	48	3
NMSTR	33	48	7
NMSCL	33	48	7	96	48	4
NMTAP	33	144	0
NMTAP	33	144	7
NMTAP	33	240	2
NMTAP	33	240	4
NMTAP	33	288	3
NMTAP	33	288	5
NMTAP	33	336	2
NMTAP	33	336	6
BRTAP	34	48	0
BRTAP	34	48	1
BRTAP	34	96	2
BRTAP	34	96	7
BRTAP	34	192	6
BRTAP	34	192	7
BRTAP	34	240	0
BRTAP	34	240	5
NMTAP	34	336	2
NMTAP	34	336	3
NMTAP	35	0	1
NMTAP	35	0	4
NMTAP	35	96	0
NMSTR	35	96	6
NMSSL	35	96	6	96	96	2
NMHLD	35	144	0	144
NMTAP	35	144	6
NMHLD	36	0	0	48
NMTAP	36	0	1
NMTAP	36	48	3
NMTAP	36	96	6
NMHLD	36	96	7	48
NMTAP	36	144	4
NMHLD	36	192	0	48
NMTAP	36	192	1
NMTAP	36	240	3
NMTAP	36	288	6
NMHLD	36	288	7	48
NMTAP	36	336	4
NMTAP	37	0	0
NMTAP	37	0	1
NMTAP	37	48	3
NMTAP	37	48	4
NMSTR	37	96	6
NMSCR	37	96	6	96	96	3
NMHLD	37	96	7	96
NMTAP	37	192	6
NMTAP	37	336	0
NMTAP	37	336	6
NMTAP	38	0	0
NMHLD	38	0	6	96
NMTAP	38	48	1
NMTAP	38	96	2
NMTAP	38	144	3
NMTAP	38	144	5
NMTAP	38	240	2
NMTAP	38	240	4
NMTAP	38	288	2
NMTAP	38	288	4
NMTAP	38	336	1
NMTAP	38	336	5
NMTAP	39	0	1
NMHLD	39	0	5	72
NMHLD	39	72	7	72
NMHLD	39	144	0	48
NMSTR	39	192	1
NMSI_	39	192	1	96	48	4
NMTAP	39	288	1
NMTAP	39	336	7
NMHLD	40	0	7	144
NMTAP	40	48	3
NMTAP	40	96	2
NMHLD	40	144	1	96
NMTAP	40	240	0
NMTAP	40	288	0
NMTAP	40	336	2
NMTAP	40	336	3
NMTAP	41	0	4
NMTAP	41	0	5
NMSTR	41	48	4
NMSI_	41	48	4	96	48	1
NMSTR	41	48	5
NMSI_	41	48	5	96	48	0
NMTAP	41	144	4
NMTAP	41	144	5
EXTAP	41	240	0
EXTAP	41	240	1
NMTAP	41	288	2
NMTAP	41	336	3
NMTAP	41	336	4
BRTAP	42	48	6
BRTAP	42	48	7
BRTAP	42	96	0
BRTAP	42	96	5
BRTAP	42	192	0
BRTAP	42	192	1
BRTAP	42	240	2
BRTAP	42	240	7
NMTAP	42	336	4
NMTAP	42	336	5
NMHLD	43	0	4	192
NMTAP	43	0	5
NMTAP	43	96	7
NMTAP	43	144	7
NMHLD	43	192	0	384
NMSTR	43	288	1
NMSCL	43	288	1	96	192	3
NMTAP	44	0	1
NMTAP	44	288	2
NMTAP	44	288	4
NMTAP	44	336	2
NMTAP	44	336	4
NMTAP	45	48	2
NMHLD	45	48	3	96
NMTAP	45	96	2
NMTAP	45	144	2
NMTAP	45	192	2
NMTAP	45	192	3
NMTAP	45	240	0
NMTAP	45	240	1
NMTAP	45	288	6
NMTAP	45	288	7
NMTAP	45	336	4
NMTAP	45	336	5
NMHLD	46	0	2	48
NMTAP	46	48	3
NMTAP	46	72	3
NMHLD	46	120	1	48
NMTAP	46	168	3
NMTAP	46	192	3
NMTAP	46	240	4
NMTAP	46	288	5
NMTAP	46	312	5
NMTAP	46	360	1
NMTAP	46	360	7
NMTAP	47	24	2
NMTAP	47	48	2
EXSTR	47	96	1
NMSCR	47	96	1	96	96	7
EXTAP	47	120	1
EXTAP	47	168	7
EXSTR	47	192	7
NMSCL	47	192	7	96	96	1
NMTAP	48	0	0
NMTAP	48	96	0
NMTAP	48	96	6
EXHLD	48	144	1	24
EXHLD	48	192	5	24
EXHLD	48	240	3	24
BRTAP	48	288	4
BRTAP	48	336	4
NMTAP	49	0	5
NMTAP	49	24	4
NMTAP	49	48	5
NMTAP	49	96	2
NMTAP	49	120	3
NMTAP	49	144	2
NMTAP	49	168	3
NMTAP	49	192	2
NMTAP	49	240	4
NMTAP	49	240	5
NMHLD	49	288	6	96
NMSTR	49	288	7
NMSI_	49	288	7	96	48	1
CNSI_	50	48	1	0	48	6
CNSI_	50	96	6	0	48	2
CNSI_	50	144	2	0	48	4
EXTAP	50	192	6
EXTAP	50	264	3
EXTAP	50	264	4
EXTAP	50	336	1
EXTAP	50	336	3
NMTAP	51	0	1
NMTAP	51	24	0
NMTAP	51	48	1
NMTAP	51	96	6
NMTAP	51	120	7
NMTAP	51	144	6
NMSTR	51	192	1
NMSCL	51	192	1	96	48	7
NMSTR	51	192	5
NMSCL	51	192	5	96	48	3
NMTAP	51	240	2
NMTAP	51	240	6
NMTAP	51	288	1
NMTAP	51	288	5
NMTAP	52	0	3
NMTAP	52	0	7
NMTAP	52	48	3
NMTAP	52	48	7
NMHLD	52	96	3	48
NMHLD	52	96	7	48
BXTAP	52	192	7
EXTAP	52	204	6
EXTAP	52	216	5
EXTAP	52	228	4
BXTAP	52	288	7
EXTAP	52	300	6
EXTAP	52	312	5
EXTAP	52	324	4
NMTAP	53	0	6
NMTAP	53	0	7
NMTAP	53	48	4
NMTAP	53	48	5
NMTAP	53	96	2
NMTAP	53	96	3
NMTAP	53	144	0
NMTAP	53	144	1
BXTAP	53	192	7
EXTAP	53	204	6
EXTAP	53	216	5
EXTAP	53	228	4
EXTAP	53	240	3
EXTAP	53	252	2
EXTAP	53	264	1
EXTAP	53	276	0
NMSTR	53	288	7
NMSCR	53	288	7	96	288	6
NMTAP	55	288	3
NMTAP	55	288	5
NMHLD	56	0	6	144
NMTAP	56	72	4
NMTAP	56	144	3
NMTAP	56	240	2
NMTAP	56	288	2
NMTAP	56	288	4
NMHLD	57	0	1	144
NMTAP	57	72	3
NMTAP	57	144	4
NMTAP	57	240	5
NMTAP	57	288	3
NMTAP	57	288	5
NMHLD	58	0	4	144
NMTAP	58	0	5
NMTAP	58	72	5
NMSTR	58	144	6
NMSI_	58	144	6	96	48	3
NMTAP	58	240	3
NMTAP	58	288	2
NMTAP	59	0	2
NMHLD	59	0	3	144
NMTAP	59	72	2
NMSTR	59	144	1
NMSI_	59	144	1	96	48	4
NMTAP	59	240	4
NMTAP	59	288	5
NMHLD	60	0	3	144
NMTAP	60	0	5
NMTAP	60	72	5
NMSTR	60	144	6
NMSI_	60	144	6	96	48	3
NMTAP	60	240	3
NMTAP	60	288	2
NMTAP	61	0	2
NMHLD	61	0	3	144
NMTAP	61	72	2
NMSTR	61	144	1
NMSI_	61	144	1	96	48	4
NMTAP	61	240	4
NMTAP	61	288	5
NMTAP	62	0	2
NMTAP	62	0	4
NMTAP	62	72	1
NMTAP	62	96	1
NMTAP	62	144	4
NMTAP	62	192	2
NMTAP	62	216	3
NMTAP	62	240	2
NMTAP	62	264	3
NMTAP	62	288	2
NMTAP	62	312	3
NMTAP	62	336	2
NMTAP	62	360	3
NMTAP	63	0	2
NMTAP	63	24	3
NMTAP	63	48	2
NMTAP	63	72	3
NMTAP	63	96	2
NMTAP	63	120	3
NMTAP	63	144	2
NMTAP	63	168	3
NMTAP	63	192	2
NMTAP	63	216	3
NMTAP	63	240	2
NMTAP	63	264	3
BRTAP	63	288	2
NMTAP	64	0	1
NMTAP	64	0	4
NMTAP	64	48	1
NMTAP	64	48	4
NMHLD	64	144	2	96
NMHLD	64	144	3	96
NMTAP	64	288	3
NMTAP	64	288	4
NMHLD	64	336	4	96
NMHLD	64	336	5	96
NMTAP	65	96	4
NMTAP	65	96	5
NMSTR	65	192	6
NMSI_	65	192	6	96	48	3
NMSTR	65	192	7
NMSI_	65	192	7	96	48	2
NMTAP	65	288	6
NMTAP	65	288	7
NMTAP	66	0	1
NMTAP	66	0	4
NMTAP	66	48	2
NMTAP	66	72	3
NMTAP	66	96	2
NMTAP	66	144	5
NMTAP	66	168	4
NMHLD	66	192	6	72
NMTAP	66	264	4
NMTAP	66	336	2
NMTAP	66	336	4
BRTAP	67	48	2
BRTAP	67	48	3
BRTAP	67	96	0
BRTAP	67	96	1
BRTAP	67	144	6
BRTAP	67	144	7
NMSTR	67	192	4
NMSUR	67	192	4	96	96	3
NMSTR	67	192	5
NMSCR	67	192	5	96	96	2
NMTTP	67	300	5	E	0	M1
NMTTP	67	312	6	E	0	M1
NMTTP	67	324	7	E	0	M1
NMTTP	67	336	0	E	0	M1
NMTTP	67	348	1	E	0	M1
NMTTP	67	360	2	E	0	M1
NMTTP	67	372	3	E	1	M1
NMTAP	68	96	0
NMTAP	68	96	7
NMTAP	68	192	4
NMHLD	68	192	5	48
NMTAP	68	240	7
NMHLD	68	288	2	48
NMTAP	68	288	3
NMTAP	68	336	0
NMTAP	69	0	4
NMTAP	69	0	5
NMTAP	69	48	0
NMTAP	69	48	7
NMHLD	69	96	2	96
NMSTR	69	96	3
NMSCR	69	96	3	96	96	0
NMTAP	69	192	3
NMTAP	69	336	0
NMTAP	69	336	4
NMHLD	70	0	0	96
NMTAP	70	0	4
NMTAP	70	48	3
NMTAP	70	96	2
NMHLD	70	144	1	96
NMHLD	70	144	7	96
NMTAP	70	288	0
NMTAP	70	288	6
NMTAP	70	336	0
NMTAP	70	336	6
NMHLD	71	0	1	72
NMTAP	71	0	5
NMHLD	71	72	3	72
NMHLD	71	144	4	144
NMSTR	71	192	6
NMSI_	71	192	6	96	48	2
NMTAP	71	288	6
NMSTR	72	0	1
NMSUR	72	0	1	96	48	5
NMTAP	72	48	0
NMTAP	72	96	1
NMSTR	72	192	6
NMSI_	72	192	6	96	48	3
NMTAP	72	240	7
NMTAP	72	288	6
EXTAP	73	0	1
EXTAP	73	0	4
NMSTR	73	48	2
NMSI_	73	48	2	96	48	7
NMSTR	73	48	3
NMSI_	73	48	3	96	48	6
NMTAP	73	144	2
NMTAP	73	144	3
EXTAP	73	240	6
EXTAP	73	240	7
NMTAP	73	288	0
NMTAP	73	288	5
NMTAP	73	336	1
NMTAP	73	336	4
BRTAP	74	48	0
BRTAP	74	48	6
BRTAP	74	96	1
BRTAP	74	96	7
BRTAP	74	192	0
BRTAP	74	192	6
BRTAP	74	240	1
BRTAP	74	240	7
NMTAP	74	336	1
NMTAP	74	336	3
NMSTR	75	0	1
NMSCL	75	0	1	96	96	5
NMTAP	75	0	3
NMSTR	75	96	5
NMSCR	75	96	5	96	96	1
NMTAP	75	192	3
NMTAP	75	288	3
NMHLD	76	0	2	48
NMTAP	76	0	3
NMTAP	76	48	0
NMTAP	76	96	4
NMHLD	76	96	5	48
NMTAP	76	144	7
NMHLD	76	192	2	48
NMTAP	76	192	3
NMTAP	76	240	0
NMTAP	76	288	4
NMHLD	76	288	5	48
NMTAP	76	336	7
NMTAP	77	0	2
NMTAP	77	0	3
NMTAP	77	48	0
NMTAP	77	48	7
NMSTR	77	96	4
NMSCL	77	96	4	96	96	7
NMHLD	77	96	5	96
NMTAP	77	192	4
NMTAP	77	336	3
NMTAP	77	336	7
NMTAP	78	0	3
NMHLD	78	0	7	96
NMTAP	78	48	4
NMTAP	78	96	5
NMHLD	78	144	0	96
NMHLD	78	144	6	96
NMTAP	78	288	1
NMTAP	78	288	7
NMTAP	78	336	1
NMTAP	78	336	7
NMTAP	79	0	2
NMHLD	79	0	6	72
NMHLD	79	72	4	72
NMSTR	79	144	3
NMSI_	79	144	3	96	48	6
EXTAP	79	192	2
CNSI_	79	288	6	0	48	0
EXTAP	80	0	1
EXTAP	80	0	3
NMSTR	80	96	0
NMSI_	80	96	0	96	48	2
NMSI_	80	96	0	96	48	3
NMSTR	80	192	0
NMSI_	80	192	0	96	48	5
NMSI_	80	192	0	96	48	6
NMTAP	80	288	0
NMTAP	81	0	3
NMTAP	81	0	6
NMSTR	81	48	4
NMSI_	81	48	4	96	48	1
NMSTR	81	48	5
NMSI_	81	48	5	96	48	0
NMTAP	81	144	4
NMTAP	81	144	5
NMHLD	81	240	0	96
NMTAP	81	240	1
NMTAP	81	288	2
NMTAP	81	336	3
BRTAP	82	48	4
BRTAP	82	48	5
BRTAP	82	96	3
BRTAP	82	96	6
BRTAP	82	192	2
BRTAP	82	192	3
BRTAP	82	240	1
BRTAP	82	240	4
NMTAP	82	336	2
NMTAP	82	336	3
NMTAP	83	0	2
NMHLD	83	0	3	288
NMTAP	83	96	1
NMTAP	83	144	0
NMTAP	83	192	7
NMTAP	83	240	6
BRTAP	83	288	5
BRTAP	84	48	0
BRTAP	84	48	1
BRTAP	84	96	2
BRTAP	84	96	7
BRTAP	84	192	6
BRTAP	84	192	7
BRTAP	84	240	0
BRTAP	84	240	5
NMTAP	84	336	6
NMTAP	84	336	7
NMTAP	85	0	6
NMTAP	85	0	7
NMTAP	85	96	0
NMTAP	85	96	1
NMTAP	85	144	2
NMTAP	85	192	3
NMTAP	85	192	4
NMSTR	85	288	3
BRSUR	85	288	3	96	288	4
NMSTR	85	288	4
BRSCR	85	288	4	96	288	3
BRTAP	86	0	3
BRTAP	86	0	4

T_REC_TAP	418
T_REC_BRK	54
T_REC_XTP	40
T_REC_BXX	12
T_REC_HLD	85
T_REC_XHO	3
T_REC_BHO	0
T_REC_BXH	0
T_REC_STR	62
T_REC_BST	0
T_REC_XST	2
T_REC_XBS	0
T_REC_TTP	18
T_REC_THO	0
T_REC_SLD	64
T_REC_BSL	2
T_REC_ALL	760
T_NUM_TAP	540
T_NUM_BRK	68
T_NUM_HLD	88
T_NUM_SLD	64
T_NUM_ALL	760
T_JUDGE_TAP	606
T_JUDGE_HLD	189
T_JUDGE_SLD	66
T_JUDGE_ALL	861
TTM_EACHPAIRS	215
TTM_SCR_TAP	270000
TTM_SCR_BRK	176800
TTM_SCR_HLD	88000
TTM_SCR_SLD	96000
TTM_SCR_ALL	630800
TTM_SCR_S	605300
TTM_SCR_SS	624000
TTM_RAT_ACV	10108

