VERSION	0.00.00	1.04.00
FES_MODE	0
BPM_DEF	142.000	142.000	142.000	142.000
MET_DEF	4	4
RESOLUTION	384
CLK_DEF	384
COMPATIBLE_CODE	MA2

BPM	0	0	142.000
MET	0	0	4	4

EXTAP	1	240	3
EXTAP	1	240	5
EXHLD	1	288	3	96
EXHLD	1	288	5	96
EXTAP	2	48	4
EXTAP	2	48	6
EXTAP	2	96	4
EXTAP	2	96	6
EXTAP	2	192	1
EXTAP	2	192	3
EXTAP	2	240	1
EXTAP	2	240	3
NMTAP	2	336	4
NMTAP	2	336	6
NMTAP	3	0	4
NMTAP	3	0	6
NMTAP	3	96	0
NMTAP	3	96	7
NMTAP	3	192	1
NMTAP	3	192	3
NMTAP	3	288	0
NMTAP	3	288	7
NMTTP	4	0	0	C	1	M1
NMTTP	4	0	2	B	0	M1
NMTTP	4	0	5	B	0	M1
NMTAP	5	96	5
NMTAP	5	288	5
NMTAP	6	96	5
NMTAP	6	288	2
NMTAP	6	288	4
NMTAP	6	336	2
NMTAP	6	336	4
NMTAP	7	48	1
NMHLD	7	96	1	96
NMTAP	7	192	0
NMTAP	7	240	0
NMTAP	7	288	2
NMTAP	7	288	7
NMSTR	8	0	6
NMSCL	8	0	6	96	96	3
NMTAP	8	192	0
NMTAP	8	288	1
NMHLD	8	336	1	96
NMTAP	9	48	3
NMTAP	9	96	3
NMTAP	9	192	2
NMTAP	9	192	4
NMTAP	9	288	2
NMTAP	9	288	4
NMSTR	10	0	1
NMSCR	10	0	1	96	96	4
NMTAP	10	192	7
NMTAP	10	288	6
NMHLD	10	336	6	96
NMTAP	11	48	4
NMTAP	11	96	4
NMTAP	11	192	3
NMTAP	11	192	5
NMHLD	12	0	2	96
NMHLD	12	0	7	96
NMTAP	12	144	0
NMTAP	12	144	5
NMTAP	12	192	0
NMTAP	12	192	5
EXTAP	12	336	2
EXTAP	12	336	4
EXTAP	13	24	2
EXTAP	13	24	4
EXSTR	13	96	2
NMSCL	13	96	2	96	96	7
EXTAP	13	96	4
NMHLD	14	0	0	96
NMHLD	14	0	5	96
NMTAP	14	144	2
NMTAP	14	144	7
NMHLD	14	192	2	96
NMHLD	14	192	7	96
NMTAP	14	336	0
NMTAP	14	336	5
NMSTR	15	0	0
NMSI_	15	0	0	96	96	4
NMTAP	15	0	5
NMSTR	15	192	6
NMSI_	15	192	6	96	96	2
NMSTR	16	0	0
BRSCR	16	0	0	96	192	7
EXHLD	17	0	1	48
EXHLD	17	0	7	48
EXTAP	17	96	1
EXTAP	17	96	7
NMHLD	17	192	0	48
NMHLD	17	192	6	48
NMTAP	17	288	0
NMTAP	17	288	6
NMTAP	18	0	1
NMTAP	18	48	1
NMTAP	18	96	3
NMTAP	18	192	6
NMTAP	18	240	6
NMTAP	18	288	4
NMTAP	19	0	4
NMTAP	19	0	5
NMTAP	19	96	6
NMTAP	19	96	7
NMTAP	19	192	0
NMTAP	19	192	1
NMSTR	19	288	2
NMSXR	19	288	2	96	288	4
NMTAP	19	288	3
NMTTP	20	0	5	B	1	M1
EXTAP	20	288	6
EXHLD	20	336	6	96
NMTAP	21	48	7
NMTAP	21	96	7
NMTAP	21	192	0
NMTAP	21	192	5
NMTAP	21	288	2
NMTAP	21	288	7
NMSTR	22	0	1
NMSCR	22	0	1	96	96	4
NMHLD	22	192	6	96
NMTAP	22	288	4
NMHLD	23	0	1	96
NMTAP	23	96	3
NMTAP	23	192	2
NMTAP	23	192	4
NMTAP	23	288	3
NMTAP	23	288	5
NMSTR	24	0	6
NMSCL	24	0	6	96	96	3
NMHLD	24	192	1	96
NMTAP	24	288	3
NMHLD	25	0	6	96
NMTAP	25	96	4
NMTAP	25	192	3
NMTAP	25	192	5
NMTAP	25	288	4
NMTAP	25	288	5
NMHLD	26	0	3	96
NMHLD	26	0	6	96
NMTAP	26	144	1
NMTAP	26	144	4
NMHLD	26	192	1	96
NMHLD	26	192	4	96
NMTAP	26	336	3
NMTAP	26	336	6
NMTAP	27	0	3
NMTAP	27	0	6
NMTAP	27	96	1
NMTAP	27	96	4
BRTAP	27	192	7
NMSTR	28	0	4
NMSCL	28	0	4	96	96	1
NMSTR	28	0	5
NMSCR	28	0	5	96	96	0
NMTAP	28	288	2
NMTAP	28	288	3
NMSTR	29	0	4
NMSCL	29	0	4	96	96	1
NMSTR	29	0	5
NMSCR	29	0	5	96	96	0
NMTAP	29	288	2
NMTAP	29	288	3
NMHLD	30	0	1	96
NMTAP	30	96	0
NMHLD	30	192	6	96
NMTAP	30	288	7
NMTAP	31	0	4
NMTAP	31	0	5
NMSTR	31	96	4
NMSUR	31	96	4	96	96	1
NMSTR	31	96	5
NMSCR	31	96	5	96	96	0
NMHLD	32	0	2	96
NMHLD	32	96	0	96
NMHLD	32	192	7	96
NMTAP	32	288	5
NMHLD	33	0	5	96
NMTAP	33	96	7
NMHLD	33	144	7	96
NMTAP	33	240	0
NMTAP	33	288	0
EXTAP	34	48	0
EXTAP	34	48	1
EXTAP	34	96	0
EXTAP	34	96	1
EXTAP	34	192	3
EXTAP	34	192	4
EXTAP	34	240	3
EXTAP	34	240	4
EXTAP	34	336	6
EXTAP	34	336	7
EXSTR	35	0	6
NMSSL	35	0	6	96	192	2
EXTAP	35	0	7
NMSTR	36	0	2
NMSUR	36	0	2	96	96	7
NMSTR	36	0	3
NMSCR	36	0	3	96	96	6
NMTAP	36	288	4
NMTAP	36	288	6
NMSTR	37	0	2
NMSUR	37	0	2	96	96	7
NMSTR	37	0	3
NMSCR	37	0	3	96	96	6
NMTAP	37	288	4
NMTAP	37	288	6
NMSTR	38	0	7
NMSV_	38	0	7	96	96	5
CNSLL	38	192	5	0	96	1
NMTAP	39	0	2
NMTAP	39	0	3
NMSTR	39	96	0
NMSI_	39	96	0	96	96	4
NMSTR	39	96	1
NMSI_	39	96	1	96	96	5
NMHLD	40	0	6	96
NMHLD	40	96	4	96
NMHLD	40	192	3	96
NMTAP	40	288	1
NMHLD	41	0	1	96
NMTAP	41	96	3
NMHLD	41	144	3	96
NMTAP	41	240	4
NMTAP	41	288	4
EXTAP	42	48	3
EXTAP	42	48	5
EXTAP	42	96	3
EXTAP	42	96	5
EXTAP	42	192	0
EXTAP	42	192	7
EXTAP	42	240	0
EXTAP	42	240	7
BXTAP	42	336	2
BXTAP	42	336	4
BXTAP	43	0	2
BXTAP	43	0	4
EXSTR	43	96	1
NMSXR	43	96	1	96	192	4
EXTAP	43	96	5
NMHLD	44	0	7	96
NMTAP	44	96	3
NMTAP	44	144	3
NMTAP	44	192	2
NMTAP	44	192	6
NMTAP	44	240	2
NMTAP	44	240	6
NMTAP	44	288	1
NMTAP	44	288	5
NMTAP	44	336	1
NMTAP	44	336	5
NMTAP	45	48	2
NMTAP	45	48	4
NMTAP	45	96	2
NMTAP	45	96	4
NMTAP	45	192	7
NMTAP	45	240	7
BRTAP	45	288	0
BRTAP	45	288	6
NMTAP	46	0	1
NMTAP	46	48	1
NMTAP	46	96	3
NMTAP	46	144	2
NMTAP	46	192	6
NMTAP	46	240	6
NMSTR	46	288	4
NMSCL	46	288	4	96	96	1
NMSCR	46	288	4	96	96	7
NMTAP	47	192	2
NMTAP	47	240	2
NMTAP	47	288	3
NMTAP	47	336	3
NMSTR	48	0	1
NMSCL	48	0	1	96	96	6
NMSTR	48	192	5
NMSCL	48	192	5	96	96	2
NMTAP	49	0	0
NMSTR	49	96	0
NMSUR	49	96	0	96	96	4
BXHLD	50	0	7	192
NMTAP	50	192	4
NMTAP	50	240	4
NMTAP	50	288	6
NMTAP	50	336	6
NMTAP	51	0	2
NMTAP	51	48	2
NMTAP	51	96	4
NMTAP	51	144	4
NMTAP	51	192	0
NMTAP	51	240	0
NMSTR	51	288	3
NMSI_	51	288	3	96	48	5
CNSI_	52	48	5	0	96	1
CNSI_	52	144	1	0	96	7
EXHLD	52	336	1	96
NMTAP	53	48	7
NMTAP	53	96	7
NMTAP	53	144	4
NMTAP	53	144	6
NMTAP	53	192	4
NMTAP	53	192	6
EXTAP	53	240	3
EXTAP	53	240	5
EXTAP	53	288	3
EXTAP	53	288	5
NMHLD	54	0	2	384
NMTTP	54	192	1	E	0	M1
NMTTP	54	288	3	E	0	M1
NMHLD	55	0	5	384
NMTTP	55	192	7	E	0	M1
NMTTP	55	288	5	E	0	M1
NMHLD	56	0	1	384
NMTTP	56	192	1	E	0	M1
NMTTP	56	288	3	E	0	M1
NMHLD	57	0	6	384
NMTTP	57	192	5	E	0	M1
NMTTP	57	288	4	E	0	M1
NMTAP	58	0	2
NMTAP	58	96	2
NMTAP	58	192	1
NMTAP	58	192	3
NMTAP	58	288	1
NMTAP	58	288	3
NMHLD	59	0	0	96
NMHLD	59	192	1	96
NMHLD	59	192	7	96
NMTAP	60	0	5
NMTAP	60	96	5
NMTAP	60	192	4
NMTAP	60	192	6
NMTAP	60	288	4
NMTAP	60	288	6
NMSTR	61	0	5
NMSCL	61	0	5	96	96	2
NMTAP	61	336	1
NMHLD	62	0	1	96
NMTAP	62	96	3
NMHLD	62	144	3	96
NMHLD	62	240	4	96
NMHLD	62	336	6	96
NMTAP	63	48	0
NMTAP	63	96	0
NMTAP	63	144	1
NMTAP	63	144	5
NMTAP	63	240	2
NMTAP	63	240	6
NMTAP	63	288	2
NMTAP	63	288	6
NMHLD	64	0	1	96
NMHLD	64	0	7	96
NMHLD	64	144	0	96
NMHLD	64	144	6	96
NMTAP	64	336	2
NMTAP	64	336	4
NMTAP	65	48	1
NMTAP	65	96	1
NMTAP	65	144	7
NMTAP	65	192	7
NMTAP	65	240	0
NMTAP	65	288	0
NMTAP	65	336	6
NMSTR	66	0	6
NMSCL	66	0	6	96	192	0
EXTAP	67	48	1
EXTAP	67	48	5
EXTAP	67	96	1
EXTAP	67	96	5
EXTAP	67	144	1
EXTAP	67	144	5
EXHLD	67	192	1	96
EXHLD	67	192	5	96
NMTAP	68	0	0
NMTAP	68	24	7
NMTAP	68	48	0
BXTAP	68	96	1
BXTAP	68	96	6
NMTAP	68	192	3
NMTAP	68	192	5
NMTAP	68	288	2
NMTAP	68	288	4
NMSTR	69	0	2
NMSCL	69	0	2	96	96	7
NMSTR	69	0	3
NMSV_	69	0	3	96	96	6
NMTAP	69	288	4
NMTAP	69	288	5
NMTAP	70	0	6
NMTAP	70	48	6
NMTAP	70	96	5
NMTAP	70	96	7
NMTAP	70	192	1
NMTAP	70	240	1
NMTAP	70	288	0
NMTAP	70	288	2
NMTAP	71	0	2
NMTAP	71	0	3
NMSTR	71	96	2
NMSUR	71	96	2	96	96	7
NMSTR	71	96	3
NMSCR	71	96	3	96	96	6
NMHLD	72	0	6	96
NMHLD	72	96	4	96
NMHLD	72	192	3	96
NMTAP	72	288	1
NMTAP	73	0	2
NMTAP	73	48	2
NMTAP	73	96	3
NMSTR	73	144	0
NMSI_	73	144	0	96	96	3
NMSI_	73	144	0	96	96	5
NMTAP	74	48	4
NMTAP	74	48	5
NMTAP	74	96	4
NMTAP	74	96	5
NMTAP	74	192	0
NMTAP	74	192	7
NMTAP	74	240	0
NMTAP	74	240	7
NMTAP	74	336	2
NMTAP	74	336	3
NMSTR	75	0	2
NMSSR	75	0	2	96	192	6
NMTAP	75	0	3
NMSTR	76	0	4
NMSUR	76	0	4	96	96	1
NMSTR	76	0	5
NMSLR	76	0	5	96	96	1
NMTAP	76	288	1
NMTAP	76	288	3
NMSTR	77	0	4
NMSCL	77	0	4	96	96	1
NMSTR	77	0	5
NMSLR	77	0	5	96	96	1
NMTAP	77	288	1
NMTAP	77	288	3
NMSTR	78	0	0
NMSUR	78	0	0	96	96	4
CNSXL	78	192	4	0	96	6
NMTAP	79	0	4
NMTAP	79	0	5
NMSTR	79	96	6
NMSI_	79	96	6	96	96	2
NMSTR	79	96	7
NMSI_	79	96	7	96	96	3
NMHLD	80	0	1	96
NMHLD	80	96	3	96
NMHLD	80	192	4	96
NMTAP	80	288	6
NMTAP	81	0	5
NMTAP	81	48	5
NMTAP	81	96	4
NMSTR	81	144	7
NMSCL	81	144	7	96	96	4
NMSCR	81	144	7	96	96	2
NMTAP	82	48	2
NMTAP	82	48	4
NMTAP	82	96	2
NMTAP	82	96	4
NMTAP	82	192	0
NMTAP	82	192	7
NMTAP	82	240	0
NMTAP	82	240	7
NMTAP	82	336	3
NMTAP	82	336	5
NMTAP	83	0	3
NMTAP	83	0	5
NMTAP	83	96	2
NMTAP	83	96	6
NMTAP	83	192	1
NMTAP	83	192	5
NMHLD	83	288	2	96
NMHLD	83	288	6	96
EXTAP	84	48	1
EXTAP	84	48	7
EXTAP	84	96	1
EXTAP	84	96	7
EXTAP	84	192	3
EXTAP	84	192	4
EXTAP	84	240	3
EXTAP	84	240	4
BXTAP	84	336	0
BXTAP	84	336	6
BXTAP	85	0	0
BXTAP	85	0	6
NMTAP	85	96	2
NMTAP	85	96	4
NMTAP	85	192	1
NMTAP	85	192	7
NMTAP	85	288	3
NMTAP	85	288	5
BRTAP	86	0	2
BRTAP	86	0	6

T_REC_TAP	248
T_REC_BRK	5
T_REC_XTP	56
T_REC_BXX	10
T_REC_HLD	55
T_REC_XHO	8
T_REC_BHO	0
T_REC_BXH	1
T_REC_STR	42
T_REC_BST	0
T_REC_XST	3
T_REC_XBS	0
T_REC_TTP	12
T_REC_THO	0
T_REC_SLD	47
T_REC_BSL	1
T_REC_ALL	488
T_NUM_TAP	361
T_NUM_BRK	17
T_NUM_HLD	63
T_NUM_SLD	47
T_NUM_ALL	488
T_JUDGE_TAP	376
T_JUDGE_HLD	150
T_JUDGE_SLD	48
T_JUDGE_ALL	574
TTM_EACHPAIRS	139
TTM_SCR_TAP	180500
TTM_SCR_BRK	44200
TTM_SCR_HLD	63000
TTM_SCR_SLD	70500
TTM_SCR_ALL	358200
TTM_SCR_S	345850
TTM_SCR_SS	356500
TTM_RAT_ACV	10047

