VERSION	0.00.00	1.04.00
FES_MODE	0
BPM_DEF	142.000	142.000	142.000	142.000
MET_DEF	4	4
RESOLUTION	384
CLK_DEF	384
COMPATIBLE_CODE	MA2

BPM	0	0	142.000
MET	0	0	4	4

NMSTR	4	0	6
NMSI_	4	0	6	96	288	3
NMSTR	6	0	1
NMSI_	6	0	1	96	288	4
NMTAP	8	0	5
NMTAP	8	96	5
NMTAP	8	192	5
NMTAP	9	0	4
NMTAP	9	96	4
NMTAP	9	192	4
NMTAP	10	0	3
NMTAP	10	96	3
NMTAP	10	192	3
NMTAP	11	0	3
NMTAP	11	0	4
NMTAP	11	192	3
NMTAP	11	192	4
NMTAP	12	0	5
NMTAP	12	96	5
NMTAP	12	192	4
NMTAP	12	192	5
NMTAP	13	0	6
NMTAP	13	96	6
NMTAP	13	192	6
NMTAP	13	192	7
NMTAP	14	0	0
NMTAP	14	96	0
NMTAP	14	192	0
NMTAP	14	192	1
NMTAP	15	0	2
NMTAP	15	0	3
NMTAP	15	96	2
NMTAP	15	96	3
NMTAP	15	192	2
NMTAP	15	192	3
NMTAP	16	0	2
NMTAP	16	96	2
NMTAP	16	192	2
NMTAP	16	192	3
NMTAP	17	0	1
NMTAP	17	96	1
NMTAP	17	192	0
NMTAP	17	192	1
NMTAP	18	0	7
NMTAP	18	96	7
NMTAP	18	192	6
NMTAP	18	192	7
NMTAP	19	0	4
NMTAP	19	0	5
NMTAP	19	96	4
NMTAP	19	96	5
NMTAP	19	192	4
NMTAP	19	192	5
NMTAP	20	0	2
NMTAP	20	0	3
NMTAP	20	96	2
NMTAP	20	96	3
NMTAP	20	192	2
NMTAP	20	192	3
NMTAP	21	0	3
NMTAP	21	0	4
NMTAP	21	96	3
NMTAP	21	96	4
NMTAP	21	192	3
NMTAP	21	192	4
NMHLD	22	0	2	192
NMHLD	22	192	3	192
NMHLD	23	0	4	192
NMTAP	23	192	5
NMHLD	24	0	5	192
NMHLD	24	192	4	192
NMHLD	25	0	3	192
NMTAP	25	192	2
NMTAP	26	0	1
NMTAP	26	192	2
NMTAP	27	0	3
NMTAP	27	192	3
NMTAP	27	192	4
BXTAP	28	0	5
NMTAP	28	96	5
NMTAP	28	192	6
NMTAP	28	288	6
NMTAP	29	0	7
NMTAP	29	96	7
NMTAP	29	192	0
NMTAP	29	192	1
NMTAP	30	0	2
NMTAP	30	96	2
NMTAP	30	192	1
NMTAP	30	288	1
NMTAP	31	0	0
NMTAP	31	96	0
NMTAP	31	192	6
NMTAP	31	192	7
NMTAP	32	0	6
NMTAP	32	96	6
NMTAP	32	192	5
NMTAP	32	288	5
NMTAP	33	0	4
NMTAP	33	96	4
NMTAP	33	192	2
NMTAP	33	192	3
NMTAP	34	0	1
NMTAP	34	96	1
NMTAP	34	192	2
NMTAP	34	288	2
NMTAP	35	0	3
NMTAP	35	96	3
NMTAP	35	192	4
NMTAP	35	192	5
EXTAP	36	0	5
NMTAP	36	96	5
NMTAP	36	192	6
NMTAP	36	288	6
NMTAP	37	0	7
NMTAP	37	96	7
NMTAP	37	192	0
NMTAP	37	192	1
NMTAP	38	0	2
NMTAP	38	96	2
NMTAP	38	192	1
NMTAP	38	288	1
NMTAP	39	0	0
NMTAP	39	96	0
NMTAP	39	192	6
NMTAP	39	192	7
NMTAP	40	0	6
NMTAP	40	96	6
NMTAP	40	192	5
NMTAP	40	288	5
NMTAP	41	0	4
NMTAP	41	96	4
NMTAP	41	192	2
NMTAP	41	192	3
NMTAP	42	0	1
NMTAP	42	96	1
NMTAP	42	192	2
NMTAP	42	288	2
NMTAP	43	0	3
NMTAP	43	96	3
NMTAP	43	192	4
NMTAP	43	192	5
EXSTR	44	0	3
NMSCL	44	0	3	96	288	0
EXSTR	44	0	4
NMSCR	44	0	4	96	288	7
NMTTP	46	0	1	B	0	L1
NMTTP	46	96	2	B	0	L1
NMTTP	46	192	3	B	0	L1
NMTTP	47	0	6	B	0	L1
NMTTP	47	96	5	B	0	L1
NMTTP	47	192	4	B	0	L1
NMTTP	48	0	1	B	0	L1
NMTTP	48	96	2	B	0	L1
NMTTP	48	192	3	B	0	L1
NMTTP	48	288	4	B	0	L1
NMTTP	49	0	5	B	0	L1
NMTTP	49	96	6	B	0	L1
NMTTP	49	192	0	C	0	L1
NMTTP	50	0	7	B	0	L1
NMTTP	50	96	6	B	0	L1
NMTTP	50	192	4	B	0	L1
NMTTP	50	192	5	B	0	L1
NMTTP	51	0	0	B	0	L1
NMTTP	51	96	1	B	0	L1
NMTTP	51	192	2	B	0	L1
NMTTP	51	192	3	B	0	L1
NMTTP	52	0	5	B	0	L1
NMTTP	52	96	4	B	0	L1
NMTTP	52	192	3	B	0	L1
NMTTP	52	288	2	B	0	L1
NMTTP	53	0	0	C	1	L1
NMSTR	54	0	7
NMSI_	54	0	7	96	192	3
NMSTR	55	0	2
NMSI_	55	0	2	96	192	5
NMSTR	56	0	6
NMSI_	56	0	6	96	192	3
NMTAP	57	0	2
NMTAP	57	192	2
NMTAP	57	192	3
NMTAP	58	0	4
NMTAP	58	96	4
NMTAP	58	192	5
NMTAP	59	0	6
NMTAP	59	96	6
NMTAP	59	192	7
NMTAP	60	0	0
NMTAP	60	96	0
NMTAP	60	192	1
NMTAP	61	0	2
NMTAP	61	96	2
NMTAP	61	192	2
NMTAP	61	192	3
NMTAP	62	0	3
NMTAP	62	96	3
NMTAP	62	192	2
NMTAP	63	0	1
NMTAP	63	96	1
NMTAP	63	192	0
NMTAP	64	0	7
NMTAP	64	96	7
NMTAP	64	192	6
NMTAP	65	0	5
NMTAP	65	96	5
NMTAP	65	192	4
NMTAP	65	192	5
NMTAP	66	0	2
NMTAP	66	96	2
NMTAP	66	192	2
NMTAP	66	192	3
EXTAP	67	0	3
EXTAP	67	0	4
EXTAP	67	96	3
EXTAP	67	96	4
EXTAP	67	192	3
EXTAP	67	192	4
NMTAP	68	0	5
BXTAP	68	96	5
NMTAP	68	192	6
NMTAP	68	192	7
NMTAP	68	288	6
NMTAP	68	288	7
NMTAP	69	0	0
NMTAP	69	96	0
NMTAP	69	192	0
NMTAP	69	192	1
NMTAP	70	0	2
NMTAP	70	96	2
NMTAP	70	192	0
NMTAP	70	192	1
NMTAP	70	288	0
NMTAP	70	288	1
NMTAP	71	0	7
NMTAP	71	96	7
NMTAP	71	192	6
NMTAP	71	192	7
NMTAP	72	0	6
NMTAP	72	96	6
NMTAP	72	192	4
NMTAP	72	192	5
NMTAP	72	288	4
NMTAP	72	288	5
NMTAP	73	0	3
NMTAP	73	96	3
NMTAP	73	192	2
NMTAP	73	192	3
NMTAP	74	0	1
NMTAP	74	96	1
NMTAP	74	192	2
NMTAP	74	192	3
NMTAP	74	288	2
NMTAP	74	288	3
NMTAP	75	0	4
NMTAP	75	96	4
NMTAP	75	192	4
NMTAP	75	192	5
NMTAP	76	0	5
NMTAP	76	96	5
NMTAP	76	192	6
NMTAP	76	192	7
NMTAP	76	288	6
NMTAP	76	288	7
NMTAP	77	0	0
NMTAP	77	96	0
NMTAP	77	192	0
NMTAP	77	192	1
NMTAP	77	288	0
NMTAP	77	288	1
NMTAP	78	0	2
NMTAP	78	96	2
NMTAP	78	192	0
NMTAP	78	192	1
NMTAP	78	288	0
NMTAP	78	288	1
NMTAP	79	0	7
NMTAP	79	96	7
NMTAP	79	192	6
NMTAP	79	192	7
NMTAP	80	0	6
NMTAP	80	96	6
NMTAP	80	192	4
NMTAP	80	192	5
NMTAP	80	288	4
NMTAP	80	288	5
NMTAP	81	0	3
NMTAP	81	96	3
NMTAP	81	192	2
NMTAP	81	192	3
NMTAP	81	288	2
NMTAP	81	288	3
NMTAP	82	0	1
NMTAP	82	96	1
NMTAP	82	192	2
NMTAP	82	192	3
NMTAP	82	288	2
NMTAP	82	288	3
NMTAP	83	0	4
NMTAP	83	96	4
NMTAP	83	192	4
NMTAP	83	192	5
NMTAP	84	0	6
NMTAP	84	96	6
NMTAP	84	192	7
NMTAP	84	288	7
NMTAP	85	0	0
NMTAP	85	96	0
NMTAP	85	192	1
NMTAP	85	288	1
BRTAP	86	0	0
BRTAP	86	0	7

T_REC_TAP	254
T_REC_BRK	2
T_REC_XTP	7
T_REC_BXX	2
T_REC_HLD	6
T_REC_XHO	0
T_REC_BHO	0
T_REC_BXH	0
T_REC_STR	5
T_REC_BST	0
T_REC_XST	2
T_REC_XBS	0
T_REC_TTP	26
T_REC_THO	0
T_REC_SLD	7
T_REC_BSL	0
T_REC_ALL	311
T_NUM_TAP	294
T_NUM_BRK	4
T_NUM_HLD	6
T_NUM_SLD	7
T_NUM_ALL	311
T_JUDGE_TAP	298
T_JUDGE_HLD	24
T_JUDGE_SLD	7
T_JUDGE_ALL	329
TTM_EACHPAIRS	64
TTM_SCR_TAP	147000
TTM_SCR_BRK	10400
TTM_SCR_HLD	6000
TTM_SCR_SLD	10500
TTM_SCR_ALL	173900
TTM_SCR_S	168300
TTM_SCR_SS	173500
TTM_RAT_ACV	10023

