VERSION	0.00.00	1.04.00
FES_MODE	0
BPM_DEF	230.000	230.000	230.000	230.000
MET_DEF	4	4
RESOLUTION	384
CLK_DEF	384
COMPATIBLE_CODE	MA2

BPM	0	0	230.000
MET	0	0	4	4

EXTAP	1	288	3
EXTAP	1	312	2
EXTAP	1	336	1
EXTAP	1	360	0
BXSTR	2	0	5
NMSI_	2	0	5	96	48	0
BXTAP	2	0	7
NMTAP	2	96	2
NMSTR	2	144	2
NMSI_	2	144	2	96	48	4
NMTAP	2	240	6
NMTAP	2	288	6
NMSTR	3	0	2
NMSI_	3	0	2	96	48	7
NMTAP	3	96	5
NMSTR	3	144	5
NMSI_	3	144	5	96	48	3
NMTAP	3	240	1
NMTAP	3	288	1
NMTAP	4	0	0
NMTAP	4	48	0
NMTAP	4	96	3
NMHLD	4	144	1	96
NMTAP	4	240	7
NMTAP	4	288	0
NMTAP	4	336	6
NMTAP	5	0	7
NMSTR	5	48	7
NMSCR	5	48	7	96	96	2
NMTAP	5	144	5
NMTAP	5	240	4
NMTAP	5	288	4
NMTAP	6	0	5
NMTAP	6	48	5
NMTAP	6	96	4
NMTAP	6	144	6
NMTAP	6	240	1
NMTAP	6	240	7
NMTAP	6	288	1
NMTAP	6	288	7
NMTAP	7	0	2
NMTAP	7	48	2
NMTAP	7	96	3
NMTAP	7	144	1
NMTAP	7	240	0
NMTAP	7	240	6
NMTAP	7	288	0
NMSTR	7	288	6
NMSI_	7	288	6	96	48	3
BRTAP	8	0	2
NMSTR	8	48	1
NMSI_	8	48	1	96	48	4
BRTAP	8	144	6
NMSTR	8	192	7
NMSI_	8	192	7	96	48	3
BRTAP	8	288	1
NMSTR	8	336	0
NMSI_	8	336	0	96	48	4
BRTAP	9	48	6
NMTAP	9	96	7
NMSTR	9	192	6
NMSI_	9	192	6	96	48	3
NMSTR	9	192	7
NMSI_	9	192	7	96	48	2
BXTAP	10	0	0
BXTAP	10	0	4
NMTAP	10	96	4
NMTAP	10	192	3
NMTAP	10	192	4
NMTAP	10	288	4
NMTAP	11	0	2
NMTAP	11	0	4
NMTAP	11	96	3
NMTAP	11	96	4
NMTAP	11	192	2
NMTAP	11	192	4
NMTAP	11	288	3
NMTAP	11	288	4
NMTAP	12	0	1
NMTAP	12	0	4
NMTAP	12	96	3
NMTAP	12	96	4
NMTAP	12	192	1
NMTAP	12	192	4
NMTAP	12	288	3
NMTAP	12	288	4
EXHLD	13	0	0	144
EXHLD	13	0	4	144
NMTTP	13	192	1	D	0	M1
NMTTP	13	192	5	D	0	M1
NMTTP	13	207	6	D	0	M1
NMTTP	13	208	2	D	0	M1
NMTTP	13	223	7	D	0	M1
NMTTP	13	224	3	D	0	M1
BXTAP	13	288	3
BXTAP	13	288	7
NMTAP	14	0	2
NMTAP	14	0	4
NMTAP	14	96	3
NMTAP	14	96	4
NMTAP	14	192	2
NMTAP	14	192	4
NMTAP	14	288	3
NMTAP	14	288	5
NMTAP	15	0	1
NMTAP	15	0	4
NMTAP	15	96	3
NMTAP	15	96	6
NMTAP	15	192	1
NMTAP	15	192	4
NMTAP	15	288	3
NMTAP	15	288	7
NMHLD	16	0	2	48
NMHLD	16	0	7	48
NMHLD	16	72	1	48
NMHLD	16	72	6	48
NMTAP	16	144	0
NMTAP	16	144	5
NMHLD	16	288	0	48
NMHLD	16	288	1	48
NMHLD	16	360	0	48
NMHLD	16	360	7	48
NMSTR	17	48	6
NMSSR	17	48	6	96	144	2
NMTAP	17	48	7
NMTTP	17	192	0	E	1	M1
NMHLD	18	0	1	96
NMTAP	18	96	3
NMTAP	18	144	3
NMTAP	18	240	2
NMTAP	18	288	3
NMHLD	19	0	6	96
NMTAP	19	96	4
NMTAP	19	144	4
NMTAP	19	240	5
NMTAP	19	288	4
NMHLD	20	0	1	96
NMTAP	20	96	3
NMTAP	20	144	3
NMTAP	20	240	2
NMTAP	20	288	1
NMTAP	20	288	3
NMHLD	21	0	6	96
NMTAP	21	96	4
NMTAP	21	144	4
NMTAP	21	240	5
NMTAP	21	288	4
NMTAP	21	288	6
NMSTR	22	0	1
NMSCR	22	0	1	96	96	3
NMTAP	22	96	4
NMTAP	22	144	4
NMTAP	22	240	5
NMTAP	22	288	5
NMSTR	23	0	6
NMSCL	23	0	6	96	96	4
NMTAP	23	96	3
NMTAP	23	144	3
NMTAP	23	240	2
NMTAP	23	288	2
NMHLD	24	0	1	96
NMTAP	24	96	7
NMHLD	24	144	7	96
NMTAP	24	240	0
NMSTR	24	336	1
NMSI_	24	336	1	96	72	5
NMSTR	24	336	7
NMSI_	24	336	7	96	72	3
EXTAP	25	192	0
EXTAP	25	288	0
NMHLD	26	0	2	96
NMTAP	26	96	3
NMHLD	26	144	1	96
NMTAP	26	240	7
NMHLD	26	288	0	96
NMHLD	27	0	5	96
NMTAP	27	96	4
NMHLD	27	144	6	96
NMTAP	27	240	0
NMHLD	27	288	7	96
NMHLD	28	0	1	96
NMTAP	28	96	2
NMHLD	28	144	0	96
NMTAP	28	240	6
NMTAP	28	288	6
NMHLD	28	288	7	96
NMHLD	29	0	6	96
NMTAP	29	96	5
NMHLD	29	144	7	96
NMTAP	29	240	1
NMHLD	29	288	0	96
NMTAP	29	288	1
NMSTR	30	0	1
NMSCR	30	0	1	96	96	4
NMTAP	30	96	0
NMTAP	30	144	0
NMTAP	30	240	7
NMTAP	30	288	7
NMSTR	31	0	6
NMSCL	31	0	6	96	96	3
NMTAP	31	96	7
NMTAP	31	144	7
NMTAP	31	240	0
NMTAP	31	288	0
NMTAP	32	0	2
NMTAP	32	0	6
BRTAP	32	48	4
BRTAP	32	48	5
NMTAP	32	144	1
NMTAP	32	144	5
BRTAP	32	192	2
BRTAP	32	192	3
NMTAP	32	288	3
NMTAP	32	288	7
BRTAP	32	336	4
BRTAP	32	336	5
NMTAP	33	48	0
NMTAP	33	48	4
BRTAP	33	96	2
BRTAP	33	96	3
NMTAP	33	192	6
NMTAP	33	192	7
NMTAP	33	288	0
NMTAP	33	288	1
NMSTR	34	0	2
NMSCL	34	0	2	96	192	6
NMHLD	34	0	3	96
NMTTP	34	192	0	C	0	M1
NMTTP	34	192	2	B	0	M1
NMSTR	35	0	6
NMSCL	35	0	6	96	192	2
NMHLD	35	0	7	96
NMTTP	35	192	0	C	0	M1
NMTTP	35	192	6	B	0	M1
NMSTR	36	0	0
NMSCL	36	0	0	96	96	5
NMSTR	36	96	5
NMSCL	36	96	5	96	96	2
NMSTR	36	192	2
NMSCL	36	192	2	96	192	4
NMTAP	36	288	6
NMHLD	36	336	6	144
NMTTP	37	192	0	B	0	M1
NMTTP	37	192	0	E	0	M1
NMTTP	37	192	7	B	0	M1
NMSTR	38	0	4
NMSCL	38	0	4	96	192	0
NMHLD	38	0	5	96
NMTTP	38	192	0	C	0	M1
NMTTP	38	192	5	B	0	M1
NMSTR	39	0	0
NMSCL	39	0	0	96	192	4
NMHLD	39	0	1	96
NMTTP	39	192	0	C	0	M1
NMTTP	39	192	1	B	0	M1
NMSTR	40	0	7
NMSI_	40	0	7	96	96	1
NMTTP	40	96	5	E	0	M1
CNSV_	40	192	1	0	96	2
NMTTP	40	192	6	E	0	M1
CNSI_	40	288	2	0	96	4
NMTTP	40	288	7	E	0	M1
EXTAP	41	0	7
NMHLD	41	48	7	96
BRTAP	41	144	0
NMTAP	41	240	2
NMTAP	41	288	2
NMTAP	42	0	3
NMTAP	42	0	6
NMTAP	42	48	5
NMTAP	42	96	5
NMTAP	42	144	4
NMTAP	42	144	6
NMTAP	42	192	5
NMTAP	42	240	5
NMTAP	42	288	3
NMTAP	42	288	6
NMTAP	43	0	1
NMTAP	43	0	4
NMTAP	43	48	2
NMTAP	43	96	2
NMTAP	43	144	1
NMTAP	43	144	3
NMTAP	43	192	2
NMTAP	43	240	2
NMTAP	43	288	1
NMTAP	43	288	4
NMTAP	44	0	0
NMTAP	44	0	5
NMTAP	44	48	6
NMTAP	44	96	6
NMTAP	44	144	5
NMTAP	44	144	7
NMTAP	44	192	6
NMTAP	44	240	6
NMTAP	44	288	0
NMTAP	44	288	5
BRTAP	45	0	6
BRTAP	45	0	7
BRTAP	45	96	0
BRTAP	45	96	1
BRTAP	45	192	2
BRTAP	45	192	3
BRTAP	45	288	4
BRTAP	45	288	5
BRTAP	46	0	6
BRTAP	46	0	7
NMTAP	46	96	0
NMHLD	46	144	0	48
NMTAP	46	192	6
NMHLD	46	240	6	48
NMTAP	46	288	3
NMHLD	46	336	3	48
NMTAP	47	0	4
NMTAP	47	24	5
NMTAP	47	48	6
NMTAP	47	72	7
NMTAP	47	96	0
NMTAP	47	120	1
NMTAP	47	144	2
NMTAP	47	168	3
NMTAP	47	192	4
NMTAP	47	216	5
NMTAP	47	240	6
NMTAP	47	264	7
NMTAP	47	288	0
NMTAP	47	312	1
NMTAP	47	336	2
NMTAP	47	360	3
NMTHO	48	0	0	192	C	0	M1
NMHLD	48	0	4	192
EXTAP	49	0	2
EXTAP	49	0	6
EXTAP	49	96	3
EXTAP	49	96	7
NMTTP	49	192	0	E	0	M1
EXTAP	49	192	3
NMTTP	49	192	7	E	0	M1
NMTTP	49	192	7	A	1	M1
BRHLD	50	0	1	48
BRHLD	50	48	7	48
BRHLD	50	96	1	48
BRHLD	50	144	7	48
NMHLD	50	192	0	48
NMHLD	50	240	6	48
NMHLD	50	288	4	48
NMHLD	50	336	2	48
BRHLD	51	0	1	48
BRHLD	51	48	7	48
BRHLD	51	96	1	48
BRHLD	51	144	7	48
NMHLD	51	192	0	48
NMHLD	51	240	6	48
NMTAP	51	288	4
BRHLD	52	0	1	48
BRHLD	52	48	7	48
BRHLD	52	96	1	48
BRHLD	52	144	7	48
NMHLD	52	192	0	48
NMHLD	52	240	6	48
NMHLD	52	288	4	48
NMHLD	52	336	2	48
NMSTR	53	0	0
NMSCR	53	0	0	96	192	5
BRTAP	53	96	5
BRTAP	53	192	6
BRTAP	53	288	7
BRHLD	54	0	1	48
BRHLD	54	48	7	48
BRHLD	54	96	1	48
BRHLD	54	144	7	48
NMHLD	54	192	0	48
NMHLD	54	240	6	48
NMHLD	54	288	4	48
NMHLD	54	336	2	48
BRHLD	55	0	1	48
BRHLD	55	48	7	48
BRHLD	55	96	1	48
BRHLD	55	144	7	48
NMHLD	55	192	0	48
NMHLD	55	240	6	48
NMTAP	55	288	4
BRTAP	56	0	0
BRHLD	56	0	5	96
EXTAP	56	16	1
EXTAP	56	32	2
EXTAP	56	48	3
BRHLD	56	144	2	96
BRTAP	56	144	7
EXTAP	56	160	6
EXTAP	56	176	5
EXTAP	56	192	4
BRTAP	56	288	1
BRHLD	56	288	7	96
EXTAP	56	304	2
EXTAP	56	320	3
EXTAP	56	336	4
BRHLD	57	48	0	96
BRTAP	57	48	6
EXTAP	57	64	5
EXTAP	57	80	4
EXTAP	57	96	3
NMTAP	57	192	2
NMTAP	57	192	3
NMTAP	57	288	0
NMTAP	57	288	7
NMHLD	58	0	7	48
NMHLD	58	48	6	48
NMHLD	58	96	5	48
NMHLD	58	144	4	48
BRHLD	58	192	3	96
NMTAP	58	288	0
NMHLD	58	336	0	96
NMHLD	59	48	1	48
NMHLD	59	96	2	48
NMHLD	59	144	3	48
NMSTR	59	192	4
NMSI_	59	192	4	96	48	0
NMHLD	60	0	7	48
NMHLD	60	48	6	48
NMHLD	60	96	5	48
NMHLD	60	144	4	48
NMTAP	60	192	3
NMTAP	60	288	0
NMTAP	60	288	4
NMTAP	60	336	0
NMSTR	60	336	4
NMSXL	60	336	4	96	192	0
NMSTR	61	96	3
NMSI_	61	96	3	96	48	0
BRTAP	61	192	3
NMTTP	61	216	0	A	1	M1
NMHLD	62	0	7	48
NMHLD	62	48	6	48
NMHLD	62	96	5	48
NMHLD	62	144	4	48
NMHLD	62	192	3	96
NMTAP	62	288	0
NMHLD	62	336	0	96
NMHLD	63	48	1	48
NMHLD	63	96	2	48
NMHLD	63	144	3	48
NMSTR	63	192	4
NMSI_	63	192	4	96	48	0
BRHLD	64	0	1	96
BRHLD	64	0	7	96
BRHLD	64	144	4	96
BRHLD	64	144	5	96
BRHLD	64	288	0	96
BRHLD	64	288	7	96
BRTAP	65	48	2
BRTAP	65	48	3
BRSTR	65	96	2
NMSI_	65	96	2	96	48	0
BRTAP	65	96	3
NMTTP	65	192	4	B	0	M1
NMTTP	65	192	5	B	1	M1
NMTTP	65	192	5	E	0	M1
BXSTR	66	0	2
BRSCL	66	0	2	96	1440	2
BXSTR	66	0	3
BRSCR	66	0	3	96	1440	3
CNSSR	70	0	2	0	1152	6
CNSSL	70	0	3	0	1152	7
NMHLD	74	0	1	48
NMTAP	74	0	3
NMHLD	74	96	1	48
NMTAP	74	96	3
NMHLD	74	192	2	48
NMTAP	74	192	4
NMHLD	74	288	2	48
NMTAP	74	288	4
NMHLD	75	0	3	48
NMTAP	75	0	5
NMHLD	75	96	3	48
NMTAP	75	96	5
NMHLD	75	192	4	48
NMTAP	75	192	6
NMTAP	75	288	5
NMTAP	75	336	5
NMTAP	76	0	4
NMHLD	76	0	6	48
NMTAP	76	96	4
NMHLD	76	96	6	48
NMTAP	76	192	3
NMHLD	76	192	5	48
NMTAP	76	288	3
NMHLD	76	288	5	48
NMTAP	77	0	2
NMHLD	77	0	4	48
NMTAP	77	96	2
NMHLD	77	96	4	48
NMTAP	77	192	1
NMHLD	77	192	3	48
NMTAP	77	288	2
NMTAP	77	336	2
NMTAP	78	0	3
NMTAP	78	48	1
NMTAP	78	96	3
NMTAP	78	144	1
NMTAP	78	192	4
NMTAP	78	240	0
NMTAP	78	288	5
NMTAP	78	336	7
NMTAP	79	0	6
NMTAP	79	48	0
NMTAP	79	96	5
NMTAP	79	144	1
NMTAP	79	192	4
NMTAP	79	240	2
NMSTR	79	288	3
NMSI_	79	288	3	96	48	5
EXSTR	80	0	3
NMSI_	80	0	3	96	48	1
NMTTP	80	24	5	D	1	M1
EXSTR	80	96	3
NMSCR	80	96	3	96	48	6
NMTTP	80	120	2	D	1	M1
EXSTR	80	192	3
NMSCL	80	192	3	96	48	0
NMTTP	80	216	6	A	1	M1
EXSTR	80	288	3
BRSI_	80	288	3	96	48	7
NMTTP	80	312	0	A	1	M1
EXTAP	81	0	3
NMTTP	81	0	3	B	0	M1
NMTTP	81	12	0	C	0	M1
NMTTP	81	12	7	B	0	M1
NMTTP	81	24	7	A	1	M1
BRTAP	81	288	1
BRTAP	81	288	5
NMHLD	82	0	3	96
NMHLD	82	0	4	96
NMTAP	82	144	2
NMTAP	82	192	3
NMTAP	82	240	1
NMTAP	82	288	7
NMTAP	82	336	0
NMTAP	83	0	5
NMHLD	83	48	5	96
NMTAP	83	96	7
NMTAP	83	144	0
NMTAP	83	192	1
NMHLD	83	240	1	96
NMTAP	83	288	3
NMTAP	83	336	4
NMSTR	84	0	5
NMSV_	84	0	5	96	48	0
NMTAP	84	96	2
NMTAP	84	144	1
NMSTR	84	192	1
NMSV_	84	192	1	96	48	4
NMTAP	84	288	7
NMTAP	85	0	3
NMTAP	85	0	7
NMTAP	85	48	6
NMTAP	85	96	2
NMTAP	85	96	5
NMTAP	85	144	1
NMTAP	85	192	0
NMTAP	85	192	7
NMTAP	85	240	6
NMTAP	85	288	4
NMTAP	85	288	5
NMTAP	85	336	3
NMTAP	86	0	0
NMTAP	86	0	2
NMTAP	86	96	6
NMTAP	86	144	6
NMTAP	86	192	7
NMSTR	86	240	6
NMSCL	86	240	6	96	48	4
NMTAP	86	336	2
EXSTR	86	336	6
NMSI_	86	336	6	96	48	2
NMTAP	87	48	1
EXSTR	87	48	6
NMSCR	87	48	6	96	168	4
BRHLD	87	144	0	96
EXTAP	87	144	6
NMTAP	88	0	1
NMTAP	88	48	1
NMTAP	88	96	3
NMTAP	88	144	2
NMTAP	88	192	4
NMTAP	88	240	3
NMTAP	88	288	5
NMTAP	88	336	4
NMTAP	89	0	3
NMTAP	89	0	6
NMTAP	89	96	1
NMTAP	89	96	4
NMTAP	89	192	2
NMTAP	89	192	5
BRTAP	89	288	7
NMTTP	90	0	2	A	0	M1
NMTAP	90	0	6
NMTTP	90	12	3	D	0	M1
NMTTP	90	24	3	A	0	M1
NMTTP	90	96	1	A	0	M1
NMTAP	90	96	6
NMTTP	90	108	2	E	0	M1
NMTTP	90	120	3	B	0	M1
NMTTP	90	192	0	A	0	M1
NMTAP	90	192	6
NMTTP	90	204	0	B	0	M1
NMTTP	90	216	0	C	0	M1
EXTAP	90	288	6
EXTAP	90	288	7
NMTAP	91	0	1
NMTTP	91	0	5	A	0	M1
NMTTP	91	12	5	D	0	M1
NMTTP	91	24	4	A	0	M1
NMTAP	91	96	1
NMTTP	91	96	6	A	0	M1
NMTTP	91	108	6	E	0	M1
NMTTP	91	120	4	B	0	M1
NMTAP	91	192	1
NMTTP	91	192	7	A	0	M1
NMTTP	91	204	7	B	0	M1
NMTTP	91	216	0	C	0	M1
EXTAP	91	288	0
EXSTR	91	288	1
NMSI_	91	288	1	96	48	4
BRTAP	92	0	6
NMSTR	92	48	6
NMSI_	92	48	6	96	48	3
BRTAP	92	144	0
NMTAP	92	192	0
BRSTR	92	288	1
NMSCR	92	288	1	96	192	7
BRSTR	92	288	6
NMSCL	92	288	6	96	192	0
NMTTP	93	192	0	A	0	M1
NMTTP	93	192	7	A	0	M1
NMTTP	93	204	0	D	1	M1
NMTAP	94	0	1
NMTAP	94	48	1
NMTAP	94	96	0
NMTAP	94	144	1
NMHLD	94	192	7	96
NMHLD	94	288	4	96
NMHLD	95	0	5	96
NMHLD	95	96	0	96
NMHLD	95	192	3	96
NMSTR	95	288	2
NMSI_	95	288	2	96	48	7
NMTAP	96	0	2
BRTAP	96	0	6
NMSTR	96	96	4
NMSLR	96	96	4	96	48	0
BRTAP	96	192	1
NMTAP	96	192	4
NMSTR	96	288	3
BRSCL	96	288	3	96	96	5
BRTAP	97	0	3
NMTTP	97	0	3	E	1	M1
NMTTP	97	16	2	E	0	M1
NMTTP	97	32	1	E	0	M1
NMTTP	97	48	0	E	0	M1
NMTTP	97	64	7	E	0	M1
NMTTP	97	80	6	E	0	M1
BXTAP	97	192	1
BXTAP	97	192	6
NMSTR	98	0	4
NMSI_	98	0	4	96	288	7
NMTAP	98	96	1
NMTAP	98	192	2
NMTAP	98	288	3
NMSTR	99	0	3
NMSI_	99	0	3	96	288	0
NMTAP	99	96	6
NMTAP	99	192	5
NMTAP	99	288	4
NMHLD	100	0	3	144
NMHLD	100	144	2	144
NMSTR	100	288	1
NMSCL	100	288	1	96	216	4
NMTAP	101	0	1
NMTAP	101	144	2
NMTAP	101	288	3
NMSTR	102	0	3
NMSI_	102	0	3	96	288	0
NMTAP	102	96	6
NMTAP	102	192	5
NMTAP	102	288	4
NMSTR	103	0	4
NMSI_	103	0	4	96	288	7
NMTAP	103	96	1
NMTAP	103	192	2
NMTAP	103	288	3
NMHLD	104	0	4	144
NMHLD	104	144	5	144
NMSTR	104	288	6
NMSCR	104	288	6	96	216	3
NMTAP	105	0	6
NMTTP	105	192	0	C	0	M1
NMTTP	105	192	3	B	0	M1
NMTTP	105	192	4	B	0	M1
NMSTR	106	0	1
NMSI_	106	0	1	96	96	4
NMSTR	106	96	4
NMSI_	106	96	4	96	96	0
NMSTR	106	192	0
NMSI_	106	192	0	96	96	5
NMSTR	106	288	5
NMSCR	106	288	5	96	192	2
NMSTR	107	0	4
NMSUR	107	0	4	96	96	2
NMTAP	107	288	6
NMSTR	108	0	6
NMSI_	108	0	6	96	96	3
NMSTR	108	96	3
NMSI_	108	96	3	96	96	7
NMSTR	108	192	7
NMSI_	108	192	7	96	96	2
NMSTR	108	288	2
NMSCL	108	288	2	96	192	5
NMSTR	109	0	3
NMSUL	109	0	3	96	96	5
NMSTR	109	288	1
NMSCR	109	288	1	96	96	4
NMSTR	110	0	4
NMSCR	110	0	4	96	96	7
NMSTR	110	96	7
NMSCR	110	96	7	96	96	2
NMSTR	110	192	2
NMSCR	110	192	2	96	96	5
NMSTR	110	288	5
NMSCR	110	288	5	96	192	3
NMHLD	111	0	7	192
NMTAP	111	288	6
NMHLD	112	0	5	240
NMHLD	112	144	2	96
NMSTR	112	288	3
NMSXR	112	288	3	96	192	0
NMSTR	112	288	4
NMSXL	112	288	4	96	192	7
BRTAP	113	0	3
BRTAP	113	0	4
BRHLD	114	0	6	48
BRHLD	114	48	0	48
BRHLD	114	96	6	48
BRHLD	114	144	0	48
NMHLD	114	192	7	48
NMHLD	114	240	1	48
NMHLD	114	288	3	48
NMHLD	114	336	5	48
BRHLD	115	0	6	48
BRHLD	115	48	0	48
BRHLD	115	96	6	48
BRHLD	115	144	0	48
NMHLD	115	192	7	48
NMHLD	115	240	1	48
NMTAP	115	288	3
BRHLD	116	0	6	48
BRHLD	116	48	0	48
BRHLD	116	96	6	48
BRHLD	116	144	0	48
NMHLD	116	192	7	48
NMHLD	116	240	1	48
NMHLD	116	288	3	48
NMHLD	116	336	5	48
NMSTR	117	0	7
NMSCL	117	0	7	96	144	3
NMTTP	117	192	2	B	0	M1
NMTTP	117	192	2	A	0	M1
NMTTP	117	192	3	D	0	M1
BRHLD	118	0	6	48
BRHLD	118	48	0	48
BRHLD	118	96	6	48
BRHLD	118	144	0	48
NMHLD	118	192	7	48
NMHLD	118	240	1	48
NMHLD	118	288	3	48
NMHLD	118	336	5	48
BRHLD	119	0	6	48
BRHLD	119	48	0	48
BRHLD	119	96	6	48
BRHLD	119	144	0	48
NMHLD	119	192	7	48
NMHLD	119	240	1	48
NMTAP	119	288	3
BRHLD	120	0	2	96
BRTAP	120	0	7
EXTAP	120	16	6
EXTAP	120	32	5
EXTAP	120	48	4
BRTAP	120	144	0
BRHLD	120	144	5	96
EXTAP	120	160	1
EXTAP	120	176	2
EXTAP	120	192	3
BRHLD	120	288	0	96
BRTAP	120	288	6
EXTAP	120	304	5
EXTAP	120	320	4
EXTAP	120	336	3
BRTAP	121	48	1
BRHLD	121	48	7	96
EXTAP	121	64	2
EXTAP	121	80	3
EXTAP	121	96	4
EXTAP	121	192	3
EXTAP	121	192	7
NMTTP	121	288	0	E	0	M1
EXTAP	121	288	3
NMTTP	121	288	7	B	0	M1
NMTTP	121	288	7	E	0	M1
NMTTP	121	288	7	A	1	M1
BXTAP	122	144	0
BXTAP	122	144	6
BXTAP	122	160	1
BXTAP	122	160	5
BXTAP	122	176	2
BXTAP	122	176	4
BXTAP	122	192	3
NMTAP	122	288	7
NMHLD	122	336	7	96
NMHLD	123	48	0	48
NMHLD	123	96	1	48
NMHLD	123	144	2	48
NMSTR	123	192	3
NMSI_	123	192	3	96	48	7
NMHLD	124	0	0	48
NMHLD	124	48	1	48
NMHLD	124	96	2	48
NMHLD	124	144	3	48
NMTAP	124	192	4
NMTAP	124	288	3
NMTAP	124	288	7
NMSTR	124	336	3
NMSXR	124	336	3	96	192	7
NMTAP	124	336	7
NMSTR	125	96	4
NMSI_	125	96	4	96	48	7
BRTAP	125	192	4
NMTTP	125	216	7	A	1	M1
NMHLD	126	0	0	48
NMHLD	126	48	1	48
NMHLD	126	96	2	48
NMHLD	126	144	3	48
NMHLD	126	192	4	96
NMTAP	126	288	7
NMHLD	126	336	7	96
NMHLD	127	48	0	48
NMHLD	127	96	1	48
NMHLD	127	144	2	48
NMSTR	127	192	3
NMSI_	127	192	3	96	48	7
BRTAP	128	0	1
NMTAP	128	24	0
NMTAP	128	48	1
NMTAP	128	72	0
BRTAP	128	144	6
NMTAP	128	168	7
NMTAP	128	192	6
NMTAP	128	216	7
BRTAP	128	288	3
NMTAP	128	312	4
NMTAP	128	336	3
NMTAP	128	360	4
BRTAP	129	48	2
BRTAP	129	48	3
BRSTR	129	96	2
NMSUL	129	96	2	96	48	5
BRSTR	129	96	3
NMSXL	129	96	3	96	48	5
BRTAP	129	192	2
BRTAP	129	192	3
NMTTP	129	216	5	A	1	M1
NMTAP	130	0	1
NMTAP	130	48	1
NMTAP	130	96	0
NMSTR	130	144	2
NMSCL	130	144	2	96	96	7
NMTAP	130	240	6
NMTAP	130	288	5
NMTAP	130	336	4
NMTAP	131	0	3
NMSTR	131	48	3
NMSI_	131	48	3	96	48	7
NMTAP	131	96	0
NMTAP	131	144	3
NMTAP	131	240	2
NMTAP	131	288	4
NMTAP	131	336	3
NMTAP	132	0	5
NMTAP	132	48	5
NMTAP	132	96	7
NMSTR	132	144	6
NMSCL	132	144	6	96	96	3
NMTAP	132	240	2
NMTAP	132	288	1
NMTAP	132	336	0
NMTAP	133	0	7
NMSTR	133	48	7
NMSI_	133	48	7	96	48	3
NMTAP	133	96	4
NMTAP	133	144	7
BRTAP	133	240	0
BRTAP	133	240	6
BRTAP	133	288	1
BRTAP	133	288	7
NMTAP	134	0	2
NMTAP	134	48	2
NMTAP	134	96	3
NMTAP	134	144	1
NMSTR	134	144	4
NMSI_	134	144	4	96	48	6
BRTAP	134	240	7
BRTAP	134	288	7
NMTAP	135	0	5
NMTAP	135	48	5
NMTAP	135	96	4
NMSTR	135	144	3
NMSI_	135	144	3	96	48	1
NMTAP	135	144	6
BRTAP	135	240	0
BRTAP	135	288	0
NMTAP	136	0	2
BRTAP	136	0	7
EXTAP	136	12	3
EXTAP	136	24	4
EXTAP	136	36	5
BRTAP	136	48	7
BRTAP	136	144	1
NMTAP	136	144	6
EXTAP	136	156	5
EXTAP	136	168	4
EXTAP	136	180	3
BRTAP	136	192	1
NMTAP	136	288	1
BRTAP	136	288	6
EXTAP	136	300	2
EXTAP	136	312	3
EXTAP	136	324	4
BRTAP	136	336	6
BRTAP	137	48	0
NMTAP	137	48	5
EXTAP	137	60	4
EXTAP	137	72	3
EXTAP	137	84	2
BRTAP	137	96	0
NMSTR	137	192	6
NMSI_	137	192	6	96	48	3
NMSTR	137	192	7
NMSI_	137	192	7	96	48	2
BXTAP	138	0	0
BXTAP	138	0	4
NMSTR	138	96	5
NMSI_	138	96	5	96	48	3
NMTAP	138	144	5
NMSTR	138	192	2
NMSI_	138	192	2	96	48	0
NMTAP	138	240	2
NMSTR	138	288	4
NMSI_	138	288	4	96	48	7
NMTAP	138	336	4
NMSTR	139	0	1
NMSI_	139	0	1	96	48	4
NMTAP	139	48	1
NMSTR	139	96	6
NMSI_	139	96	6	96	48	3
NMTAP	139	144	6
NMSTR	139	192	0
NMSI_	139	192	0	96	48	3
NMTAP	139	240	0
NMSTR	139	288	7
NMSCL	139	288	7	96	48	4
NMTAP	139	336	7
NMSTR	140	0	1
NMSUR	140	0	1	96	48	5
NMTAP	140	48	1
NMSTR	140	96	6
NMSI_	140	96	6	96	48	2
NMTAP	140	144	6
NMTAP	140	192	7
NMTAP	140	240	7
NMTAP	140	288	3
NMTAP	140	336	3
EXHLD	141	0	3	144
EXHLD	141	0	7	144
NMTTP	141	192	0	D	0	M1
NMTTP	141	192	4	D	0	M1
NMTTP	141	199	4	A	0	M1
NMTTP	141	200	0	A	0	M1
NMTTP	141	207	5	D	0	M1
NMTTP	141	208	1	D	0	M1
NMTTP	141	215	5	A	0	M1
NMTTP	141	216	1	A	0	M1
NMTTP	141	223	6	D	0	M1
NMTTP	141	224	2	D	0	M1
NMTTP	141	231	6	A	0	M1
NMTTP	141	232	2	A	0	M1
BXTAP	141	288	1
BXTAP	141	288	5
NMSTR	142	0	0
NMSI_	142	0	0	96	48	4
NMTAP	142	48	0
NMSTR	142	96	5
NMSI_	142	96	5	96	48	1
NMTAP	142	144	5
NMSTR	142	192	7
NMSI_	142	192	7	96	48	3
NMTAP	142	240	7
NMSTR	142	288	6
NMSI_	142	288	6	96	48	2
NMTAP	142	336	6
NMTAP	143	0	1
NMTAP	143	48	1
NMTAP	143	96	3
NMTAP	143	144	3
NMTAP	143	192	2
NMTAP	143	192	4
NMTAP	143	240	2
NMTAP	143	240	4
NMTAP	143	288	2
NMTAP	143	288	4
BRHLD	144	0	1	48
BRHLD	144	0	5	48
BRHLD	144	72	0	48
BRHLD	144	72	4	48
BRHLD	144	144	3	48
BRHLD	144	144	7	48
BRHLD	144	288	0	48
BRHLD	144	288	4	48
BRHLD	144	360	3	48
BRHLD	144	360	7	48
BRSTR	145	48	2
NMSI_	145	48	2	96	48	4
BRSTR	145	48	6
NMSI_	145	48	6	96	48	0
CNSI_	145	192	0	0	48	4
CNSI_	145	192	4	0	48	0
NMTTP	145	216	0	C	1	M1
CNSI_	145	240	0	0	48	6
CNSI_	145	240	4	0	48	2

T_REC_TAP	380
T_REC_BRK	72
T_REC_XTP	56
T_REC_BXX	18
T_REC_HLD	137
T_REC_XHO	4
T_REC_BHO	66
T_REC_BXH	0
T_REC_STR	87
T_REC_BST	7
T_REC_XST	7
T_REC_XBS	3
T_REC_TTP	88
T_REC_THO	1
T_REC_SLD	100
T_REC_BSL	4
T_REC_ALL	1030
T_NUM_TAP	618
T_NUM_BRK	170
T_NUM_HLD	142
T_NUM_SLD	100
T_NUM_ALL	1030
T_JUDGE_TAP	718
T_JUDGE_HLD	295
T_JUDGE_SLD	104
T_JUDGE_ALL	1117
TTM_EACHPAIRS	150
TTM_SCR_TAP	309000
TTM_SCR_BRK	442000
TTM_SCR_HLD	142000
TTM_SCR_SLD	150000
TTM_SCR_ALL	1043000
TTM_SCR_S	995250
TTM_SCR_SS	1026000
TTM_RAT_ACV	10165

