VERSION	0.00.00	1.04.00
FES_MODE	0
BPM_DEF	230.000	230.000	230.000	230.000
MET_DEF	4	4
RESOLUTION	384
CLK_DEF	384
COMPATIBLE_CODE	MA2

BPM	0	0	230.000
MET	0	0	4	4

NMHLD	2	0	1	96
NMTAP	2	96	3
NMTAP	2	192	2
NMTAP	2	240	2
NMTAP	2	288	4
NMHLD	3	0	6	96
NMTAP	3	96	4
NMTAP	3	192	5
NMTAP	3	240	5
NMTAP	3	288	3
NMHLD	4	0	2	96
NMTAP	4	96	3
NMTAP	4	192	4
NMTAP	4	288	5
NMTAP	5	0	0
NMTAP	5	0	6
NMTAP	5	96	0
NMTAP	5	96	6
NMTAP	5	192	1
NMTAP	5	192	5
NMHLD	6	0	2	96
NMTAP	6	96	0
NMTAP	6	192	1
NMTAP	6	240	1
NMTAP	6	288	7
NMHLD	7	0	5	96
NMTAP	7	96	7
NMTAP	7	192	6
NMTAP	7	240	6
NMTAP	7	288	0
EXTAP	8	0	2
EXTAP	8	0	3
EXTAP	8	144	0
EXTAP	8	144	7
EXTAP	8	288	4
EXTAP	8	288	5
EXTAP	9	48	0
EXTAP	9	48	7
EXTAP	9	192	2
EXTAP	9	192	5
NMSTR	10	0	1
NMSCR	10	0	1	96	480	0
NMHLD	10	0	6	576
NMTAP	12	0	6
NMTAP	12	0	7
NMTAP	12	96	6
NMTAP	12	96	7
NMTAP	12	192	5
NMTAP	12	240	5
NMTAP	12	288	4
NMTAP	13	0	2
NMTAP	13	0	3
NMTAP	13	96	2
NMTAP	13	96	3
BXHLD	13	192	0	96
BXHLD	13	192	1	96
NMTAP	14	0	2
NMTAP	14	0	3
NMTAP	14	96	2
NMTAP	14	96	3
NMTAP	14	192	5
NMTAP	14	240	5
NMTAP	14	288	4
NMTAP	15	0	6
NMTAP	15	96	5
NMTAP	15	96	7
NMTAP	15	192	5
NMTAP	15	192	7
EXHLD	16	0	0	96
EXHLD	16	0	2	96
EXHLD	16	288	5	96
EXHLD	16	288	7	96
BXTAP	17	192	1
BXTAP	17	192	6
NMHLD	18	0	2	192
NMHLD	18	192	3	192
NMHLD	19	0	1	192
NMHLD	19	192	2	192
NMTAP	20	0	3
NMTAP	20	192	2
NMTAP	20	288	2
NMSTR	21	0	1
NMSI_	21	0	1	96	96	7
NMTAP	21	0	3
NMHLD	22	0	5	192
NMHLD	22	192	4	192
NMHLD	23	0	6	192
NMHLD	23	192	5	192
NMTAP	24	0	4
NMTAP	24	96	4
NMTAP	24	192	2
NMTAP	24	192	3
NMTAP	24	288	2
NMTAP	24	288	3
NMSTR	25	0	1
NMSI_	25	0	1	96	96	6
NMTAP	25	0	4
NMTAP	26	0	5
NMTAP	26	96	5
NMTAP	26	192	3
NMTAP	26	288	3
NMTAP	27	0	6
NMTAP	27	96	6
NMTAP	27	192	4
NMTAP	27	288	3
NMTAP	27	288	5
NMTAP	28	0	2
NMTAP	28	96	4
NMTAP	28	192	2
NMTAP	28	288	1
NMSTR	29	0	0
NMSI_	29	0	0	96	96	3
NMTAP	29	0	3
NMTAP	30	0	2
NMTAP	30	96	2
NMTAP	30	192	4
NMTAP	30	288	4
NMTAP	31	0	1
NMTAP	31	96	1
NMTAP	31	192	0
NMTAP	31	192	7
EXTAP	32	0	6
EXHLD	32	48	6	96
EXTAP	32	144	7
EXTAP	32	192	7
EXTAP	32	288	1
EXHLD	32	336	1	96
EXTAP	33	48	0
EXTAP	33	96	0
BXTAP	33	192	2
BXTAP	33	192	7
NMSTR	34	0	6
NMSCL	34	0	6	96	192	2
NMSTR	35	0	1
NMSCR	35	0	1	96	192	5
NMHLD	36	0	6	384
NMSTR	36	192	5
NMSUL	36	192	5	96	288	2
NMHLD	38	0	0	192
NMSTR	38	0	1
NMSUR	38	0	1	96	144	5
NMSTR	39	0	6
NMSUL	39	0	6	96	144	2
NMHLD	39	0	7	192
NMTAP	40	0	1
NMTAP	40	96	2
NMTAP	40	192	3
NMSTR	40	288	4
NMSXL	40	288	4	96	240	0
EXTAP	42	0	0
EXTAP	42	0	1
NMTAP	42	96	0
NMTAP	42	96	1
NMTAP	42	192	2
NMTAP	42	240	2
NMTAP	42	288	3
NMTAP	43	0	4
NMTAP	43	0	5
NMTAP	43	96	4
NMTAP	43	96	5
NMTAP	43	192	6
NMTAP	43	240	6
NMTAP	43	288	7
NMTAP	44	0	5
NMTAP	44	96	3
NMTAP	44	96	4
NMTAP	44	192	2
NMTAP	44	240	2
NMTAP	44	288	3
NMTAP	45	0	0
NMTAP	45	0	1
NMTAP	45	96	0
NMTAP	45	96	7
NMTAP	45	192	6
NMTAP	45	192	7
NMTAP	45	288	0
NMTAP	45	288	5
NMTAP	46	0	6
NMTAP	46	96	6
NMTAP	46	96	7
NMTAP	46	192	0
NMTAP	46	192	1
NMTAP	46	288	0
NMTAP	46	288	1
NMTAP	47	0	2
NMTAP	47	0	3
NMTAP	47	96	4
NMTAP	47	96	5
NMTAP	47	192	6
NMTAP	47	192	7
NMSTR	47	288	0
NMSCL	47	288	0	96	288	1
NMHLD	47	288	5	384
NMTTP	49	0	5	E	0	M1
NMTTP	49	96	3	E	0	M1
NMTTP	49	192	4	E	0	M1
NMTAP	50	0	1
NMTAP	50	48	1
NMTAP	50	96	3
NMTAP	50	144	3
NMTAP	50	192	0
NMTAP	50	288	5
NMTAP	50	288	7
NMTAP	51	0	6
NMTAP	51	48	6
NMTAP	51	96	4
NMTAP	51	144	4
NMTAP	51	192	7
NMTAP	51	288	0
NMTAP	51	288	2
NMTAP	52	0	1
NMTAP	52	48	1
NMTAP	52	96	3
NMTAP	52	144	3
NMTAP	52	192	7
NMTAP	52	288	0
NMSTR	52	288	5
NMSCR	52	288	5	96	192	2
NMTAP	54	0	6
NMTAP	54	48	6
NMTAP	54	96	4
NMTAP	54	144	4
NMTAP	54	192	0
NMTAP	54	288	0
NMTAP	54	288	1
NMTAP	55	0	1
NMTAP	55	48	1
NMTAP	55	96	3
NMTAP	55	144	3
NMTAP	55	192	7
NMTAP	55	288	6
NMTAP	55	288	7
EXHLD	56	0	5	96
EXHLD	56	144	6	96
EXHLD	56	144	7	96
EXHLD	56	288	2	96
EXHLD	57	48	0	96
EXHLD	57	48	1	96
EXTAP	57	192	2
EXSTR	57	192	7
BRSI_	57	192	7	96	96	4
EXHLD	58	0	3	192
NMTAP	58	192	0
NMTAP	58	288	1
NMTAP	58	288	7
NMTAP	58	336	1
NMTAP	58	336	7
NMTAP	59	48	5
NMTAP	59	96	5
NMTAP	59	144	7
NMTAP	59	192	7
NMTAP	59	288	1
NMTAP	59	288	5
NMTAP	60	0	6
NMTAP	60	48	6
NMTAP	60	96	4
NMTAP	60	144	4
NMTAP	60	192	3
NMTAP	60	288	1
NMHLD	60	336	1	144
NMTTP	61	96	6	B	0	M1
NMTTP	61	192	5	E	0	M1
NMTAP	62	0	2
NMTAP	62	48	2
NMTAP	62	96	3
NMTAP	62	144	3
NMTAP	62	192	0
NMTAP	62	288	6
NMTAP	62	288	7
NMTAP	62	336	6
NMTAP	62	336	7
NMTAP	63	48	5
NMTAP	63	96	5
NMTAP	63	144	4
NMTAP	63	192	4
NMTAP	63	288	3
NMTAP	63	288	6
EXHLD	64	0	4	96
EXHLD	64	0	5	96
EXHLD	64	144	2	96
EXHLD	64	144	3	96
EXTAP	64	288	0
EXTAP	64	288	7
EXTAP	65	48	2
EXTAP	65	48	5
EXTAP	65	96	2
EXTAP	65	96	5
BRTAP	65	192	0
BRTAP	65	192	7
NMSTR	66	0	1
NMSXL	66	0	1	96	576	7
NMSTR	68	0	6
NMSXL	68	0	6	96	576	4
NMSTR	70	0	3
NMSXL	70	0	3	96	576	1
NMSTR	72	0	7
NMSXL	72	0	7	96	576	5
NMHLD	74	0	2	96
NMTAP	74	192	1
NMTAP	74	192	3
NMTAP	74	288	1
NMTAP	74	288	3
NMHLD	75	0	2	96
NMTAP	75	192	1
NMTAP	75	192	3
NMTAP	75	288	0
NMTAP	75	288	4
NMHLD	76	0	5	96
NMTAP	76	192	4
NMTAP	76	192	6
NMTAP	76	288	4
NMTAP	76	288	6
NMHLD	77	0	5	96
NMTAP	77	192	4
NMTAP	77	192	6
NMTAP	77	288	3
NMTAP	77	288	7
NMHLD	78	0	6	96
NMTAP	78	96	4
NMTAP	78	192	5
NMTAP	78	288	3
NMTAP	78	288	4
NMHLD	79	0	1	96
NMTAP	79	96	3
NMTAP	79	192	0
NMTAP	79	288	1
NMHLD	79	288	7	384
NMTAP	80	0	2
NMTAP	80	96	2
NMTAP	80	192	3
NMTAP	80	288	3
NMSTR	81	0	4
BRSI_	81	0	4	96	96	0
NMTAP	82	0	4
NMTAP	82	96	5
NMTAP	82	192	6
NMTAP	82	240	6
NMTAP	82	288	7
NMTAP	83	0	1
NMTAP	83	48	1
NMTAP	83	96	3
NMTAP	83	192	2
NMTAP	83	192	4
NMTAP	84	0	3
NMTAP	84	0	5
NMTAP	84	96	3
NMTAP	84	96	5
NMTAP	84	192	2
NMTAP	84	240	2
NMTAP	84	288	0
NMTAP	85	0	6
NMTAP	85	48	6
NMTAP	85	96	7
NMTAP	85	192	4
NMTAP	85	192	5
EXTAP	86	0	2
EXTAP	86	0	3
NMSTR	86	96	2
NMSI_	86	96	2	96	96	5
NMTAP	86	96	3
EXTAP	87	0	4
EXTAP	87	0	6
NMTAP	87	96	4
NMSTR	87	96	6
NMSI_	87	96	6	96	96	1
EXTAP	88	0	2
EXTAP	88	0	3
NMTAP	88	96	2
NMTAP	88	96	3
NMTAP	88	192	4
NMTAP	88	192	5
NMSTR	88	288	6
NMSCL	88	288	6	96	96	3
NMSTR	88	288	7
NMSCR	88	288	7	96	96	2
NMTAP	89	192	1
NMTAP	89	192	4
NMHLD	90	0	1	192
NMTAP	90	96	0
NMTAP	90	192	0
NMTAP	90	288	2
NMTAP	90	288	7
NMHLD	91	0	6	192
NMTAP	91	96	7
NMTAP	91	192	7
NMTAP	91	288	0
NMTAP	91	288	5
EXTAP	92	0	2
EXTAP	92	0	4
EXTAP	92	144	0
EXTAP	92	144	7
EXTAP	92	288	3
EXSTR	92	288	5
NMSCR	92	288	5	96	192	1
NMHLD	94	0	2	96
NMHLD	94	96	3	96
NMHLD	94	192	4	96
NMHLD	94	288	5	96
NMHLD	95	0	6	96
NMHLD	95	96	7	96
NMHLD	95	192	0	96
NMHLD	95	288	1	96
NMSTR	96	0	2
NMSCR	96	0	2	96	288	1
NMTTP	97	0	0	C	1	M1
NMSTR	98	0	0
NMSI_	98	0	0	96	96	5
NMHLD	98	0	6	576
NMSTR	99	0	4
NMSI_	99	0	4	96	96	7
NMTAP	100	0	5
NMTAP	100	0	7
NMTAP	100	96	6
NMTAP	100	192	5
NMTAP	100	288	4
NMTAP	101	0	3
NMTAP	101	96	3
NMTAP	101	192	2
NMTAP	101	192	4
NMHLD	102	0	1	576
NMSTR	102	0	7
NMSI_	102	0	7	96	96	2
NMSTR	103	0	3
NMSI_	103	0	3	96	96	0
NMTAP	104	0	0
NMTAP	104	0	2
NMTAP	104	96	1
NMTAP	104	192	2
NMTAP	104	288	3
NMSTR	105	0	4
NMSI_	105	0	4	96	96	0
NMSTR	105	0	5
NMSI_	105	0	5	96	96	7
NMTAP	106	0	5
NMTAP	106	96	6
NMTAP	106	192	7
NMTAP	106	240	7
NMTAP	106	288	0
NMTAP	107	0	1
NMTAP	107	96	2
NMTAP	107	96	3
NMTAP	107	192	1
NMTAP	107	192	4
NMTAP	108	0	2
NMTAP	108	96	1
NMTAP	108	192	0
NMTAP	108	240	0
NMTAP	108	288	7
NMTAP	109	0	6
NMTAP	109	96	4
NMTAP	109	96	5
NMTAP	109	192	3
NMTAP	109	192	6
NMHLD	110	0	5	96
NMTAP	110	96	7
NMHLD	110	192	2	96
NMTAP	110	288	0
NMTAP	111	0	6
NMTAP	111	48	6
NMTAP	111	96	7
NMTAP	111	192	0
NMTAP	111	192	5
NMTAP	111	288	6
NMSTR	112	0	0
NMSI_	112	0	0	96	96	3
NMSTR	112	0	7
NMSI_	112	0	7	96	96	4
NMHLD	113	0	1	96
NMHLD	113	0	6	96
EXTAP	113	192	1
EXTAP	113	192	6
NMTAP	114	0	2
NMTAP	114	96	1
NMTAP	114	96	3
NMTAP	114	288	3
NMTAP	114	288	4
NMTAP	115	96	4
NMTAP	115	96	6
NMTAP	115	288	3
NMTAP	115	288	4
NMTAP	116	96	1
NMTAP	116	96	3
NMSTR	116	288	0
NMSCR	116	288	0	96	192	3
NMSTR	116	288	7
NMSCL	116	288	7	96	192	4
NMTAP	118	0	1
NMTAP	118	96	0
NMTAP	118	96	2
NMTAP	118	288	0
NMTAP	118	288	7
NMTAP	119	96	5
NMTAP	119	96	7
NMTAP	119	288	0
NMTAP	119	288	7
EXHLD	120	0	2	96
EXTAP	120	96	0
EXHLD	120	144	0	96
EXTAP	120	240	7
EXHLD	120	288	7	96
EXTAP	121	0	5
EXHLD	121	48	5	96
EXTAP	121	144	4
EXTAP	121	192	4
BRSTR	121	288	7
BRSI_	121	288	7	96	96	4
NMTAP	122	192	2
NMTAP	122	192	6
NMTAP	122	288	0
NMTAP	122	288	1
NMTAP	122	336	0
NMTAP	122	336	1
NMTAP	123	48	5
NMTAP	123	96	5
NMTAP	123	144	7
NMTAP	123	192	7
NMTAP	123	288	1
NMTAP	123	288	4
NMTAP	124	0	2
NMTAP	124	48	2
NMTAP	124	96	0
NMTAP	124	144	0
NMTAP	124	192	4
NMTAP	124	288	3
NMTAP	124	288	5
NMTAP	124	336	3
NMTAP	124	336	5
BRTAP	125	96	6
BRTAP	125	96	7
BRHLD	125	192	0	96
BRHLD	125	192	5	96
NMTAP	126	0	1
NMTAP	126	48	1
NMTAP	126	96	3
NMTAP	126	144	3
NMTAP	126	192	4
NMTAP	126	288	6
NMTAP	126	288	7
NMTAP	126	336	6
NMTAP	126	336	7
NMTAP	127	48	5
NMTAP	127	96	5
NMTAP	127	144	3
NMTAP	127	192	3
NMTAP	127	288	0
NMTAP	127	288	1
BXHLD	128	0	2	96
BXHLD	128	0	7	96
BXHLD	128	144	0	96
BXHLD	128	144	5	96
BXHLD	128	288	3	96
BXHLD	128	288	4	96
BXTAP	129	48	2
BXTAP	129	48	5
BXTAP	129	96	2
BXTAP	129	96	5
BRTAP	129	192	0
BRTAP	129	192	7
NMHLD	130	0	5	96
NMTAP	130	96	7
NMTAP	130	192	6
NMTAP	130	240	6
NMTAP	130	288	0
NMHLD	131	0	2	96
NMTAP	131	96	0
NMTAP	131	192	1
NMTAP	131	240	1
NMTAP	131	288	7
NMHLD	132	0	6	96
NMTAP	132	96	4
NMTAP	132	192	2
NMTAP	132	240	2
NMTAP	132	288	3
NMTAP	133	0	1
NMTAP	133	0	4
NMTAP	133	96	0
NMTAP	133	96	5
NMTAP	133	192	6
NMTAP	133	192	7
NMHLD	134	0	1	96
NMTAP	134	96	0
NMTAP	134	192	2
NMTAP	134	240	2
NMTAP	134	288	3
NMHLD	135	0	5	96
NMTAP	135	96	4
NMTAP	135	192	6
NMTAP	135	240	6
NMTAP	135	288	7
EXTAP	136	0	0
EXTAP	136	0	1
EXTAP	136	48	0
EXTAP	136	48	1
EXTAP	136	144	3
EXTAP	136	144	4
EXTAP	136	192	3
EXTAP	136	192	4
EXTAP	136	288	6
EXTAP	136	288	7
EXTAP	136	336	6
EXTAP	136	336	7
EXTAP	137	48	3
EXTAP	137	48	4
EXTAP	137	96	3
EXTAP	137	96	4
EXTAP	137	192	1
EXTAP	137	192	6
EXHLD	138	0	2	576
EXSTR	138	0	5
NMSCR	138	0	5	96	480	4
NMTAP	140	0	1
NMTAP	140	96	1
NMTAP	140	192	2
NMTAP	140	192	4
NMTAP	140	288	5
NMTAP	141	0	6
NMTAP	141	96	6
NMTAP	141	96	7
BXHLD	141	192	0	96
BXHLD	141	192	5	96
NMTAP	142	0	1
NMTAP	142	96	2
NMTAP	142	96	3
NMTAP	142	192	4
NMTAP	142	192	5
NMTAP	142	288	4
NMTAP	142	288	5
NMTAP	143	0	0
NMTAP	143	96	1
NMTAP	143	96	7
NMTAP	143	192	2
NMTAP	143	192	6
NMTAP	143	288	5
BXSTR	144	0	3
BRSCL	144	0	3	96	96	1
BXSTR	144	0	4
BRSCR	144	0	4	96	96	6
BXSTR	144	288	3
BRSI_	144	288	3	96	96	0
BXSTR	144	288	4
BRSI_	144	288	4	96	96	7
BRHLD	145	192	1	192
BRHLD	145	192	6	192

T_REC_TAP	399
T_REC_BRK	6
T_REC_XTP	61
T_REC_BXX	8
T_REC_HLD	47
T_REC_XHO	22
T_REC_BHO	4
T_REC_BXH	10
T_REC_STR	32
T_REC_BST	1
T_REC_XST	3
T_REC_XBS	4
T_REC_TTP	6
T_REC_THO	0
T_REC_SLD	33
T_REC_BSL	7
T_REC_ALL	643
T_NUM_TAP	501
T_NUM_BRK	40
T_NUM_HLD	69
T_NUM_SLD	33
T_NUM_ALL	643
T_JUDGE_TAP	520
T_JUDGE_HLD	255
T_JUDGE_SLD	40
T_JUDGE_ALL	815
TTM_EACHPAIRS	160
TTM_SCR_TAP	250500
TTM_SCR_BRK	104000
TTM_SCR_HLD	69000
TTM_SCR_SLD	49500
TTM_SCR_ALL	473000
TTM_SCR_S	454950
TTM_SCR_SS	469000
TTM_RAT_ACV	10085

