VERSION	0.00.00	1.04.00
FES_MODE	0
BPM_DEF	230.000	230.000	230.000	230.000
MET_DEF	4	4
RESOLUTION	384
CLK_DEF	384
COMPATIBLE_CODE	MA2

BPM	0	0	230.000
MET	0	0	4	4

NMTAP	2	0	3
NMTAP	2	192	3
NMTAP	3	0	2
NMTAP	3	192	2
NMTAP	4	0	1
NMTAP	4	192	1
NMTAP	5	0	0
NMTAP	5	0	7
NMTAP	5	192	0
NMTAP	5	192	7
NMTAP	6	0	7
NMTAP	6	192	7
NMTAP	7	0	6
NMTAP	7	192	6
NMTAP	8	0	5
NMTAP	8	192	5
NMTAP	9	0	3
NMTAP	9	0	4
NMTAP	10	0	4
NMTAP	10	192	4
NMTAP	11	0	5
NMTAP	11	192	5
NMTAP	12	0	6
NMTAP	12	192	6
NMTAP	13	0	0
NMTAP	13	0	7
NMTAP	13	192	0
NMTAP	13	192	7
NMTAP	14	0	0
NMTAP	14	192	0
NMTAP	15	0	1
NMTAP	15	192	1
EXHLD	16	0	2	576
EXHLD	16	288	3	288
NMTAP	18	0	2
NMTAP	18	96	2
NMTAP	18	192	2
NMTAP	19	0	2
NMTAP	19	0	3
NMTAP	19	192	2
NMTAP	19	192	3
NMTAP	20	0	1
NMTAP	20	96	1
NMTAP	20	192	1
NMTAP	21	0	0
NMTAP	21	0	1
NMTAP	21	192	0
NMTAP	21	192	1
NMTAP	22	0	7
NMTAP	22	96	7
NMTAP	22	192	7
NMTAP	23	0	6
NMTAP	23	0	7
NMTAP	23	192	6
NMTAP	23	192	7
NMTAP	24	0	5
NMTAP	24	96	5
NMTAP	24	192	5
NMTAP	25	0	4
NMTAP	25	0	5
NMTAP	25	192	4
NMTAP	25	192	5
NMTAP	26	0	5
NMTAP	26	96	5
NMTAP	26	192	5
NMTAP	27	0	4
NMTAP	27	0	5
NMTAP	27	192	4
NMTAP	27	192	5
NMTAP	28	0	6
NMTAP	28	96	6
NMTAP	28	192	6
NMTAP	29	0	6
NMTAP	29	0	7
NMTAP	29	192	6
NMTAP	29	192	7
NMTAP	30	0	0
NMTAP	30	96	0
NMTAP	30	192	0
NMTAP	31	0	0
NMTAP	31	0	1
NMTAP	31	192	0
NMTAP	31	192	1
NMTAP	32	0	2
NMTAP	32	96	2
NMTAP	32	192	2
NMTAP	33	0	2
NMTAP	33	0	3
NMTAP	33	192	2
NMTAP	33	192	3
NMHLD	34	0	1	192
NMTAP	34	192	0
NMTAP	35	0	0
NMTAP	35	0	1
NMTAP	35	192	0
NMTAP	35	192	1
NMHLD	36	0	2	192
NMTAP	36	192	3
NMTAP	37	0	2
NMTAP	37	0	3
NMTAP	37	192	2
NMTAP	37	192	3
NMHLD	38	0	5	192
NMTAP	38	192	4
NMTAP	39	0	4
NMTAP	39	0	5
NMTAP	39	192	4
NMTAP	39	192	5
NMHLD	40	0	6	192
NMTAP	40	192	7
NMTAP	41	0	6
NMTAP	41	0	7
NMTAP	41	192	6
NMTAP	41	192	7
NMHLD	42	0	6	192
NMTAP	42	192	7
NMTAP	43	0	6
NMTAP	43	96	6
NMTAP	43	192	6
NMTAP	43	192	7
NMHLD	44	0	5	192
NMTAP	44	192	4
NMTAP	45	0	5
NMTAP	45	96	5
NMTAP	45	192	4
NMTAP	45	192	5
NMHLD	46	0	2	192
NMTAP	46	192	3
NMTAP	47	0	2
NMTAP	47	96	2
NMTAP	47	192	2
NMTAP	47	192	3
NMHLD	48	0	1	192
NMTAP	48	192	0
NMTAP	49	0	1
NMTAP	49	96	1
NMTAP	49	192	0
NMTAP	49	192	1
BXTAP	50	0	2
NMTAP	50	96	2
NMTAP	50	192	1
NMTAP	50	288	1
NMTAP	51	0	0
NMTAP	51	96	0
NMTAP	51	192	6
NMTAP	51	192	7
NMTAP	52	0	5
NMTAP	52	96	5
NMTAP	52	192	6
NMTAP	52	288	6
NMTAP	53	0	7
NMTAP	53	96	7
NMTAP	53	192	0
NMTAP	53	192	1
NMTAP	54	0	1
NMTAP	54	96	1
NMTAP	54	192	2
NMTAP	54	288	2
NMTAP	55	0	3
NMTAP	55	96	3
NMTAP	55	192	4
NMTAP	55	192	5
NMTAP	56	0	6
NMTAP	56	96	6
NMTAP	56	192	5
NMTAP	56	288	5
NMTAP	57	0	4
NMTAP	57	96	4
NMTAP	57	192	2
NMTAP	57	192	3
NMTAP	58	0	2
NMTAP	58	96	2
NMTAP	58	192	1
NMTAP	58	288	1
NMTAP	59	0	0
NMTAP	59	96	0
NMTAP	59	192	6
NMTAP	59	192	7
NMTAP	60	0	5
NMTAP	60	96	5
NMTAP	60	192	6
NMTAP	60	288	6
NMTAP	61	0	7
NMTAP	61	96	7
NMTAP	61	192	0
NMTAP	61	192	1
NMTAP	62	0	1
NMTAP	62	96	1
NMTAP	62	192	2
NMTAP	62	288	2
NMTAP	63	0	3
NMTAP	63	96	3
NMTAP	63	192	4
NMTAP	63	192	5
NMTAP	64	0	6
NMTAP	64	96	6
NMTAP	64	192	5
NMTAP	64	288	5
NMTAP	65	0	4
NMTAP	65	96	4
NMTAP	65	192	2
NMTAP	65	192	3
NMHLD	66	0	2	384
NMHLD	67	0	3	384
NMHLD	68	0	4	384
NMTAP	69	0	5
NMHLD	70	0	5	384
NMHLD	71	0	4	384
NMHLD	72	0	3	384
NMTAP	73	0	2
NMTTP	74	0	1	B	0	L1
NMTTP	74	96	2	B	0	L1
NMTTP	74	192	3	B	0	L1
NMTTP	75	0	6	B	0	L1
NMTTP	75	96	5	B	0	L1
NMTTP	75	192	4	B	0	L1
NMTTP	76	0	1	B	0	L1
NMTTP	76	96	2	B	0	L1
NMTTP	76	192	3	B	0	L1
NMTTP	76	288	4	B	0	L1
NMTTP	77	0	0	C	0	L1
NMTTP	78	0	7	B	0	L1
NMTTP	78	96	6	B	0	L1
NMTTP	78	192	4	B	0	L1
NMTTP	78	192	5	B	0	L1
NMTTP	79	0	0	B	0	L1
NMTTP	79	96	1	B	0	L1
NMTTP	79	192	2	B	0	L1
NMTTP	79	192	3	B	0	L1
NMTTP	80	0	6	B	0	L1
NMTTP	80	96	5	B	0	L1
NMTTP	80	192	4	B	0	L1
NMTTP	80	288	3	B	0	L1
NMTTP	81	0	0	C	1	L1
NMTAP	82	0	0
NMTAP	82	96	0
NMTAP	82	192	0
NMTAP	83	0	1
NMTAP	83	96	1
NMTAP	83	192	1
NMTAP	84	0	2
NMTAP	84	96	2
NMTAP	84	192	2
NMTAP	85	0	3
NMTAP	85	0	4
NMTAP	85	192	3
NMTAP	85	192	4
NMTAP	86	0	4
NMTAP	86	96	4
NMTAP	86	192	4
NMTAP	87	0	5
NMTAP	87	96	5
NMTAP	87	192	5
NMTAP	88	0	6
NMTAP	88	96	6
NMTAP	88	192	6
NMTAP	89	0	0
NMTAP	89	0	7
NMTAP	89	192	0
NMTAP	89	192	7
NMTAP	90	0	6
NMTAP	90	96	6
NMTAP	90	192	6
NMTAP	91	0	5
NMTAP	91	96	5
NMTAP	91	192	5
EXTAP	92	0	4
EXTAP	92	96	4
EXTAP	92	192	4
NMTAP	93	0	2
NMTAP	93	0	3
NMTAP	94	0	1
NMTAP	94	96	1
NMTAP	94	192	1
NMTAP	95	0	2
NMTAP	95	96	2
NMTAP	95	192	2
NMTAP	96	0	3
NMTAP	96	96	3
NMTAP	96	192	3
BXTAP	97	0	4
BXTAP	97	0	5
NMSTR	98	0	6
NMSI_	98	0	6	96	288	3
NMTAP	99	192	2
NMSTR	100	0	1
NMSI_	100	0	1	96	288	4
NMTAP	101	192	5
NMSTR	102	0	6
NMSI_	102	0	6	96	288	2
NMTAP	103	192	1
NMSTR	104	0	0
NMSI_	104	0	0	96	288	4
NMTAP	105	192	4
NMTAP	105	192	5
NMTAP	106	0	6
NMTAP	106	96	6
NMTAP	106	192	6
NMTAP	106	192	7
NMTAP	107	0	5
NMTAP	107	96	5
NMTAP	107	192	4
NMTAP	107	192	5
NMTAP	108	0	3
NMTAP	108	96	3
NMTAP	108	192	2
NMTAP	108	192	3
NMHLD	109	0	0	192
NMHLD	109	0	1	192
NMTAP	110	0	1
NMTAP	110	96	1
NMTAP	110	192	0
NMTAP	110	192	1
NMTAP	111	0	2
NMTAP	111	96	2
NMTAP	111	192	2
NMTAP	111	192	3
NMTAP	112	0	4
NMTAP	112	96	4
NMTAP	112	192	4
NMTAP	112	192	5
NMHLD	113	0	6	192
NMHLD	113	0	7	192
NMHLD	114	0	6	192
NMTAP	114	192	7
NMHLD	115	0	5	192
NMTAP	115	192	4
NMHLD	116	0	2	192
NMTAP	116	192	3
NMHLD	117	0	1	192
NMTAP	117	192	0
NMHLD	118	0	1	192
NMTAP	118	192	0
NMHLD	119	0	2	192
NMTAP	119	192	3
NMHLD	120	0	5	192
NMTAP	120	192	4
NMHLD	121	0	6	192
NMTAP	121	192	7
NMTAP	122	0	5
NMTAP	122	96	5
NMTAP	122	192	6
NMTAP	122	192	7
NMTAP	122	288	6
NMTAP	122	288	7
NMTAP	123	0	0
NMTAP	123	96	0
NMTAP	123	192	0
NMTAP	123	192	1
NMTAP	123	288	0
NMTAP	123	288	1
NMTAP	124	0	2
NMTAP	124	96	2
NMTAP	124	192	0
NMTAP	124	192	1
NMTAP	124	288	0
NMTAP	124	288	1
NMTAP	125	0	7
NMTAP	125	96	7
NMTAP	125	192	6
NMTAP	125	192	7
NMTAP	126	0	6
NMTAP	126	96	6
NMTAP	126	192	4
NMTAP	126	192	5
NMTAP	126	288	4
NMTAP	126	288	5
NMTAP	127	0	3
NMTAP	127	96	3
NMTAP	127	192	2
NMTAP	127	192	3
NMTAP	128	0	1
NMTAP	128	96	1
NMTAP	128	192	2
NMTAP	128	192	3
NMTAP	128	288	2
NMTAP	128	288	3
NMTAP	129	0	4
NMTAP	129	96	4
NMTAP	129	192	4
NMTAP	129	192	5
NMTAP	130	0	5
NMTAP	130	96	5
NMTAP	130	192	5
NMTAP	130	288	5
NMTAP	131	0	6
NMTAP	131	96	6
NMTAP	131	192	6
NMTAP	131	288	6
NMTAP	132	0	7
NMTAP	132	96	7
NMTAP	132	192	7
NMTAP	132	288	7
NMTAP	133	0	0
NMTAP	133	0	1
NMTAP	134	0	2
NMTAP	134	96	2
NMTAP	134	192	2
NMTAP	134	288	2
NMTAP	135	0	1
NMTAP	135	96	1
NMTAP	135	192	1
NMTAP	135	288	1
NMTAP	136	0	0
NMTAP	136	96	0
NMTAP	136	192	0
NMTAP	136	288	0
NMTAP	137	0	6
NMTAP	137	0	7
NMTAP	138	0	6
NMTAP	138	96	6
NMTAP	138	192	6
NMTAP	138	288	6
NMTAP	138	288	7
NMTAP	139	0	5
NMTAP	139	96	5
NMTAP	139	192	5
NMTAP	139	288	4
NMTAP	139	288	5
NMTAP	140	0	3
NMTAP	140	96	3
NMTAP	140	192	3
NMTAP	140	288	2
NMTAP	140	288	3
NMHLD	141	0	0	192
NMHLD	141	0	1	192
NMTAP	142	0	1
NMTAP	142	96	1
NMTAP	142	192	1
NMTAP	142	288	0
NMTAP	142	288	1
NMTAP	143	0	2
NMTAP	143	96	2
NMTAP	143	192	2
NMTAP	143	288	2
NMTAP	143	288	3
EXHLD	144	0	4	288
EXTAP	144	288	3
BRTAP	145	192	3
BRTAP	145	192	4

T_REC_TAP	368
T_REC_BRK	2
T_REC_XTP	4
T_REC_BXX	3
T_REC_HLD	28
T_REC_XHO	3
T_REC_BHO	0
T_REC_BXH	0
T_REC_STR	4
T_REC_BST	0
T_REC_XST	0
T_REC_XBS	0
T_REC_TTP	24
T_REC_THO	0
T_REC_SLD	4
T_REC_BSL	0
T_REC_ALL	440
T_NUM_TAP	400
T_NUM_BRK	5
T_NUM_HLD	31
T_NUM_SLD	4
T_NUM_ALL	440
T_JUDGE_TAP	405
T_JUDGE_HLD	160
T_JUDGE_SLD	4
T_JUDGE_ALL	569
TTM_EACHPAIRS	78
TTM_SCR_TAP	200000
TTM_SCR_BRK	13000
TTM_SCR_HLD	31000
TTM_SCR_SLD	6000
TTM_SCR_ALL	250000
TTM_SCR_S	242050
TTM_SCR_SS	249500
TTM_RAT_ACV	10020

