VERSION	0.00.00	1.04.00
FES_MODE	0
BPM_DEF	224.000	224.000	224.000	224.000
MET_DEF	4	4
RESOLUTION	384
CLK_DEF	384
COMPATIBLE_CODE	MA2

BPM	0	0	224.000
MET	0	0	4	4

NMHLD	2	0	1	192
NMHLD	2	0	3	192
EXTAP	2	256	1
EXTAP	2	256	3
NMHLD	3	0	4	192
NMHLD	3	0	6	192
EXTAP	3	256	4
EXTAP	3	256	6
NMHLD	4	0	2	192
NMHLD	4	0	5	192
EXTAP	4	256	2
EXTAP	4	256	5
NMTAP	5	0	3
NMTAP	5	0	4
NMTAP	5	64	3
NMTAP	5	64	4
NMTAP	5	160	1
NMTAP	5	160	6
NMTAP	5	256	0
NMTAP	5	256	7
NMHLD	6	0	2	96
NMHLD	6	0	3	64
NMHLD	6	192	3	96
NMHLD	6	192	4	64
NMTAP	7	0	4
NMTAP	7	0	5
NMTAP	7	64	4
NMTAP	7	64	5
NMSTR	7	160	6
NMSCL	7	160	6	96	96	2
EXTAP	7	256	2
EXHLD	8	64	0	128
NMTAP	8	192	7
NMTAP	8	288	0
NMTAP	8	288	6
NMTAP	9	0	2
NMTAP	9	0	4
NMTAP	9	64	2
NMTAP	9	64	4
BXTAP	9	160	1
BXTAP	9	160	5
NMHLD	10	0	6	96
NMTAP	10	96	7
NMHLD	10	192	1	96
NMTAP	10	288	0
NMTAP	11	0	6
NMTAP	11	64	6
NMSTR	11	96	7
NMSCR	11	96	7	96	48	2
NMHLD	12	0	5	96
NMTAP	12	96	4
NMHLD	12	192	2	96
NMTAP	12	288	3
NMTAP	13	0	6
NMSTR	13	64	6
NMSI_	13	64	6	96	48	3
NMTAP	13	160	0
NMTAP	13	160	6
NMTAP	13	288	1
NMTAP	13	288	4
NMTAP	14	0	2
NMTAP	14	64	2
NMHLD	14	96	3	160
EXTAP	14	256	7
NMTAP	15	0	5
NMTAP	15	64	5
NMHLD	15	96	4	160
EXTAP	15	256	0
NMHLD	16	0	1	288
NMSTR	16	0	6
NMSSR	16	0	6	96	160	2
EXTAP	17	0	0
EXTAP	17	0	1
EXTAP	17	64	0
EXTAP	17	64	1
BRTAP	17	160	2
BRTAP	17	160	7
EXHLD	18	0	1	256
EXSTR	18	0	3
NMSCL	18	0	3	96	160	0
EXSTR	19	0	0
NMSUR	19	0	0	96	160	4
EXHLD	19	0	2	256
EXSTR	20	0	4
NMSCR	20	0	4	96	160	7
EXHLD	20	0	6	256
NMHLD	21	0	7	96
NMTAP	21	96	6
NMTAP	21	192	5
NMTAP	21	288	4
NMTAP	21	288	5
NMSTR	22	0	3
NMSCR	22	0	3	96	96	6
NMTAP	22	96	2
NMTAP	22	192	1
NMTAP	22	288	0
NMSTR	23	0	7
NMSCR	23	0	7	96	96	2
NMTAP	23	96	6
NMTAP	23	192	5
NMTAP	23	288	4
NMTAP	24	0	3
NMTAP	24	96	4
NMTAP	24	96	5
NMTAP	24	192	6
NMTAP	24	288	0
NMTAP	24	288	7
NMSTR	25	0	1
NMSUR	25	0	1	96	192	3
EXTAP	25	288	6
NMHLD	26	0	5	96
NMTAP	26	96	3
NMTAP	26	192	1
NMTAP	26	256	1
NMTAP	26	288	3
NMHLD	27	0	5	96
NMSTR	27	96	3
NMSI_	27	96	3	96	48	1
EXTAP	27	192	6
EXTAP	27	288	0
NMHLD	28	0	2	96
NMTAP	28	96	4
NMTAP	28	192	6
NMTAP	28	256	6
NMTAP	28	288	4
NMHLD	29	0	2	96
NMSTR	29	96	4
NMSI_	29	96	4	96	48	6
EXTAP	29	192	1
EXTAP	29	288	7
NMTAP	30	0	5
NMTAP	30	96	3
NMTAP	30	96	4
NMTAP	30	192	2
NMTAP	30	288	0
NMTAP	30	288	1
NMTAP	31	0	6
NMTAP	31	0	7
NMTAP	31	64	6
NMTAP	31	64	7
NMTAP	31	160	0
NMTAP	31	160	5
NMSTR	31	288	6
NMSCR	31	288	6	96	96	1
NMSTR	32	0	1
NMSCL	32	0	1	96	96	6
NMTAP	32	96	2
EXTAP	32	192	3
EXTAP	32	256	3
BRTAP	32	352	0
BRTAP	32	352	5
NMTAP	33	192	1
NMTAP	33	192	4
NMTAP	33	288	2
NMTAP	33	288	3
NMTTP	34	0	1	B	0	M1
NMTTP	34	0	1	E	0	M1
NMTTP	34	0	1	A	0	M1
NMTAP	34	192	3
NMTAP	34	192	4
NMTAP	34	256	3
NMTAP	34	256	4
NMTTP	35	0	0	B	0	M1
NMTTP	35	0	0	C	0	M1
NMTTP	35	0	7	B	0	M1
NMTAP	35	192	4
NMTAP	35	192	5
NMTAP	35	256	4
NMTAP	35	256	5
NMTTP	36	0	6	B	0	M1
NMTTP	36	0	6	A	0	M1
NMTTP	36	0	7	E	0	M1
NMTAP	36	192	3
NMTAP	36	192	4
NMTAP	36	256	3
NMTAP	36	256	4
NMTTP	37	0	0	B	0	M1
NMTTP	37	0	0	C	0	M1
NMTTP	37	0	7	B	0	M1
NMHLD	37	192	3	64
NMTAP	37	288	4
NMTAP	38	0	3
NMTAP	38	96	2
NMTAP	38	96	4
NMTAP	38	192	1
NMTAP	38	288	0
NMTAP	38	288	2
NMTAP	39	0	6
NMTAP	39	64	6
NMTAP	39	96	7
NMTAP	39	192	5
NMTAP	39	256	5
NMTAP	39	288	4
NMTAP	40	0	6
NMTAP	40	0	7
NMTAP	40	96	0
NMTAP	40	96	1
NMTAP	40	192	2
NMTAP	40	192	3
NMTAP	40	288	4
NMTAP	40	288	5
NMTAP	41	0	2
NMTAP	41	0	7
NMTAP	41	64	2
NMTAP	41	64	7
EXTAP	41	160	0
EXTAP	41	160	6
BRTAP	41	256	2
BRTAP	41	256	5
NMSTR	42	0	0
NMSCR	42	0	0	96	96	4
NMSUR	42	0	0	96	96	5
NMTAP	42	0	1
NMTAP	42	288	0
NMSTR	42	288	7
NMSCR	42	288	7	96	96	3
NMSUR	42	288	7	96	96	4
NMHLD	43	192	6	96
NMTAP	43	288	7
NMTAP	44	0	4
NMTAP	44	0	5
NMTAP	44	96	2
NMTAP	44	96	3
NMTAP	44	160	2
NMTAP	44	160	3
NMTAP	44	256	0
NMTAP	44	256	1
NMTAP	44	352	2
NMTAP	45	0	3
NMTAP	45	64	5
NMTAP	45	96	4
NMTAP	45	160	6
EXTAP	45	256	0
EXTAP	45	256	7
NMTAP	46	0	6
NMSTR	46	0	7
NMSCL	46	0	7	96	96	3
NMSUL	46	0	7	96	96	2
NMSTR	46	288	0
NMSCL	46	288	0	96	96	4
NMSUL	46	288	0	96	96	3
NMTAP	46	288	7
NMTAP	47	192	0
NMTAP	47	288	0
NMTAP	47	288	1
NMTAP	48	0	2
NMTAP	48	0	3
NMTAP	48	96	4
NMTAP	48	96	5
NMTAP	48	160	4
NMTAP	48	160	5
NMTAP	48	256	6
NMTAP	48	256	7
EXTAP	48	352	1
EXTAP	49	0	0
EXTAP	49	64	2
EXTAP	49	64	7
EXTAP	49	160	0
EXTAP	49	160	5
BRTAP	49	256	1
BRTAP	49	256	6
NMTAP	50	0	6
NMSTR	50	0	7
NMSUL	50	0	7	96	96	2
NMSLL	50	0	7	96	96	3
NMSTR	50	288	0
NMSUL	50	288	0	96	96	3
NMSLL	50	288	0	96	96	4
NMTAP	50	288	7
NMHLD	51	192	1	96
NMTAP	51	288	0
NMTAP	52	0	2
NMTAP	52	0	3
NMTAP	52	96	4
NMTAP	52	96	5
NMTAP	52	160	4
NMTAP	52	160	5
NMTAP	52	256	6
NMTAP	52	256	7
NMTAP	52	352	5
NMTAP	53	0	4
NMTAP	53	64	2
NMTAP	53	96	3
NMTAP	53	160	1
EXTAP	53	256	0
EXTAP	53	256	7
NMSTR	54	0	0
NMSUR	54	0	0	96	96	5
NMSLR	54	0	0	96	96	4
NMTAP	54	0	1
NMTAP	54	288	6
NMTAP	54	288	7
NMTAP	55	0	0
NMTAP	55	0	2
NMSTR	55	64	0
NMSI_	55	64	0	96	48	4
NMSTR	55	64	2
NMSI_	55	64	2	96	48	0
EXTAP	55	160	0
EXTAP	55	160	2
EXSTR	55	288	5
NMSI_	55	288	5	96	48	0
EXSTR	56	0	1
NMSI_	56	0	1	96	48	4
EXTAP	56	0	5
EXTAP	56	96	1
NMTAP	56	192	7
NMTAP	56	256	7
BRTAP	56	352	1
BRTAP	56	352	5
NMTAP	57	64	2
NMTAP	57	64	4
NMTAP	57	96	2
NMTAP	57	96	4
BRTAP	57	160	0
BRTAP	57	160	7
EXTAP	57	256	6
EXTAP	57	288	7
NMHLD	58	0	4	192
NMTAP	58	0	5
NMTAP	58	96	7
NMHLD	58	192	5	192
NMTAP	58	288	7
NMHLD	59	0	4	96
NMHLD	59	96	6	96
NMHLD	59	192	5	96
NMTAP	59	288	4
NMTAP	60	0	5
NMTAP	60	96	4
NMTAP	60	96	6
NMTAP	60	192	6
NMTAP	60	288	5
NMTAP	60	288	7
NMSTR	61	0	6
NMSI_	61	0	6	96	96	4
NMSTR	61	96	4
NMSI_	61	96	4	96	96	2
NMTAP	61	192	2
NMTAP	62	0	2
NMHLD	62	0	3	192
NMTAP	62	96	0
NMHLD	62	192	2	96
NMTAP	62	288	0
EXTAP	63	0	1
EXTAP	63	0	7
EXTAP	63	64	1
EXTAP	63	64	7
EXSTR	63	160	2
NMSV_	63	160	2	96	80	0
EXSTR	63	160	6
NMSV_	63	160	6	96	80	4
NMHLD	64	0	1	96
NMHLD	64	96	3	96
NMHLD	64	192	4	96
NMTAP	64	288	6
NMTAP	65	0	6
NMTAP	65	0	7
NMTAP	65	64	1
NMTAP	65	96	0
NMTAP	65	160	2
NMTAP	65	160	7
NMTAP	65	256	4
NMTAP	65	256	5
NMTAP	65	288	4
NMTAP	65	288	5
NMSTR	66	0	0
BRSI_	66	0	0	96	48	4
NMTAP	66	0	6
BRTAP	66	96	0
BRTAP	66	96	4
NMTAP	66	192	5
NMHLD	66	256	5	96
NMTAP	66	352	4
NMTAP	67	64	2
NMTAP	67	64	3
NMTAP	67	160	0
NMTAP	67	160	1
NMTAP	67	256	6
NMTAP	67	288	7
NMTAP	67	352	5
NMTAP	68	0	4
NMTAP	68	96	2
NMTAP	68	96	3
NMTAP	68	192	1
NMTAP	68	192	4
NMTAP	68	256	1
NMTAP	68	256	4
NMHLD	68	352	2	96
NMTAP	69	64	0
NMTAP	69	96	1
NMHLD	69	160	5	96
NMTAP	69	256	7
NMTAP	69	288	6
NMTAP	69	352	5
NMTAP	70	0	4
NMTAP	70	64	6
NMTAP	70	96	7
NMTAP	70	160	1
NMTAP	70	192	0
NMTAP	70	256	2
NMTAP	70	288	3
NMTAP	70	352	5
NMTAP	71	0	4
NMTAP	71	64	3
NMTAP	71	64	5
NMTAP	71	160	2
NMTAP	71	160	4
NMTAP	71	256	1
NMTAP	71	288	3
NMTAP	71	352	2
NMTAP	72	0	4
NMTAP	72	64	3
NMTAP	72	96	5
NMTAP	72	160	4
NMTAP	72	192	6
NMTAP	72	256	0
NMSTR	72	256	7
NMSI_	72	256	7	96	48	3
NMSTR	72	352	1
NMSI_	72	352	1	96	48	5
BXTAP	72	352	7
BXTAP	73	64	1
BRTAP	73	160	7
NMTAP	74	0	2
NMHLD	74	0	6	288
NMTAP	74	96	3
NMTAP	74	192	4
NMHLD	74	288	4	384
NMTAP	75	0	0
NMTAP	75	96	7
NMTAP	75	192	6
NMSTR	75	288	5
NMSUR	75	288	5	96	192	2
NMTAP	76	0	3
NMSTR	76	96	2
NMSCL	76	96	2	96	288	5
NMTAP	76	192	3
EXTAP	77	0	2
EXSTR	77	64	2
NMSI_	77	64	2	96	48	4
EXTAP	77	160	2
EXTAP	77	256	5
NMHLD	78	0	2	192
NMTAP	78	0	6
NMTAP	78	96	7
NMTAP	78	192	0
NMHLD	78	288	0	384
NMTAP	79	0	4
NMTAP	79	96	3
NMTAP	79	192	2
NMSTR	79	288	1
NMSUR	79	288	1	96	192	6
NMTAP	80	0	7
NMSTR	80	96	6
NMSUL	80	96	6	96	192	1
NMTAP	80	192	4
EXTAP	81	0	3
EXSTR	81	64	3
NMSI_	81	64	3	96	48	7
EXTAP	81	160	3
EXTAP	81	256	2
NMTAP	82	0	1
NMSTR	82	96	2
NMSI_	82	96	2	96	48	4
NMTAP	82	192	0
NMTAP	82	288	7
NMTAP	83	0	6
NMSTR	83	96	5
NMSI_	83	96	5	96	48	3
NMTAP	83	192	7
NMTAP	83	288	0
NMTAP	84	0	1
NMTAP	84	96	2
NMTAP	84	192	2
NMTAP	84	192	7
NMTAP	84	288	1
NMTAP	84	288	6
EXTAP	85	0	0
EXTAP	85	0	5
EXTAP	85	64	0
EXTAP	85	64	5
NMHLD	85	160	4	128
NMHLD	85	160	7	128
EXTAP	86	0	3
EXTAP	86	0	7
EXSTR	86	160	3
NMSCR	86	160	3	96	48	6
EXSTR	86	160	7
NMSCR	86	160	7	96	48	2
EXTAP	87	0	2
EXTAP	87	0	6
EXSTR	87	160	2
NMSI_	87	160	2	96	48	7
EXSTR	87	160	6
NMSI_	87	160	6	96	48	3
EXSTR	88	0	3
BRSCR	88	0	3	96	144	7
EXSTR	88	0	7
NMSLR	88	0	7	96	144	3
BXTAP	89	0	1
BXHLD	89	0	3	384
EXTAP	90	0	1
NMTAP	90	64	0
NMTAP	90	128	7
EXTAP	90	192	2
EXTAP	90	192	6
NMTAP	90	256	1
NMTAP	90	256	5
NMTAP	90	320	0
NMTAP	90	320	4
BRSTR	91	0	3
BRSI_	91	0	3	96	64	5
BRSTR	91	0	7
BRSI_	91	0	7	96	64	1
NMTAP	91	288	2
NMTAP	91	288	3
NMTTP	92	0	0	B	0	M1
NMTTP	92	0	1	B	0	M1
NMTTP	92	0	1	E	0	M1
NMTTP	92	0	1	A	0	M1
NMTTP	92	0	7	B	0	M1
NMTAP	92	192	3
NMTAP	92	192	4
NMTAP	92	256	3
NMTAP	92	256	4
NMTTP	93	0	0	B	0	M1
NMTTP	93	0	0	E	0	M1
NMTTP	93	0	1	E	0	M1
NMTTP	93	0	7	B	0	M1
NMTTP	93	0	7	E	0	M1
NMTAP	93	192	4
NMTAP	93	192	5
NMTAP	93	256	4
NMTAP	93	256	5
NMTTP	94	0	0	B	0	M1
NMTTP	94	0	6	B	0	M1
NMTTP	94	0	6	A	0	M1
NMTTP	94	0	7	B	0	M1
NMTTP	94	0	7	E	0	M1
NMTAP	94	192	3
NMTAP	94	192	4
NMTAP	94	256	3
NMTAP	94	256	4
NMTTP	95	0	0	B	0	M1
NMTTP	95	0	1	B	0	M1
NMTTP	95	0	1	E	0	M1
NMTTP	95	0	1	A	0	M1
NMTTP	95	0	6	B	0	M1
NMTTP	95	0	6	A	0	M1
NMTTP	95	0	7	B	0	M1
NMTTP	95	0	7	E	0	M1
NMTAP	95	192	2
NMTAP	95	256	2
NMTAP	95	288	3
NMTAP	95	352	3
NMTAP	96	0	1
NMTAP	96	96	0
NMTAP	96	96	7
NMTAP	96	192	6
NMTAP	96	288	4
NMTAP	96	288	5
NMTAP	97	0	2
NMTAP	97	64	2
NMTAP	97	96	0
NMTAP	97	160	0
NMTAP	97	192	1
NMTAP	97	256	1
NMTAP	97	288	7
NMTAP	98	0	0
NMSTR	98	0	6
NMSI_	98	0	6	96	48	3
NMTAP	98	96	2
NMSTR	98	192	1
NMSI_	98	192	1	96	48	4
NMTAP	98	192	7
NMTAP	98	288	5
NMTAP	99	0	0
NMTAP	99	0	7
NMSTR	99	64	0
NMSI_	99	64	0	96	48	4
NMSTR	99	64	7
NMSI_	99	64	7	96	48	3
BRTAP	99	160	0
BRTAP	99	160	7
BXTAP	99	256	2
BXTAP	99	256	5
NMSTR	100	0	6
NMSXL	100	0	6	96	480	3
NMTTP	101	0	0	B	0	M1
NMTTP	101	0	7	B	0	M1
NMSTR	102	0	1
NMSXR	102	0	1	96	480	4
NMTTP	103	0	0	B	0	M1
NMTTP	103	0	7	B	0	M1
NMSTR	104	0	7
NMSCL	104	0	7	96	192	4
NMTTP	104	192	5	B	0	M1
NMTTP	104	192	6	B	0	M1
NMTTP	104	192	6	E	0	M1
NMSTR	105	0	0
NMSCR	105	0	0	96	192	3
NMTTP	105	192	1	B	0	M1
NMTTP	105	192	2	B	0	M1
NMTTP	105	192	2	E	0	M1
NMSTR	106	0	1
NMSUR	106	0	1	96	144	6
NMSTR	106	0	6
NMSI_	106	0	6	96	144	1
BRTAP	107	0	3
BRTAP	107	0	4
BRSTR	107	64	3
NMSI_	107	64	3	96	48	0
BRSTR	107	64	4
NMSI_	107	64	4	96	48	7
BXTAP	107	160	3
BXTAP	107	160	4
BRTAP	107	256	1
BRHLD	107	256	6	128
EXTAP	108	0	2
EXTAP	108	16	3
EXTAP	108	32	4
EXTAP	108	48	5
EXTAP	108	64	6
EXTAP	108	80	7
EXTAP	108	96	0
NMTAP	108	192	0
NMTAP	108	192	1
NMTAP	108	288	3
NMTAP	108	288	4
NMTAP	109	0	6
NMTAP	109	0	7
NMSTR	109	64	6
NMSI_	109	64	6	96	48	2
NMSTR	109	64	7
NMSI_	109	64	7	96	48	3
BXTAP	109	160	6
BXTAP	109	160	7
NMTAP	109	288	1
NMTAP	110	0	2
NMTAP	110	0	3
NMTAP	110	96	4
NMTAP	110	96	5
NMTAP	110	160	4
NMTAP	110	160	5
NMTAP	110	256	6
NMTAP	110	256	7
NMTAP	110	352	1
NMTAP	111	0	0
NMTAP	111	64	0
NMTAP	111	96	2
NMSTR	111	160	2
NMSI_	111	160	2	96	48	5
EXTAP	111	256	2
NMTAP	111	256	5
NMTAP	112	0	3
NMSTR	112	0	4
NMSUR	112	0	4	96	96	1
NMSLR	112	0	4	96	96	0
NMTAP	112	288	2
NMTAP	112	288	3
NMTAP	113	0	5
NMTAP	113	0	7
NMSTR	113	64	5
NMSI_	113	64	5	96	48	7
NMSTR	113	64	7
NMSI_	113	64	7	96	48	3
EXTAP	113	160	5
EXTAP	113	160	7
NMSTR	113	288	0
BRSCL	113	288	0	96	48	5
NMTAP	113	288	2
EXSTR	114	0	0
BRSCR	114	0	0	96	48	3
EXTAP	114	96	0
NMTAP	114	192	4
NMTAP	114	192	5
NMTAP	114	256	4
NMTAP	114	256	5
NMTAP	114	352	0
NMTAP	114	352	1
NMTAP	115	64	3
NMTAP	115	64	4
NMTAP	115	96	3
NMTAP	115	96	4
BRHLD	115	160	1	128
BRHLD	115	160	6	128
NMHLD	116	0	0	0
NMHLD	116	0	7	0
NMHLD	116	96	4	0
NMHLD	116	96	6	0
NMSTR	116	192	5
NMSCL	116	192	5	96	144	3
NMSUR	116	192	5	96	144	3
EXTAP	117	192	2
NMSTR	117	288	0
NMSUL	117	288	0	96	144	3
NMSUR	117	288	0	96	144	5
NMTAP	117	288	1
CNSI_	118	144	3	0	48	5
EXSTR	118	288	6
NMSXL	118	288	6	96	192	2
EXTAP	119	192	0
EXTAP	119	288	1
EXSTR	120	0	2
NMSUR	120	0	2	96	96	6
EXSTR	120	0	6
NMSUR	120	0	6	96	96	2
EXTAP	120	96	2
EXTAP	120	96	6
NMTAP	120	288	3
NMTAP	120	288	5
NMSTR	121	0	7
NMSI_	121	0	7	96	48	5
NMSTR	121	96	1
NMSI_	121	96	1	96	48	3
NMSTR	121	192	0
NMSI_	121	192	0	96	48	4
NMSTR	122	0	2
NMSCL	122	0	2	96	96	7
NMSTR	122	96	7
NMSCL	122	96	7	96	96	4
NMSTR	122	192	4
NMSCL	122	192	4	96	96	1
NMTAP	122	288	1
NMTAP	123	0	7
NMTAP	123	96	0
NMTAP	123	96	5
NMTAP	123	160	4
NMTAP	123	192	2
NMTAP	123	288	0
NMSTR	123	288	7
NMSI_	123	288	7	96	48	3
BRTAP	124	0	0
BRTAP	124	0	7
NMTAP	124	96	2
NMTAP	124	160	2
NMTAP	124	192	0
NMTAP	124	256	0
NMTAP	124	288	7
NMTAP	124	352	7
NMSTR	125	0	5
NMSI_	125	0	5	96	48	0
NMSTR	125	96	1
NMSI_	125	96	1	96	48	4
NMTAP	125	192	6
EXTAP	125	288	6
EXTAP	125	288	7
NMTAP	126	0	0
NMTAP	126	0	7
NMTAP	126	96	1
NMTAP	126	160	1
NMTAP	126	192	3
NMTAP	126	256	3
NMTAP	126	288	4
NMTAP	126	352	4
NMSTR	127	0	6
NMSCL	127	0	6	96	48	3
NMSTR	127	96	2
NMSCL	127	96	2	96	48	7
NMTAP	127	192	5
EXTAP	127	288	0
EXTAP	127	288	6
NMTAP	128	0	1
NMTAP	128	0	5
NMTAP	128	96	2
NMTAP	128	96	3
NMTAP	128	192	4
NMTAP	128	192	5
NMTAP	128	256	4
NMTAP	128	256	5
NMSTR	128	352	6
NMSCL	128	352	6	96	48	3
NMSTR	128	352	7
NMSUL	128	352	7	96	48	2
NMTAP	129	192	0
NMTAP	129	192	1
NMTAP	129	288	4
NMTAP	129	288	5
BRTAP	130	0	6
BRTAP	130	0	7
NMTAP	130	96	2
NMTAP	130	96	4
NMTAP	130	192	0
NMTAP	130	192	7
NMTAP	130	256	0
NMTAP	130	256	7
BRSTR	130	352	2
BRSXR	130	352	2	96	224	4
BRSTR	130	352	5
BRSXL	130	352	5	96	224	3
NMTTP	132	0	0	B	0	M1
NMTTP	132	0	0	C	1	M1
NMTTP	132	0	1	B	0	M1
NMTTP	132	0	2	B	0	M1
NMTTP	132	0	3	B	0	M1
NMTTP	132	0	4	B	0	M1
NMTTP	132	0	5	B	0	M1
NMTTP	132	0	6	B	0	M1
NMTTP	132	0	7	B	0	M1

T_REC_TAP	388
T_REC_BRK	24
T_REC_XTP	79
T_REC_BXX	11
T_REC_HLD	48
T_REC_XHO	4
T_REC_BHO	3
T_REC_BXH	1
T_REC_STR	63
T_REC_BST	6
T_REC_XST	19
T_REC_XBS	0
T_REC_TTP	54
T_REC_THO	0
T_REC_SLD	90
T_REC_BSL	8
T_REC_ALL	798
T_NUM_TAP	603
T_NUM_BRK	53
T_NUM_HLD	52
T_NUM_SLD	90
T_NUM_ALL	798
T_JUDGE_TAP	644
T_JUDGE_HLD	176
T_JUDGE_SLD	98
T_JUDGE_ALL	918
TTM_EACHPAIRS	193
TTM_SCR_TAP	301500
TTM_SCR_BRK	137800
TTM_SCR_HLD	52000
TTM_SCR_SLD	135000
TTM_SCR_ALL	626300
TTM_SCR_S	602400
TTM_SCR_SS	621000
TTM_RAT_ACV	10085

