VERSION	0.00.00	1.04.00
FES_MODE	0
BPM_DEF	224.000	224.000	224.000	224.000
MET_DEF	4	4
RESOLUTION	384
CLK_DEF	384
COMPATIBLE_CODE	MA2

BPM	0	0	224.000
MET	0	0	4	4

NMTAP	2	0	4
NMTAP	2	192	4
NMTAP	3	0	3
NMTAP	3	192	3
NMTAP	4	0	2
NMTAP	4	192	2
NMTAP	5	0	1
NMTAP	5	192	0
NMTAP	5	192	7
NMHLD	6	0	6	96
NMTAP	6	96	4
NMHLD	6	192	1	96
NMTAP	6	288	3
NMHLD	7	0	6	96
NMTAP	7	96	4
NMTAP	7	192	1
NMTAP	7	288	0
NMTAP	7	288	3
EXTAP	8	64	2
EXTAP	8	64	7
NMTAP	8	192	4
NMTAP	8	192	5
NMTAP	8	288	4
NMTAP	8	288	5
EXSTR	9	0	2
NMSI_	9	0	2	96	96	7
EXSTR	9	0	3
NMSI_	9	0	3	96	96	6
NMTAP	10	0	4
NMHLD	10	0	5	96
NMTAP	10	96	1
NMTAP	10	192	4
NMTAP	10	192	6
NMTAP	10	288	4
NMTAP	10	288	6
NMHLD	11	0	2	96
NMTAP	11	0	3
NMTAP	11	96	6
NMTAP	11	192	1
NMTAP	11	192	3
NMTAP	11	288	1
NMTAP	11	288	3
NMTAP	12	0	3
NMHLD	12	0	5	384
NMTAP	12	96	2
NMTAP	12	192	1
NMTAP	12	288	0
NMSTR	13	0	7
NMSCR	13	0	7	96	96	2
NMSTR	14	0	4
NMSXR	14	0	4	96	160	2
NMHLD	14	0	6	256
NMHLD	15	0	1	256
NMSTR	15	0	3
NMSXL	15	0	3	96	160	5
NMTAP	16	0	2
NMTAP	16	96	3
NMTAP	16	192	4
NMTAP	16	288	5
NMTAP	17	0	6
NMTTP	17	160	3	B	0	M1
NMTTP	17	160	3	E	0	M1
NMTTP	17	160	4	B	0	M1
NMTTP	17	160	4	E	1	M1
NMTTP	17	160	5	E	0	M1
NMHLD	18	0	1	768
NMTAP	18	192	3
NMTAP	19	0	4
NMTAP	19	192	2
NMHLD	20	0	6	384
NMTAP	20	192	4
NMTAP	21	0	3
NMTAP	21	192	4
NMTAP	21	192	5
NMTAP	21	288	3
NMTAP	21	288	4
NMTAP	22	0	1
NMTAP	22	96	1
NMTAP	22	192	2
NMTAP	22	192	3
NMTAP	22	288	3
NMTAP	22	288	4
NMSTR	23	0	4
NMSCL	23	0	4	96	96	1
NMSTR	23	0	5
NMSCR	23	0	5	96	96	0
NMTAP	24	0	6
NMTAP	24	96	6
NMTAP	24	192	4
NMTAP	24	192	5
NMTAP	24	288	3
NMTAP	24	288	4
NMSTR	25	0	2
NMSCL	25	0	2	96	96	7
NMSTR	25	0	3
NMSCR	25	0	3	96	96	6
NMTAP	26	0	0
NMTAP	26	0	5
NMTAP	26	96	1
NMTAP	26	192	2
NMTAP	26	192	3
NMTAP	26	288	2
NMTAP	26	288	3
NMHLD	27	0	4	96
NMHLD	27	96	6	96
NMTAP	27	192	0
NMTAP	27	288	0
NMTAP	27	288	1
NMTAP	28	0	2
NMTAP	28	0	7
NMTAP	28	96	6
NMTAP	28	192	4
NMTAP	28	192	5
NMTAP	28	288	4
NMTAP	28	288	5
NMHLD	29	0	3	96
NMHLD	29	96	1	96
NMTAP	29	192	7
NMTAP	29	288	6
NMTAP	29	288	7
NMTAP	30	0	0
NMTAP	30	96	0
NMTAP	30	192	1
NMTAP	30	192	3
NMTAP	30	288	2
NMTAP	30	288	4
NMSTR	31	0	3
NMSUR	31	0	3	96	96	7
NMSTR	31	0	5
NMSCR	31	0	5	96	96	7
NMTAP	32	0	0
NMTAP	32	96	1
NMSTR	32	192	2
NMSUR	32	192	2	96	288	4
NMHLD	34	0	6	576
NMTAP	34	192	5
NMSTR	35	0	5
NMSCL	35	0	5	96	96	2
NMHLD	36	0	1	576
NMTAP	36	192	2
NMSTR	37	0	2
NMSCR	37	0	2	96	96	5
NMTAP	38	0	5
NMTAP	38	96	4
NMTAP	38	96	5
NMTAP	38	192	2
NMTAP	38	288	2
NMTAP	38	288	3
NMTAP	39	0	6
NMTAP	39	96	4
NMTAP	39	96	6
NMTAP	39	192	1
NMTAP	39	288	1
NMTAP	39	288	3
NMTAP	40	0	5
NMTAP	40	96	6
NMSTR	40	192	7
NMSSR	40	192	7	96	240	3
BXTAP	41	256	0
BXTAP	41	256	6
NMTAP	42	0	1
NMTAP	42	0	7
NMTAP	42	96	1
NMTAP	42	96	7
NMTAP	42	192	2
NMTAP	42	192	3
NMTAP	42	288	2
NMTAP	42	288	3
NMTAP	43	0	1
NMTAP	43	0	7
NMTAP	43	96	1
NMTAP	43	96	7
NMTAP	43	192	2
NMTAP	43	192	3
NMTAP	43	288	2
NMTAP	43	288	3
NMHLD	44	0	2	96
NMHLD	44	96	3	96
NMHLD	44	192	4	96
NMSTR	44	288	5
NMSCL	44	288	5	96	96	2
NMSCR	44	288	5	96	96	0
BXTAP	45	256	1
NMTAP	46	0	0
NMTAP	46	0	6
NMTAP	46	96	0
NMTAP	46	96	6
NMTAP	46	192	4
NMTAP	46	192	5
NMTAP	46	288	4
NMTAP	46	288	5
NMTAP	47	0	0
NMTAP	47	0	6
NMTAP	47	96	0
NMTAP	47	96	6
NMTAP	47	192	4
NMTAP	47	192	5
NMTAP	47	288	4
NMTAP	47	288	5
NMHLD	48	0	5	96
NMHLD	48	96	4	96
NMHLD	48	192	3	96
NMSTR	48	288	2
NMSCL	48	288	2	96	96	7
NMSCR	48	288	2	96	96	5
BXTAP	49	256	6
NMTAP	50	0	2
NMTAP	50	0	7
EXTAP	50	96	2
EXTAP	50	96	7
NMTAP	50	192	4
NMTAP	50	192	5
NMTAP	50	288	4
NMTAP	50	288	5
NMTAP	51	0	2
NMTAP	51	0	7
NMTAP	51	96	2
NMTAP	51	96	7
NMTAP	51	192	4
NMTAP	51	192	5
NMTAP	51	288	4
NMTAP	51	288	5
NMHLD	52	0	4	96
NMHLD	52	96	2	96
NMHLD	52	192	0	96
NMSTR	52	288	6
NMSCL	52	288	6	96	96	3
NMSCR	52	288	6	96	96	1
BXTAP	53	256	2
NMTAP	54	0	0
NMTAP	54	0	5
NMTAP	54	96	0
NMTAP	54	96	5
NMTAP	54	192	2
NMTAP	54	192	3
NMTAP	54	288	2
NMTAP	54	288	3
NMTAP	55	0	0
NMTAP	55	0	5
NMTAP	55	96	0
NMTAP	55	96	5
NMTAP	55	192	2
NMTAP	55	192	3
NMTAP	55	288	2
NMTAP	55	288	3
NMTAP	56	0	4
NMTAP	56	0	5
NMTAP	56	96	6
NMTAP	56	96	7
EXTAP	56	192	0
EXTAP	56	192	1
EXSTR	56	256	0
BRSCL	56	256	0	96	128	5
EXSTR	56	256	1
BRSCR	56	256	1	96	128	4
NMHLD	58	0	1	96
NMTAP	58	96	3
NMTAP	58	192	5
NMTAP	58	256	5
NMTAP	58	288	4
NMHLD	59	0	2	96
NMTAP	59	96	3
NMTAP	59	192	5
NMTAP	59	256	5
NMTAP	59	288	4
NMHLD	60	0	6	384
NMTAP	60	96	7
NMTAP	60	192	0
NMTAP	60	288	1
NMSTR	61	0	2
NMSCR	61	0	2	96	96	5
NMTAP	61	96	7
NMTAP	61	192	7
NMHLD	62	0	6	96
NMTAP	62	96	4
NMTAP	62	192	2
NMTAP	62	256	2
NMTAP	62	288	3
NMHLD	63	0	5	96
NMTAP	63	96	4
NMTAP	63	192	2
NMTAP	63	256	2
NMTAP	63	288	3
NMHLD	64	0	1	288
NMTAP	64	96	0
NMTAP	64	192	7
NMTAP	64	288	6
NMSTR	65	0	5
NMSCL	65	0	5	96	96	2
NMTAP	65	96	0
NMTAP	65	192	0
NMTAP	66	0	3
NMTAP	66	0	4
BXTAP	66	96	1
BXTAP	66	96	7
NMTAP	66	192	2
NMTAP	66	256	2
NMTAP	66	288	3
NMHLD	67	0	5	96
NMTAP	67	96	4
NMTAP	67	192	2
NMTAP	67	256	2
NMTAP	67	288	3
NMHLD	68	0	1	96
NMHLD	68	96	7	96
NMHLD	68	192	5	96
NMHLD	68	288	3	96
NMSTR	69	0	1
NMSCR	69	0	1	96	96	4
NMTAP	69	96	7
NMTAP	69	192	0
NMSTR	70	0	7
NMSCL	70	0	7	96	96	4
NMSTR	70	192	3
NMSCL	70	192	3	96	96	0
NMTAP	71	0	6
NMTAP	71	64	6
BXTAP	71	160	6
BXTAP	71	160	7
NMTAP	72	0	2
NMTAP	72	96	2
NMTAP	72	96	3
NMTAP	72	192	1
NMTAP	72	192	4
NMTAP	72	256	1
NMTAP	72	256	4
EXTAP	72	352	2
EXTAP	72	352	3
EXTAP	73	64	4
EXTAP	73	64	5
BRTAP	73	160	0
BRTAP	73	160	7
NMTAP	74	0	4
NMHLD	74	0	6	96
NMTAP	74	96	4
NMHLD	74	192	1	96
NMTAP	74	192	3
NMTAP	74	288	3
NMTAP	75	0	4
NMHLD	75	0	6	96
NMTAP	75	96	4
NMHLD	75	192	1	96
NMTAP	75	192	3
NMTAP	75	288	3
NMSTR	76	0	4
NMSCL	76	0	4	96	96	1
NMTAP	76	0	6
NMTAP	76	96	6
NMTAP	76	192	0
NMSTR	76	288	0
NMSSL	76	288	0	96	192	4
NMHLD	78	0	1	96
NMTAP	78	0	3
NMTAP	78	96	3
NMTAP	78	192	4
NMHLD	78	192	6	96
NMTAP	78	288	4
NMHLD	79	0	1	96
NMTAP	79	0	3
NMTAP	79	96	3
NMTAP	79	192	4
NMHLD	79	192	6	96
NMTAP	79	288	4
NMTAP	80	0	3
NMTAP	80	0	4
BXTAP	80	96	0
BXSTR	80	160	0
NMSCR	80	160	0	96	224	6
NMHLD	82	0	6	96
NMTAP	82	0	7
EXTAP	82	96	7
NMTAP	82	192	0
NMHLD	82	192	1	96
NMTAP	82	288	0
NMHLD	83	0	5	96
NMTAP	83	0	7
NMTAP	83	96	7
NMTAP	83	192	0
NMHLD	83	192	2	96
NMTAP	83	288	0
NMTAP	84	0	0
NMHLD	84	0	1	288
NMTAP	84	96	7
NMTAP	84	192	6
NMTAP	84	288	5
NMSTR	85	0	0
NMSLR	85	0	0	96	192	4
NMSTR	85	0	4
NMSLR	85	0	4	96	192	0
NMTAP	86	0	3
NMTAP	86	0	7
NMTAP	86	96	3
NMTAP	86	192	2
NMTAP	86	288	1
NMTAP	87	0	0
NMTAP	87	0	7
NMTAP	87	96	6
NMTAP	87	192	5
NMTAP	87	288	4
NMTTP	88	0	1	B	0	M1
NMTTP	88	96	3	B	0	M1
NMTTP	88	192	5	B	0	M1
NMTTP	88	288	7	B	0	M1
NMTTP	89	0	1	B	0	M1
NMTTP	89	0	1	A	0	M1
NMTTP	89	96	3	B	0	M1
NMTTP	89	96	3	A	0	M1
NMTTP	89	192	5	B	0	M1
NMTTP	89	192	5	A	0	M1
NMTTP	89	288	7	B	0	M1
NMTTP	89	288	7	A	0	M1
NMTTP	90	0	0	C	1	M1
NMHLD	92	0	4	192
NMHLD	92	0	7	192
NMHLD	93	0	4	192
NMHLD	93	0	6	192
NMHLD	94	0	4	192
NMHLD	94	0	5	192
NMTAP	95	0	3
NMTAP	95	0	4
NMTTP	95	192	2	B	0	M1
NMTTP	95	192	3	B	0	M1
NMTTP	95	192	4	B	0	M1
NMTTP	95	192	5	B	0	M1
NMTAP	96	0	0
NMTAP	96	96	0
NMTAP	96	96	1
NMTAP	96	192	7
NMTAP	96	288	6
NMTAP	96	288	7
NMTAP	97	0	0
NMTAP	97	96	0
NMTAP	97	96	2
NMTAP	97	192	7
NMTAP	97	288	5
NMTAP	97	288	7
NMHLD	98	0	3	96
NMHLD	98	96	4	96
NMHLD	98	192	5	96
NMTAP	98	288	6
NMTTP	99	0	0	C	1	M1
NMTTP	99	0	3	B	0	M1
NMTTP	99	0	4	B	0	M1
BXTAP	99	256	0
BXTAP	99	256	7
NMHLD	100	0	7	576
NMTTP	100	192	3	B	0	M1
NMTTP	100	192	4	B	0	M1
NMSTR	101	0	5
NMSCL	101	0	5	96	96	2
NMHLD	102	0	1	576
NMTTP	102	192	3	B	0	M1
NMTTP	102	192	4	B	0	M1
NMSTR	103	0	2
NMSCR	103	0	2	96	96	5
NMHLD	104	0	7	576
NMTTP	104	192	3	B	0	M1
NMTTP	104	192	4	B	0	M1
NMSTR	105	0	5
NMSCL	105	0	5	96	96	2
NMHLD	106	0	1	256
NMHLD	106	0	6	256
BXTAP	106	352	0
BXTAP	106	352	7
NMTTP	107	256	2	B	0	M1
NMTTP	107	256	3	B	0	M1
NMTTP	107	256	3	E	0	M1
NMTAP	108	0	4
NMTAP	108	0	5
BXTAP	108	96	0
BXTAP	108	96	6
NMTAP	108	192	4
NMTAP	108	192	5
NMTAP	108	288	1
NMTAP	108	288	7
NMTAP	109	0	4
NMTAP	109	0	5
NMTAP	109	96	0
NMTAP	109	96	6
NMTAP	109	192	4
NMTAP	109	192	5
NMTAP	109	288	1
NMTAP	109	288	7
NMTAP	110	0	4
NMTAP	110	0	5
NMTAP	110	96	2
NMTAP	110	96	3
NMTAP	110	192	0
NMTAP	110	192	1
NMSTR	110	288	6
NMSCL	110	288	6	96	96	3
NMSTR	110	288	7
NMSUL	110	288	7	96	96	2
BXTAP	111	256	0
BXTAP	111	256	1
NMTAP	112	0	2
NMTAP	112	0	3
NMTAP	112	96	1
NMTAP	112	96	7
NMTAP	112	192	2
NMTAP	112	192	3
NMTAP	112	288	0
NMTAP	112	288	6
NMTAP	113	0	2
NMTAP	113	0	3
NMTAP	113	96	1
NMTAP	113	96	7
NMTAP	113	192	2
NMTAP	113	192	3
NMTAP	113	288	0
NMTAP	113	288	6
NMTAP	114	0	4
NMTAP	114	0	5
NMTAP	114	96	2
NMTAP	114	96	3
NMTTP	114	192	0	C	0	M1
NMTTP	114	192	2	B	0	M1
NMTTP	114	192	3	B	0	M1
NMTTP	114	192	4	B	0	M1
NMTTP	114	192	5	B	0	M1
BXSTR	114	352	0
NMSF_	114	352	0	96	128	4
NMTAP	116	0	4
NMHLD	116	0	6	96
NMTAP	116	96	7
NMTAP	116	192	4
NMTAP	116	192	5
NMTAP	116	288	4
NMTAP	116	288	5
NMTAP	117	0	2
NMTAP	117	0	3
NMTAP	117	96	2
NMTAP	117	96	3
BRTAP	117	192	0
BRTAP	117	192	5
NMHLD	118	0	1	96
NMTAP	118	0	3
NMTAP	118	96	0
NMTAP	118	192	2
NMTAP	118	192	3
NMTAP	118	288	2
NMTAP	118	288	3
NMTAP	119	0	4
NMTAP	119	0	5
NMTAP	119	96	4
NMTAP	119	96	5
BRTAP	119	192	2
BRTAP	119	192	7
NMHLD	120	0	6	96
NMTAP	120	0	7
NMTAP	120	96	4
NMTAP	120	192	3
NMTAP	120	192	5
NMTAP	120	288	2
NMTAP	120	288	4
NMTAP	121	0	0
NMHLD	121	0	1	96
NMTAP	121	96	3
NMTAP	121	192	2
NMTAP	121	192	4
NMTAP	121	288	3
NMTAP	121	288	5
NMHLD	122	0	6	96
NMHLD	122	96	7	96
NMHLD	122	192	0	96
NMSTR	122	288	1
NMSXR	122	288	1	96	288	5
EXTAP	124	0	4
EXHLD	124	0	6	96
NMTAP	124	96	7
NMTAP	124	192	0
NMTAP	124	192	1
NMTAP	124	288	3
NMTAP	124	288	4
NMHLD	125	0	1	96
NMTAP	125	0	3
NMTAP	125	96	0
EXTAP	125	192	2
EXTAP	125	192	7
EXTAP	125	288	2
EXTAP	125	288	7
NMHLD	126	0	1	96
NMTAP	126	0	3
NMTAP	126	96	0
NMTAP	126	192	6
NMTAP	126	192	7
NMTAP	126	288	3
NMTAP	126	288	4
NMTAP	127	0	4
NMHLD	127	0	6	96
NMTAP	127	96	7
EXTAP	127	192	0
EXTAP	127	192	5
EXTAP	127	288	0
EXTAP	127	288	5
NMTAP	128	0	1
NMHLD	128	0	3	96
NMTAP	128	96	2
NMHLD	128	192	4	96
NMTAP	128	192	6
NMTAP	128	288	5
NMTAP	129	0	2
NMTAP	129	0	3
NMTAP	129	96	0
NMTAP	129	96	1
NMTAP	129	192	6
NMTAP	129	192	7
NMTAP	129	288	4
NMTAP	129	288	5
EXTAP	130	0	1
EXTAP	130	0	3
EXTAP	130	96	4
EXTAP	130	96	6
EXSTR	130	192	2
BRSXR	130	192	2	96	288	4
EXSTR	130	192	5
BRSXL	130	192	5	96	288	3
BXTAP	132	0	1
BXTAP	132	0	7

T_REC_TAP	373
T_REC_BRK	6
T_REC_XTP	24
T_REC_BXX	20
T_REC_HLD	75
T_REC_XHO	1
T_REC_BHO	0
T_REC_BXH	0
T_REC_STR	31
T_REC_BST	0
T_REC_XST	6
T_REC_XBS	2
T_REC_TTP	39
T_REC_THO	0
T_REC_SLD	38
T_REC_BSL	4
T_REC_ALL	619
T_NUM_TAP	473
T_NUM_BRK	32
T_NUM_HLD	76
T_NUM_SLD	38
T_NUM_ALL	619
T_JUDGE_TAP	501
T_JUDGE_HLD	270
T_JUDGE_SLD	42
T_JUDGE_ALL	813
TTM_EACHPAIRS	176
TTM_SCR_TAP	236500
TTM_SCR_BRK	83200
TTM_SCR_HLD	76000
TTM_SCR_SLD	57000
TTM_SCR_ALL	452700
TTM_SCR_S	436050
TTM_SCR_SS	449500
TTM_RAT_ACV	10071

