VERSION	0.00.00	1.04.00
FES_MODE	0
BPM_DEF	224.000	224.000	224.000	224.000
MET_DEF	4	4
RESOLUTION	384
CLK_DEF	384
COMPATIBLE_CODE	MA2

BPM	0	0	224.000
MET	0	0	4	4

NMTAP	10	0	2
NMTAP	10	96	2
NMTAP	10	192	2
NMTAP	11	0	1
NMTAP	11	96	1
NMTAP	11	192	1
NMTAP	12	0	0
NMTAP	12	96	0
NMTAP	12	192	0
NMTAP	13	0	6
NMTAP	13	0	7
NMTAP	14	0	5
NMTAP	14	96	5
NMTAP	14	192	5
NMTAP	15	0	6
NMTAP	15	96	6
NMTAP	15	192	6
NMTAP	16	0	7
NMTAP	16	96	7
NMTAP	16	192	7
NMTAP	17	0	0
NMTAP	17	0	1
NMHLD	18	0	1	192
NMTAP	18	192	0
NMTAP	19	0	0
NMTAP	19	0	1
NMTAP	19	192	0
NMTAP	19	192	1
NMHLD	20	0	2	192
NMTAP	20	192	3
NMTAP	21	0	2
NMTAP	21	0	3
NMTAP	21	192	2
NMTAP	21	192	3
NMHLD	22	0	5	192
NMTAP	22	192	4
NMTAP	23	0	4
NMTAP	23	0	5
NMTAP	23	192	4
NMTAP	23	192	5
NMHLD	24	0	6	192
NMTAP	24	192	7
NMTAP	25	0	6
NMTAP	25	0	7
NMTAP	25	192	6
NMTAP	25	192	7
NMTAP	26	0	6
NMTAP	26	96	6
NMTAP	26	192	6
NMTAP	27	0	5
NMTAP	27	96	5
NMTAP	27	192	5
NMTAP	28	0	4
NMTAP	28	96	4
NMTAP	28	192	4
NMTAP	29	0	2
NMTAP	29	0	3
NMTAP	29	192	2
NMTAP	29	192	3
NMTAP	30	0	1
NMTAP	30	96	1
NMTAP	30	192	1
NMTAP	31	0	2
NMTAP	31	96	2
NMTAP	31	192	2
NMTAP	32	0	3
NMTAP	32	96	3
NMTAP	32	192	3
NMTAP	33	0	4
NMTAP	33	0	5
NMTTP	34	0	4	B	0	L1
NMTTP	34	0	5	B	0	L1
NMTTP	35	0	6	B	0	L1
NMTTP	35	0	7	B	0	L1
NMTTP	36	0	0	B	0	L1
NMTTP	36	0	1	B	0	L1
NMTTP	37	0	2	B	0	L1
NMTTP	37	0	3	B	0	L1
NMTTP	38	0	4	B	0	L1
NMTTP	38	96	5	B	0	L1
NMTTP	38	192	6	B	0	L1
NMTTP	39	0	3	B	0	L1
NMTTP	39	96	2	B	0	L1
NMTTP	39	192	1	B	0	L1
NMTTP	40	0	5	B	0	L1
NMTTP	40	96	4	B	0	L1
NMTTP	40	192	3	B	0	L1
NMTTP	40	288	2	B	0	L1
NMTTP	41	0	0	C	1	L1
NMTAP	42	0	6
NMTAP	42	96	6
NMTAP	42	192	7
NMTAP	42	288	7
NMTAP	43	0	0
NMTAP	43	96	0
NMTAP	43	192	0
NMTAP	43	192	1
NMTAP	44	0	2
NMTAP	44	96	2
NMTAP	44	192	1
NMTAP	44	288	1
NMTAP	45	0	0
NMTAP	45	96	0
NMTAP	45	192	6
NMTAP	45	192	7
NMTAP	46	0	6
NMTAP	46	96	6
NMTAP	46	192	5
NMTAP	46	288	5
NMTAP	47	0	4
NMTAP	47	96	4
NMTAP	47	192	2
NMTAP	47	192	3
NMTAP	48	0	1
NMTAP	48	96	1
NMTAP	48	192	2
NMTAP	48	288	2
NMTAP	49	0	3
NMTAP	49	96	3
NMTAP	49	192	4
NMTAP	49	192	5
NMTAP	50	0	5
NMTAP	50	96	5
NMTAP	50	192	6
NMTAP	50	288	6
NMTAP	51	0	7
NMTAP	51	96	7
NMTAP	51	192	0
NMTAP	51	192	1
NMTAP	52	0	2
NMTAP	52	96	2
NMTAP	52	192	1
NMTAP	52	288	1
NMTAP	53	0	0
NMTAP	53	96	0
NMTAP	53	192	6
NMTAP	53	192	7
NMTAP	54	0	6
NMTAP	54	96	6
NMTAP	54	192	5
NMTAP	54	288	5
NMTAP	55	0	4
NMTAP	55	96	4
NMTAP	55	192	2
NMTAP	55	192	3
NMTAP	56	0	1
NMTAP	56	96	1
NMTAP	56	192	2
NMTAP	56	288	2
NMTAP	57	0	3
NMTAP	57	96	3
BRTAP	57	192	4
BRTAP	57	192	5
NMTAP	58	0	3
NMTAP	58	96	3
NMTAP	58	192	2
NMTAP	58	288	2
NMTAP	59	0	1
NMTAP	59	96	1
NMTAP	59	192	0
NMTAP	59	288	0
NMTAP	60	0	7
NMTAP	60	96	7
NMTAP	60	192	6
NMTAP	60	288	6
NMTAP	61	0	5
NMTAP	61	96	5
NMTAP	61	192	3
NMTAP	61	192	4
NMTAP	62	0	4
NMTAP	62	96	4
NMTAP	62	192	5
NMTAP	62	288	5
NMTAP	63	0	6
NMTAP	63	96	6
NMTAP	63	192	7
NMTAP	63	288	7
NMTAP	64	0	0
NMTAP	64	96	0
NMTAP	64	192	1
NMTAP	64	288	1
NMTAP	65	0	2
NMTAP	65	96	2
NMTAP	65	192	3
NMTAP	65	192	4
NMTTP	66	0	6	B	0	L1
NMTTP	66	96	5	B	0	L1
NMTTP	66	192	4	B	0	L1
NMTTP	67	0	1	B	0	L1
NMTTP	67	96	2	B	0	L1
NMTTP	67	192	3	B	0	L1
NMTTP	68	0	6	B	0	L1
NMTTP	68	96	5	B	0	L1
NMTTP	68	192	4	B	0	L1
NMTTP	68	288	3	B	0	L1
NMTTP	69	0	0	C	0	L1
NMTTP	70	0	0	B	0	L1
NMTTP	70	96	1	B	0	L1
NMTTP	70	192	2	B	0	L1
NMTTP	70	192	3	B	0	L1
NMTTP	71	0	7	B	0	L1
NMTTP	71	96	6	B	0	L1
NMTTP	71	192	4	B	0	L1
NMTTP	71	192	5	B	0	L1
NMTTP	72	0	1	B	0	L1
NMTTP	72	96	2	B	0	L1
NMTTP	72	192	3	B	0	L1
NMTTP	72	288	4	B	0	L1
NMTTP	73	0	0	C	0	L1
NMTAP	74	0	0
NMTAP	74	96	0
NMTAP	74	192	1
NMTAP	75	0	2
NMTAP	75	96	2
NMTAP	75	192	3
NMTAP	76	0	4
NMTAP	76	96	4
NMTAP	76	192	5
NMTAP	77	0	6
NMTAP	77	96	6
NMTAP	77	192	6
NMTAP	77	192	7
NMTAP	78	0	7
NMTAP	78	96	7
NMTAP	78	192	6
NMTAP	79	0	5
NMTAP	79	96	5
NMTAP	79	192	4
NMTAP	80	0	3
NMTAP	80	96	3
NMTAP	80	192	2
NMTAP	81	0	1
NMTAP	81	96	1
NMTAP	81	192	0
NMTAP	81	192	1
NMTAP	82	0	1
NMTAP	82	96	1
NMTAP	82	192	0
NMTAP	82	192	1
NMTAP	83	0	2
NMTAP	83	96	2
NMTAP	83	192	2
NMTAP	83	192	3
NMTAP	84	0	4
NMTAP	84	96	4
NMTAP	84	192	4
NMTAP	84	192	5
NMTAP	85	0	6
NMTAP	85	0	7
NMTAP	85	96	6
NMTAP	85	96	7
NMTAP	85	192	6
NMTAP	85	192	7
NMTAP	86	0	6
NMTAP	86	96	6
NMTAP	86	192	6
NMTAP	86	192	7
NMTAP	87	0	5
NMTAP	87	96	5
NMTAP	87	192	4
NMTAP	87	192	5
NMTAP	88	0	3
NMTAP	88	96	3
NMTAP	88	192	2
NMTAP	88	192	3
NMTAP	89	0	0
NMTAP	89	0	1
NMTAP	89	96	0
NMTAP	89	96	1
NMTAP	89	192	0
NMTAP	89	192	1
EXSTR	90	0	0
NMSI_	90	0	0	96	288	3
EXSTR	90	0	7
NMSI_	90	0	7	96	288	4
NMHLD	92	0	5	384
NMHLD	93	0	4	384
NMHLD	94	0	3	384
NMTAP	95	0	2
NMHLD	96	0	2	384
NMHLD	97	0	3	384
NMHLD	98	0	4	384
NMTAP	99	0	5
NMSTR	100	0	6
NMSI_	100	0	6	96	288	3
NMTAP	101	192	2
NMSTR	102	0	1
NMSI_	102	0	1	96	288	4
NMTAP	103	192	5
NMSTR	104	0	6
NMSI_	104	0	6	96	288	2
NMTAP	105	192	1
NMSTR	106	0	0
NMSI_	106	0	0	96	288	4
EXTAP	108	0	5
EXTAP	108	96	5
NMTAP	108	192	6
NMTAP	108	192	7
NMTAP	108	288	6
NMTAP	108	288	7
NMTAP	109	0	0
NMTAP	109	96	0
NMTAP	109	192	0
NMTAP	109	192	1
NMTAP	110	0	2
NMTAP	110	96	2
NMTAP	110	192	0
NMTAP	110	192	1
NMTAP	110	288	0
NMTAP	110	288	1
NMTAP	111	0	7
NMTAP	111	96	7
NMTAP	111	192	6
NMTAP	111	192	7
NMTAP	112	0	6
NMTAP	112	96	6
NMTAP	112	192	4
NMTAP	112	192	5
NMTAP	112	288	4
NMTAP	112	288	5
NMTAP	113	0	3
NMTAP	113	96	3
NMTAP	113	192	2
NMTAP	113	192	3
NMTAP	114	0	1
NMTAP	114	96	1
NMTAP	114	192	2
NMTAP	114	192	3
NMTAP	114	288	2
NMTAP	114	288	3
NMTAP	115	0	4
NMTAP	115	96	4
NMTAP	115	192	4
NMTAP	115	192	5
NMTAP	116	0	6
NMTAP	116	96	6
NMTAP	116	192	6
NMTAP	116	288	6
NMTAP	116	288	7
NMTAP	117	0	5
NMTAP	117	96	5
NMTAP	117	192	5
NMTAP	117	288	4
NMTAP	117	288	5
NMTAP	118	0	3
NMTAP	118	96	3
NMTAP	118	192	3
NMTAP	118	288	2
NMTAP	118	288	3
NMTAP	119	0	0
NMTAP	119	0	1
NMTAP	119	96	0
NMTAP	119	96	1
NMTAP	119	192	0
NMTAP	119	192	1
NMTAP	120	0	1
NMTAP	120	96	1
NMTAP	120	192	1
NMTAP	120	288	0
NMTAP	120	288	1
NMTAP	121	0	2
NMTAP	121	96	2
NMTAP	121	192	2
NMTAP	121	288	2
NMTAP	121	288	3
NMTAP	122	0	4
NMTAP	122	96	4
NMTAP	122	192	4
NMTAP	122	288	4
NMTAP	122	288	5
NMTAP	123	0	6
NMTAP	123	0	7
NMTAP	123	96	6
NMTAP	123	96	7
NMTAP	123	192	6
NMTAP	123	192	7
NMTAP	124	0	7
NMTAP	124	96	6
NMTAP	124	192	5
NMTAP	124	288	4
NMTAP	125	0	3
NMTAP	125	96	2
NMTAP	125	192	0
NMTAP	125	192	1
NMTAP	126	0	0
NMTAP	126	96	1
NMTAP	126	192	2
NMTAP	126	288	3
NMTAP	127	0	4
NMTAP	127	96	5
NMTAP	127	192	6
NMTAP	127	192	7
NMTAP	128	0	7
NMTAP	128	96	6
NMTAP	128	192	5
NMTAP	128	288	4
NMTAP	129	0	3
NMTAP	129	96	2
NMTAP	129	192	1
NMTAP	129	288	0
NMTAP	130	0	7
NMTAP	130	96	6
NMTAP	130	192	5
NMTAP	130	288	4
NMTAP	131	0	3
NMTAP	131	0	4
NMTAP	131	96	3
NMTAP	131	96	4
NMHLD	131	192	2	192
NMHLD	131	192	5	192

T_REC_TAP	339
T_REC_BRK	2
T_REC_XTP	2
T_REC_BXX	0
T_REC_HLD	12
T_REC_XHO	0
T_REC_BHO	0
T_REC_BXH	0
T_REC_STR	4
T_REC_BST	0
T_REC_XST	2
T_REC_XBS	0
T_REC_TTP	43
T_REC_THO	0
T_REC_SLD	6
T_REC_BSL	0
T_REC_ALL	410
T_NUM_TAP	390
T_NUM_BRK	2
T_NUM_HLD	12
T_NUM_SLD	6
T_NUM_ALL	410
T_JUDGE_TAP	392
T_JUDGE_HLD	72
T_JUDGE_SLD	6
T_JUDGE_ALL	470
TTM_EACHPAIRS	67
TTM_SCR_TAP	195000
TTM_SCR_BRK	5200
TTM_SCR_HLD	12000
TTM_SCR_SLD	9000
TTM_SCR_ALL	221200
TTM_SCR_S	214400
TTM_SCR_SS	221000
TTM_RAT_ACV	10009

