VERSION	0.00.00	1.04.00
FES_MODE	0
BPM_DEF	175.000	175.000	175.000	175.000
MET_DEF	4	4
RESOLUTION	384
CLK_DEF	384
COMPATIBLE_CODE	MA2

BPM	0	0	175.000
MET	0	0	4	4

NMHLD	1	0	2	96
NMHLD	1	0	4	96
BRTAP	1	192	0
BRTAP	1	192	6
BRTAP	1	240	0
BRTAP	1	240	6
BRTAP	1	288	0
BRTAP	1	288	6
NMTAP	2	0	5
NMHLD	2	48	5	96
NMTAP	2	96	3
NMTAP	2	144	3
BRTAP	2	240	1
BRTAP	2	240	7
BRTAP	2	288	1
BRTAP	2	288	7
NMSTR	3	0	2
NMSCL	3	0	2	96	48	7
NMSTR	3	96	5
NMSCR	3	96	5	96	48	0
NMSTR	3	192	3
NMSUL	3	192	3	96	48	6
NMSTR	3	288	4
NMSUR	3	288	4	96	48	1
NMSTR	4	0	2
NMSCL	4	0	2	96	48	7
NMSTR	4	96	5
NMSCR	4	96	5	96	48	0
NMSTR	4	192	3
NMSUL	4	192	3	96	48	6
NMTAP	4	288	4
NMSTR	5	0	5
NMSI_	5	0	5	96	48	3
NMSTR	5	0	7
NMSI_	5	0	7	96	48	3
NMSTR	5	192	0
NMSI_	5	192	0	96	48	4
NMSTR	5	192	2
NMSI_	5	192	2	96	48	4
NMTAP	6	0	4
NMTAP	6	0	5
NMTAP	6	96	6
NMTAP	6	96	7
NMTAP	6	192	0
NMTAP	6	192	1
NMTAP	6	288	2
NMTAP	6	288	3
NMSTR	7	0	5
NMSCR	7	0	5	96	48	0
NMSTR	7	96	2
NMSCL	7	96	2	96	48	7
NMSTR	7	192	4
NMSUR	7	192	4	96	48	1
NMSTR	7	288	3
NMSUL	7	288	3	96	48	6
NMSTR	8	0	5
NMSCR	8	0	5	96	48	0
NMSTR	8	96	2
NMSCL	8	96	2	96	48	7
NMSTR	8	192	4
NMSUR	8	192	4	96	48	1
NMTAP	8	288	3
NMSTR	9	0	2
NMSXR	9	0	2	96	240	2
NMSTR	9	0	5
NMSXL	9	0	5	96	240	5
NMTAP	10	48	3
NMTAP	10	72	4
NMTAP	10	96	3
NMTAP	10	144	2
NMTAP	10	144	5
BRTAP	10	192	2
BRSTR	10	192	5
NMSCL	10	192	5	96	48	2
NMTAP	11	0	1
NMTAP	11	48	1
NMTAP	11	96	3
NMTAP	11	144	3
NMHLD	11	192	2	96
BRTAP	11	288	0
NMTAP	12	0	6
NMTAP	12	48	6
NMTAP	12	96	4
NMTAP	12	144	5
NMHLD	12	192	5	48
BRTAP	12	240	7
BRTAP	12	288	7
NMSTR	13	0	5
BRSCR	13	0	5	96	48	7
NMTAP	13	24	4
NMTAP	13	48	5
NMTAP	13	72	4
BRTAP	13	96	5
NMSTR	13	192	2
BRSCL	13	192	2	96	48	0
NMTAP	13	216	3
NMTAP	13	240	2
NMTAP	13	264	3
BRTAP	13	288	2
BRTAP	14	0	0
BRTAP	14	48	1
BRTAP	14	48	7
BRTAP	14	96	2
BRTAP	14	96	6
BRTAP	14	144	3
BRTAP	14	144	5
BRSTR	14	192	4
BRSXL	14	192	4	96	48	6
BRSXR	14	192	4	96	48	2
NMTAP	15	0	5
NMTAP	15	48	5
NMTAP	15	96	4
NMTAP	15	144	4
NMHLD	15	192	6	96
BRTAP	15	288	7
NMTAP	16	0	1
NMTAP	16	48	1
NMTAP	16	96	3
NMTAP	16	144	2
NMHLD	16	192	2	48
BRTAP	16	240	4
BRTAP	16	288	4
EXHLD	16	336	5	48
EXHLD	17	0	3	48
NMTTP	17	48	7	B	0	M1
NMTTP	17	48	7	E	0	M1
NMTTP	17	48	7	A	0	M1
NMTTP	17	96	1	B	0	M1
NMTTP	17	96	1	A	0	M1
NMTTP	17	96	2	E	0	M1
EXHLD	17	144	4	48
EXHLD	17	192	2	48
NMTTP	17	240	6	B	0	M1
NMTTP	17	240	6	E	0	M1
NMTTP	17	240	6	A	0	M1
NMTTP	17	288	0	B	0	M1
NMTTP	17	288	0	A	0	M1
NMTTP	17	288	1	E	0	M1
EXTAP	17	336	5
EXSTR	18	0	4
NMSI_	18	0	4	96	96	0
EXSTR	18	0	5
NMSLR	18	0	5	96	192	3
CNSI_	18	192	0	0	96	2
NMTAP	19	0	1
NMTAP	19	48	1
NMTAP	19	96	0
NMTAP	19	144	2
NMHLD	19	192	3	96
BRTAP	19	288	0
NMTAP	20	0	6
NMTAP	20	48	6
NMTAP	20	96	7
NMTAP	20	144	5
NMHLD	20	192	4	48
BRTAP	20	240	7
BRTAP	20	288	7
NMSTR	21	0	6
NMSCL	21	0	6	96	48	3
NMTAP	21	24	7
NMTAP	21	48	6
NMTAP	21	72	7
BRTAP	21	96	6
NMSTR	21	192	1
NMSCR	21	192	1	96	48	4
NMTAP	21	216	0
NMTAP	21	240	1
NMTAP	21	264	0
BRTAP	21	288	1
NMTAP	22	0	6
NMTAP	22	48	4
NMTAP	22	48	5
NMSTR	22	96	3
NMSI_	22	96	3	96	144	7
NMSLL	22	96	3	96	144	7
NMTAP	22	96	4
NMTAP	23	0	6
NMTAP	23	48	6
NMTAP	23	96	7
NMTAP	23	144	5
NMHLD	23	192	4	96
BRTAP	23	288	7
NMTAP	24	0	1
NMTAP	24	48	1
NMTAP	24	96	0
NMTAP	24	144	2
NMHLD	24	192	3	48
BRTAP	24	240	0
BRSTR	24	288	0
BRSI_	24	288	0	96	288	4
NMHLD	25	0	0	288
NMTAP	26	0	2
NMTAP	26	0	6
NMTAP	26	48	5
NMTAP	26	72	4
NMTAP	26	96	5
NMTAP	26	144	2
NMTAP	26	168	3
NMTAP	26	192	2
NMTAP	26	240	1
NMTAP	26	240	5
BRTAP	26	288	1
BRTAP	26	288	5
NMSTR	27	0	2
NMSUR	27	0	2	96	96	4
NMTAP	27	144	7
NMSTR	27	192	7
NMSI_	27	192	7	96	48	3
NMSTR	28	0	1
NMSUR	28	0	1	96	96	4
NMTAP	28	144	7
NMSTR	28	192	7
NMSI_	28	192	7	96	48	3
NMSTR	29	0	2
NMSUR	29	0	2	96	96	4
NMTAP	29	144	7
NMSTR	29	192	7
NMSI_	29	192	7	96	48	3
NMTTP	30	0	2	E	0	M1
NMTTP	30	48	5	E	0	M1
NMTTP	30	96	3	E	0	M1
NMTTP	30	144	6	E	0	M1
NMTTP	30	192	4	E	0	M1
NMTAP	30	288	3
NMTAP	30	288	5
NMTAP	31	0	2
NMSTR	31	0	4
NMSUL	31	0	4	96	96	3
NMTAP	31	144	0
NMSTR	31	192	0
NMSI_	31	192	0	96	48	4
NMSTR	32	0	5
NMSUL	32	0	5	96	96	3
NMTAP	32	144	0
NMSTR	32	192	0
NMSI_	32	192	0	96	48	4
NMTTP	33	0	2	B	0	M1
NMTTP	33	0	2	E	1	M1
NMTTP	33	0	3	E	0	M1
NMTTP	33	0	5	B	0	M1
NMTTP	33	0	5	E	0	M1
NMTTP	33	0	6	E	0	M1
NMHLD	34	0	6	96
NMHLD	34	96	4	96
NMHLD	34	192	3	96
NMSTR	34	288	1
NMSV_	34	288	1	96	72	4
NMHLD	35	0	6	96
CNSLL	35	72	4	0	120	7
BRTAP	35	192	6
BRSTR	35	288	6
NMSV_	35	288	6	96	72	3
BRTAP	35	288	7
NMHLD	36	0	1	96
CNSLR	36	72	3	0	120	0
BRTAP	36	192	1
BRSTR	36	288	0
NMSCL	36	288	0	96	48	5
BRTAP	36	288	1
NMSTR	37	0	0
NMSUL	37	0	0	96	48	3
NMTTP	37	192	2	E	0	M1
NMTTP	37	192	2	A	0	M1
NMTTP	37	192	4	A	0	M1
NMTTP	37	192	5	E	0	M1
NMTTP	37	288	3	E	0	M1
NMTTP	37	288	3	A	0	M1
NMTTP	37	288	5	A	0	M1
NMTTP	37	288	6	E	0	M1
NMTAP	38	0	1
NMSTR	38	96	0
NMSCL	38	96	0	96	96	5
NMSUL	38	96	0	96	96	3
NMTAP	38	96	1
NMTTP	39	0	0	C	1	M1
NMTTP	39	0	2	E	0	M1
NMTTP	39	0	6	E	0	M1
NMTAP	40	0	1
NMTAP	40	0	6
NMTAP	40	48	1
NMTAP	40	48	6
NMTAP	40	96	2
NMTAP	40	96	5
NMTAP	40	144	2
NMTAP	40	144	5
NMSTR	40	192	3
NMSI_	40	192	3	96	48	0
NMSTR	40	192	4
NMSI_	40	192	4	96	48	7
BRSTR	41	0	1
NMSI_	41	0	1	96	48	5
BRTAP	41	0	6
NMTAP	41	96	7
NMTAP	41	144	7
NMTAP	41	192	4
NMSTR	41	192	6
NMSI_	41	192	6	96	48	2
NMTAP	41	288	0
NMTAP	41	336	0
NMTAP	42	0	1
NMSTR	42	0	3
NMSUR	42	0	3	96	48	7
NMTAP	42	96	2
NMTAP	42	144	2
BRTAP	42	192	0
BRTAP	42	192	1
NMTAP	42	288	1
NMTAP	42	336	1
NMTAP	43	0	0
NMTAP	43	0	2
NMTAP	43	96	4
NMTAP	43	96	5
NMTAP	43	144	6
NMTAP	43	192	6
NMTAP	43	216	7
NMTAP	43	264	7
NMSTR	43	288	6
NMSCR	43	288	6	96	96	3
NMTAP	43	336	0
NMTTP	44	0	0	E	1	M1
NMTAP	44	192	3
NMTAP	44	192	4
NMTAP	44	240	5
NMTAP	44	264	4
NMHLD	44	288	5	48
NMTAP	44	336	3
NMTAP	45	0	3
NMTAP	45	48	2
NMTAP	45	72	3
NMHLD	45	96	2	48
NMTAP	45	144	5
NMTAP	45	192	5
NMTAP	45	240	6
NMTAP	45	264	7
NMHLD	45	288	6	48
NMTAP	45	336	2
NMTAP	46	0	2
NMTAP	46	48	1
NMTAP	46	72	0
NMHLD	46	96	1	48
NMTAP	46	144	5
NMTAP	46	192	5
NMTAP	46	288	4
NMTAP	46	288	6
NMHLD	47	0	3	72
NMTAP	47	0	5
NMTAP	47	72	4
NMTAP	47	96	2
NMTAP	47	144	1
NMTAP	47	144	3
NMHLD	47	192	4	72
NMTAP	47	264	3
NMTAP	47	288	5
NMTAP	47	336	4
NMTAP	47	336	6
BRTAP	48	48	3
BRTAP	48	48	7
BRTAP	48	96	2
BRTAP	48	96	6
BRTAP	48	144	1
BRTAP	48	144	5
BRSTR	48	192	0
NMSUR	48	192	0	96	48	4
BRSTR	48	192	4
NMSUR	48	192	4	96	48	0
NMTTP	48	288	0	A	1	M1
NMTTP	48	288	4	A	0	M1
NMSTR	49	0	3
NMSV_	49	0	3	96	48	1
NMSTR	49	0	7
NMSV_	49	0	7	96	48	5
NMSTR	49	192	0
NMSV_	49	192	0	96	48	2
NMSTR	49	192	4
NMSV_	49	192	4	96	48	6
NMHLD	50	0	5	96
NMSTR	50	96	4
NMSUL	50	96	4	96	48	0
NMSV_	50	96	4	96	48	7
NMTAP	50	144	3
NMTAP	50	144	5
BRTAP	50	192	4
NMTAP	50	288	6
NMTAP	50	336	6
NMTAP	51	0	6
NMTAP	51	0	7
NMTAP	51	48	5
NMTAP	51	96	2
NMTAP	51	96	4
BXTAP	51	192	0
BXTAP	51	216	0
NMTAP	51	264	7
NMSTR	51	288	7
NMSI_	51	288	7	96	48	3
NMTAP	51	336	6
NMSTR	52	0	3
NMSF_	52	0	3	96	96	7
NMTAP	52	0	7
NMTTP	52	96	3	A	1	M1
NMTAP	52	288	6
NMTAP	52	336	5
NMTAP	53	0	4
NMTAP	53	48	3
NMTAP	53	96	2
NMTAP	53	144	1
NMSTR	53	192	0
NMSI_	53	192	0	96	48	2
NMSTR	53	192	7
NMSI_	53	192	7	96	48	5
NMSTR	53	288	0
NMSI_	53	288	0	96	48	4
NMSTR	53	288	7
NMSI_	53	288	7	96	48	3
NMSTR	54	0	0
NMSCR	54	0	0	96	48	3
NMSTR	54	0	7
NMSCL	54	0	7	96	48	4
NMSTR	54	96	0
BRSSL	54	96	0	96	96	4
NMSTR	54	96	7
BRSSR	54	96	7	96	96	3
BRTAP	54	192	0
BRTAP	54	192	7
NMTAP	55	0	2
NMSTR	55	0	5
NMSXL	55	0	5	96	96	7
NMSTR	55	96	7
NMSCL	55	96	7	96	96	4
NMSTR	55	192	4
NMSUL	55	192	4	96	96	0
NMSTR	55	288	0
NMSLL	55	288	0	96	96	4
NMSTR	56	0	4
NMSLL	56	0	4	96	96	0
NMTAP	56	96	0
NMTAP	56	192	4
NMTAP	56	288	3
NMTAP	56	288	6
NMHLD	57	0	5	48
NMTAP	57	48	4
NMTAP	57	72	4
BRTAP	57	96	6
NMTAP	57	144	3
NMHLD	57	192	2	48
NMTAP	57	240	3
NMTAP	57	264	3
BRTAP	57	288	1
NMTAP	57	336	5
NMHLD	58	0	6	48
NMTAP	58	48	7
NMTAP	58	72	7
BRTAP	58	96	5
NMTAP	58	144	0
NMHLD	58	192	1	48
NMTAP	58	240	0
NMTAP	58	264	0
BRTAP	58	288	2
NMTAP	58	336	6
NMSTR	59	0	3
NMSI_	59	0	3	96	48	0
NMSTR	59	0	5
NMSI_	59	0	5	96	48	0
BRTAP	59	192	1
BRTAP	59	192	7
BRTAP	59	240	1
BRTAP	59	240	7
BRTAP	59	288	2
BRTAP	59	288	6
NMTAP	60	0	2
NMTAP	60	48	2
NMTAP	60	72	4
NMHLD	60	96	2	48
NMTAP	60	144	3
BRTAP	60	240	0
BRTAP	60	240	6
BRTAP	60	288	1
BRTAP	60	288	5
NMSTR	61	0	2
NMSXR	61	0	2	96	264	1
CNSCR	61	360	1	0	216	4
NMSTR	63	0	5
NMSXL	63	0	5	96	264	6
CNSCL	63	360	6	0	216	3
NMSTR	65	0	1
NMSCR	65	0	1	96	240	5
CNSXR	65	336	5	0	240	4
NMSTR	67	0	6
NMSCL	67	0	6	96	240	2
CNSXL	67	336	2	0	240	3
NMSTR	69	0	2
NMSV_	69	0	2	96	288	5
NMTTP	69	192	0	E	0	M1
NMSTR	70	0	1
NMSCL	70	0	1	96	288	6
NMTTP	70	192	0	E	0	M1
NMSTR	71	0	1
NMSUR	71	0	1	96	288	6
NMTTP	71	192	0	E	0	M1
NMSTR	72	0	2
NMSCR	72	0	2	96	288	5
NMTTP	72	192	0	E	0	M1
NMSTR	73	0	2
NMSUL	73	0	2	96	288	5
NMTTP	73	192	4	E	0	M1
NMSTR	74	0	1
NMSUL	74	0	1	96	288	5
NMTTP	74	192	4	E	0	M1
NMSTR	75	0	1
NMSCL	75	0	1	96	288	6
NMTTP	75	192	4	E	0	M1
NMTAP	76	0	5
NMTAP	76	192	3
NMTAP	76	192	5
NMHLD	77	0	2	72
NMTAP	77	0	4
NMTAP	77	72	3
NMTAP	77	96	2
NMTAP	77	144	4
NMHLD	77	192	2	72
NMTAP	77	192	4
NMTAP	77	264	3
NMTAP	77	288	2
NMTAP	77	336	4
NMHLD	78	0	2	72
NMTAP	78	0	4
NMTAP	78	72	3
NMTAP	78	96	2
NMTAP	78	144	4
NMTAP	78	192	2
NMTAP	78	192	4
NMTAP	78	240	3
NMTAP	78	240	5
NMTAP	78	288	4
NMTAP	78	288	6
NMHLD	79	0	5	48
NMTAP	79	48	4
NMHLD	79	96	3	48
NMTAP	79	144	4
NMHLD	79	192	6	48
NMTAP	79	240	4
NMHLD	79	288	2	48
NMTAP	79	336	4
BRSTR	80	0	3
NMSLR	80	0	3	96	480	1
BRSTR	80	0	5
NMSLL	80	0	5	96	480	7
BRSTR	82	0	0
NMSI_	82	0	0	96	192	5
BRSTR	82	0	6
NMSI_	82	0	6	96	192	1
CNSI_	82	288	1	0	192	4
CNSI_	82	288	5	0	192	2
CNSCR	83	96	2	0	96	3
CNSCL	83	96	4	0	96	3
NMHLD	84	0	2	288
NMHLD	84	0	6	288
NMHLD	85	0	1	288
NMHLD	85	0	5	288
NMTAP	86	0	2
NMTAP	86	0	4
NMTAP	86	48	2
NMTAP	86	48	4
NMTAP	86	96	2
NMTAP	86	96	4
NMTAP	86	144	2
NMTAP	86	144	4
NMTAP	86	192	5
NMTAP	86	216	3
NMTAP	86	240	5
NMTAP	86	264	3
NMTAP	86	288	5
NMTAP	86	312	3
NMTAP	86	336	5
NMTAP	86	360	3
BRTAP	87	0	7
NMSTR	87	192	2
NMSV_	87	192	2	96	48	7
NMSTR	87	192	6
NMSV_	87	192	6	96	48	3
BRSTR	88	0	1
NMSUR	88	0	1	96	48	5
BRTAP	88	0	5
NMTAP	88	72	0
NMTAP	88	96	1
NMTAP	88	144	7
NMSTR	88	192	6
NMSUL	88	192	6	96	48	2
NMTAP	88	264	7
NMTAP	88	288	6
NMTAP	88	336	0
NMSTR	89	0	1
NMSCL	89	0	1	96	48	6
NMTAP	89	72	3
NMTAP	89	96	1
NMTAP	89	144	4
BRTAP	89	192	0
BRTAP	89	192	5
NMTAP	89	288	6
NMTAP	89	336	6
NMTAP	90	0	5
NMTAP	90	0	7
NMTAP	90	96	2
NMTAP	90	96	3
NMTAP	90	144	1
NMTAP	90	192	1
NMTAP	90	216	0
NMTAP	90	264	0
NMSTR	90	288	1
NMSCR	90	288	1	96	120	6
NMTAP	90	336	7
NMTTP	91	0	0	C	1	M1
NMTAP	91	192	0
NMTAP	91	192	7
NMTAP	91	240	1
NMTAP	91	264	0
NMHLD	91	288	2	48
NMTAP	91	336	3
NMTAP	92	0	3
NMTAP	92	48	6
NMTAP	92	72	7
NMHLD	92	96	5	48
NMTAP	92	144	4
NMTAP	92	192	4
NMTAP	92	240	2
NMTAP	92	264	3
NMHLD	92	288	1	48
NMTAP	92	336	0
NMTAP	93	0	0
NMTAP	93	48	5
NMTAP	93	72	4
NMHLD	93	96	6	48
NMTAP	93	144	7
NMTAP	93	192	7
NMTAP	93	288	0
NMTAP	93	288	7
NMHLD	94	0	0	72
NMTAP	94	0	2
NMTAP	94	72	1
NMTAP	94	96	7
NMTAP	94	144	6
NMTAP	94	192	5
NMHLD	94	192	7	72
NMTAP	94	264	6
NMTAP	94	288	7
NMTAP	94	336	0
NMTAP	94	336	5
BRTAP	95	48	6
BRTAP	95	48	7
BRTAP	95	96	4
BRTAP	95	96	5
BRTAP	95	144	2
BRTAP	95	144	3
BRSTR	95	192	0
BRSLL	95	192	0	96	48	4
BRSLR	95	192	0	96	48	4
BRTAP	95	192	1
NMTTP	95	288	0	A	1	M1
BXSTR	96	0	3
NMSV_	96	0	3	96	48	1
BXSTR	96	0	5
NMSV_	96	0	5	96	48	7
NMTAP	96	96	3
NMTAP	96	96	5
NMSTR	96	192	2
NMSV_	96	192	2	96	48	0
NMSTR	96	192	4
NMSV_	96	192	4	96	48	6
NMTAP	96	288	2
NMTAP	96	288	4
NMHLD	97	0	5	96
NMSTR	97	96	4
NMSI_	97	96	4	96	48	1
NMSI_	97	96	4	96	48	7
NMTAP	97	144	3
NMTAP	97	144	5
BRTAP	97	192	4
NMTAP	97	288	0
NMTAP	97	336	0
NMTAP	98	0	0
NMTAP	98	0	1
NMTAP	98	48	2
NMTAP	98	96	3
NMTAP	98	96	5
BRTAP	98	192	7
BRTAP	98	216	7
NMTAP	98	264	0
NMSTR	98	288	0
NMSI_	98	288	0	96	48	4
NMTAP	98	336	1
NMTAP	99	0	0
NMSTR	99	0	4
BRSF_	99	0	4	96	96	0
NMTTP	99	96	4	E	0	M1
NMTTP	99	96	4	A	1	M1
NMTTP	99	96	5	E	0	M1
NMTAP	99	288	1
NMTAP	99	336	2
NMTAP	100	0	3
NMTAP	100	48	4
NMTAP	100	96	5
NMTAP	100	144	6
NMSTR	100	192	7
BRSI_	100	192	7	96	48	3
NMSTR	100	240	0
BRSI_	100	240	0	96	48	4
BRSTR	100	288	7
BRSI_	100	288	7	96	48	5
BRSTR	100	336	0
BRSI_	100	336	0	96	48	2
BRSTR	101	0	7
BRSI_	101	0	7	96	48	3
BRSTR	101	48	0
BRSI_	101	48	0	96	48	4
BRSTR	101	96	7
BRSCL	101	96	7	96	120	0
BRTAP	101	144	0
BRTAP	101	192	7
NMSTR	102	0	2
NMSXR	102	0	2	96	96	0
NMTAP	102	0	6
NMSTR	102	96	0
NMSCR	102	96	0	96	96	3
NMSTR	102	192	3
NMSUR	102	192	3	96	96	7
NMSTR	102	288	7
NMSLR	102	288	7	96	96	3
NMSTR	103	0	3
NMSLR	103	0	3	96	96	7
NMTAP	103	96	7
NMTAP	103	192	3
NMTAP	103	288	1
NMTAP	103	288	4
NMSTR	104	0	2
NMSI_	104	0	2	96	48	7
NMTAP	104	48	3
NMTAP	104	72	3
BRTAP	104	96	2
NMTAP	104	144	4
NMSTR	104	192	5
NMSI_	104	192	5	96	48	0
NMTAP	104	240	4
NMTAP	104	264	4
BRTAP	104	288	5
NMTAP	104	336	3
NMSTR	105	0	1
NMSI_	105	0	1	96	48	4
NMTAP	105	48	0
NMTAP	105	72	0
BRTAP	105	96	1
NMTAP	105	144	7
NMSTR	105	192	6
NMSI_	105	192	6	96	48	3
NMTAP	105	240	7
NMTAP	105	264	7
BRTAP	105	288	6
NMTAP	105	336	0
NMSTR	106	0	2
NMSI_	106	0	2	96	48	0
NMSI_	106	0	2	96	48	5
BRTAP	106	192	6
BRTAP	106	192	7
BRTAP	106	240	0
BRTAP	106	240	5
BRTAP	106	288	1
BRTAP	106	288	4
NMTAP	107	0	5
NMTAP	107	48	5
NMTAP	107	72	4
NMTAP	107	96	6
NMHLD	107	144	3	96
BRTAP	107	240	7
BRTAP	107	288	1
BRTAP	107	288	5
NMSTR	108	0	0
NMSI_	108	0	0	96	48	5
NMSTR	108	96	2
NMSI_	108	96	2	96	48	7
NMSTR	108	192	4
NMSI_	108	192	4	96	48	1
NMSTR	108	288	6
NMSI_	108	288	6	96	48	3
NMSTR	109	0	0
NMSI_	109	0	0	96	48	5
NMSTR	109	96	2
NMSI_	109	96	2	96	48	7
NMSTR	109	192	4
NMSI_	109	192	4	96	48	1
NMTAP	109	288	7
NMSTR	110	0	0
NMSCL	110	0	0	96	48	5
NMSTR	110	0	1
NMSV_	110	0	1	96	48	4
NMSTR	110	192	6
NMSV_	110	192	6	96	48	3
NMSTR	110	192	7
NMSCR	110	192	7	96	48	2
BRTAP	111	0	4
BRTAP	111	0	5
BRTAP	111	96	0
BRTAP	111	96	1
BRTAP	111	192	6
BRTAP	111	192	7
BRTAP	111	288	2
BRTAP	111	288	3
NMSTR	112	0	1
NMSI_	112	0	1	96	48	4
NMSTR	112	96	7
NMSI_	112	96	7	96	48	2
NMSTR	112	192	5
NMSI_	112	192	5	96	48	0
NMSTR	112	288	3
NMSI_	112	288	3	96	48	6
NMSTR	113	0	1
NMSI_	113	0	1	96	48	4
NMSTR	113	96	7
NMSI_	113	96	7	96	48	2
NMSTR	113	192	5
NMSI_	113	192	5	96	48	0
NMTAP	113	288	3
NMSTR	114	0	2
NMSLL	114	0	2	96	192	3
NMSTR	114	0	5
NMSLR	114	0	5	96	192	4
NMTAP	115	48	3
NMTAP	115	72	4
NMTAP	115	96	3
NMTAP	115	144	2
NMTAP	115	144	5
NMSTR	115	192	0
NMSCR	115	192	0	96	48	3
NMSTR	115	192	7
NMSCL	115	192	7	96	48	4
BRTAP	115	288	0
BRTAP	115	288	7
NMTTP	115	300	1	D	0	M1
NMTTP	115	300	7	D	0	M1
NMTTP	115	312	2	D	0	M1
NMTTP	115	312	6	D	0	M1
NMTTP	115	324	3	D	0	M1
NMTTP	115	324	5	D	0	M1
NMTTP	115	336	4	D	1	M1

T_REC_TAP	321
T_REC_BRK	104
T_REC_XTP	1
T_REC_BXX	2
T_REC_HLD	48
T_REC_XHO	4
T_REC_BHO	0
T_REC_BXH	0
T_REC_STR	120
T_REC_BST	19
T_REC_XST	2
T_REC_XBS	2
T_REC_TTP	57
T_REC_THO	0
T_REC_SLD	133
T_REC_BSL	17
T_REC_ALL	830
T_NUM_TAP	501
T_NUM_BRK	144
T_NUM_HLD	52
T_NUM_SLD	133
T_NUM_ALL	830
T_JUDGE_TAP	628
T_JUDGE_HLD	99
T_JUDGE_SLD	150
T_JUDGE_ALL	877
TTM_EACHPAIRS	121
TTM_SCR_TAP	250500
TTM_SCR_BRK	374400
TTM_SCR_HLD	52000
TTM_SCR_SLD	199500
TTM_SCR_ALL	876400
TTM_SCR_S	836150
TTM_SCR_SS	862000
TTM_RAT_ACV	10167

