VERSION	0.00.00	1.04.00
FES_MODE	0
BPM_DEF	175.000	175.000	175.000	175.000
MET_DEF	4	4
RESOLUTION	384
CLK_DEF	384
COMPATIBLE_CODE	MA2

BPM	0	0	175.000
MET	0	0	4	4

NMHLD	1	0	3	96
NMHLD	1	0	6	96
BXTAP	1	192	0
BXTAP	1	240	0
BXSTR	1	288	0
NMSCR	1	288	0	96	144	7
BRTAP	2	240	0
BRTAP	2	288	0
EXTAP	3	0	6
NMTAP	3	96	6
NMTAP	3	96	7
NMTAP	3	192	1
NMTAP	3	288	0
NMTAP	3	288	1
NMTAP	4	0	6
NMTAP	4	96	6
NMTAP	4	96	7
NMTAP	4	192	0
NMTAP	4	192	5
NMTAP	4	288	0
NMTAP	4	288	5
NMTAP	5	0	6
NMTAP	5	96	6
NMTAP	5	96	7
NMTAP	5	192	1
NMTAP	5	288	0
NMTAP	5	288	1
EXTAP	6	0	0
EXTAP	6	0	6
EXTAP	6	96	0
EXTAP	6	96	6
EXTAP	6	192	1
EXTAP	6	192	7
BXTAP	6	288	2
BXTAP	6	288	6
EXTAP	7	0	1
NMTAP	7	96	0
NMTAP	7	96	1
NMTAP	7	192	6
NMTAP	7	288	6
NMTAP	7	288	7
NMTAP	8	0	1
NMTAP	8	96	0
NMTAP	8	96	1
NMTAP	8	192	2
NMTAP	8	192	7
NMTAP	8	288	2
NMTAP	8	288	7
NMSTR	9	0	6
NMSUL	9	0	6	96	192	3
EXTAP	10	48	1
EXTAP	10	48	4
EXTAP	10	96	1
EXTAP	10	96	4
BXTAP	10	192	2
BXTAP	10	192	7
NMTAP	11	0	5
NMTAP	11	96	4
NMTAP	11	96	6
NMTAP	11	192	4
NMTAP	11	192	6
BXTAP	11	288	7
NMTAP	12	0	2
NMTAP	12	96	1
NMTAP	12	96	3
NMTAP	12	192	1
NMTAP	12	192	3
BXTAP	12	240	0
BXTAP	12	288	0
NMSTR	13	0	4
NMSXL	13	0	4	96	96	6
NMSXR	13	0	4	96	96	2
NMTAP	14	0	0
NMTAP	14	0	2
NMTAP	14	96	0
NMTAP	14	96	2
BXHLD	14	192	3	96
BXHLD	14	192	7	96
NMTAP	15	0	2
NMTAP	15	96	1
NMTAP	15	96	3
NMTAP	15	192	1
NMTAP	15	192	3
BXTAP	15	288	0
NMTAP	16	0	5
NMTAP	16	96	4
NMTAP	16	96	6
NMTAP	16	192	4
NMTAP	16	192	6
BXTAP	16	240	7
BXTAP	16	288	7
NMHLD	17	0	0	96
NMHLD	17	0	1	96
NMHLD	17	192	6	96
NMHLD	17	192	7	96
NMSTR	18	0	3
NMSI_	18	0	3	96	48	0
NMSTR	18	0	4
NMSI_	18	0	4	96	48	7
CNSCR	18	144	0	0	96	2
CNSCL	18	144	7	0	96	5
NMTAP	19	0	3
NMHLD	19	0	4	288
NMTAP	19	96	6
NMTAP	19	192	6
BXTAP	19	288	7
NMHLD	20	0	3	288
NMTAP	20	0	4
NMTAP	20	96	1
NMTAP	20	192	1
BXTAP	20	240	0
BXTAP	20	288	0
NMSTR	21	0	3
NMSI_	21	0	3	96	96	0
NMSTR	21	0	5
NMSI_	21	0	5	96	96	0
NMTAP	22	0	2
NMTAP	22	0	7
NMTAP	22	96	2
NMTAP	22	96	7
BXHLD	22	192	1	96
BXHLD	22	192	5	96
NMHLD	23	0	3	288
NMTAP	23	0	4
NMTAP	23	96	1
NMTAP	23	192	1
BXTAP	23	288	0
NMTAP	24	0	3
NMHLD	24	0	4	288
NMTAP	24	96	6
NMTAP	24	192	6
BXTAP	24	240	7
BXTAP	24	288	7
NMSTR	25	0	0
NMSXL	25	0	0	96	240	5
NMTAP	26	0	7
NMTAP	26	96	0
NMTAP	26	96	2
NMTAP	26	192	5
NMTAP	26	192	7
NMTTP	27	0	6	E	0	M1
NMTTP	27	96	7	E	0	M1
NMTTP	27	192	0	E	0	M1
NMTTP	27	288	1	E	0	M1
NMTTP	28	0	2	E	0	M1
NMTTP	28	96	3	E	0	M1
NMTTP	28	192	4	E	0	M1
NMSTR	29	0	5
NMSI_	29	0	5	96	48	3
NMSTR	29	192	1
NMSI_	29	192	1	96	48	7
NMSTR	30	0	6
NMSUL	30	0	6	96	96	2
NMTTP	31	0	2	E	0	M1
NMTTP	31	96	1	E	0	M1
NMTTP	31	192	0	E	0	M1
NMTTP	31	288	7	E	0	M1
NMTTP	32	0	6	E	0	M1
NMTTP	32	96	5	E	0	M1
NMTTP	32	192	4	E	0	M1
NMSTR	33	0	1
NMSI_	33	0	1	96	96	5
NMSTR	33	0	6
NMSI_	33	0	6	96	96	2
NMTAP	34	0	6
NMTAP	34	0	7
NMTAP	34	96	4
NMTAP	34	96	5
NMTAP	34	192	2
NMTAP	34	192	3
NMTAP	34	288	0
NMTAP	34	288	1
EXSTR	35	0	7
NMSF_	35	0	7	96	96	3
EXSTR	36	0	7
NMSF_	36	0	7	96	96	3
NMTTP	37	0	0	C	0	M1
NMTTP	37	0	2	B	0	M1
NMTTP	37	0	5	B	0	M1
NMTTP	37	192	0	C	0	M1
NMTTP	37	192	1	B	0	M1
NMTTP	37	192	6	B	0	M1
EXSTR	38	0	7
NMSF_	38	0	7	96	96	3
BRTAP	39	0	0
BRTAP	39	0	7
NMTAP	40	192	4
NMTAP	40	192	5
NMTAP	40	288	2
NMTAP	40	288	3
BXHLD	41	0	0	48
BXHLD	41	0	5	48
NMHLD	41	96	0	48
NMHLD	41	96	5	48
NMHLD	41	192	2	48
NMHLD	41	192	3	48
NMHLD	41	288	2	48
NMHLD	41	288	3	48
NMSTR	42	0	0
NMSCR	42	0	0	96	96	4
NMTAP	42	0	7
EXTAP	42	192	0
NMTAP	42	288	7
NMHLD	43	0	6	96
NMHLD	43	96	4	96
NMTAP	43	192	3
NMTAP	43	240	3
NMSTR	43	288	3
NMSCL	43	288	3	96	192	4
NMTAP	44	288	1
NMTAP	44	288	5
NMTAP	45	0	3
NMTAP	45	0	4
NMTAP	45	96	1
NMTAP	45	96	3
NMTAP	45	192	3
NMTAP	45	192	4
NMTAP	45	288	1
NMTAP	45	288	3
NMTAP	46	0	3
NMTAP	46	0	4
NMTAP	46	96	4
NMTAP	46	96	6
NMTAP	46	192	3
NMTAP	46	192	4
NMTAP	46	288	4
NMTAP	46	288	6
NMSTR	47	0	1
NMSI_	47	0	1	96	48	4
NMSTR	47	96	6
NMSI_	47	96	6	96	48	3
NMTAP	47	192	2
NMTAP	47	288	0
NMTAP	47	336	0
BRTAP	48	48	7
BRTAP	48	96	7
BRTAP	48	144	7
BRTAP	48	192	7
BXHLD	49	0	2	48
BXHLD	49	0	7	48
NMHLD	49	96	2	48
NMHLD	49	96	7	48
NMHLD	49	192	4	48
NMHLD	49	192	5	48
NMHLD	49	288	4	48
NMHLD	49	288	5	48
NMTAP	50	0	0
NMSTR	50	0	7
NMSCL	50	0	7	96	96	3
EXTAP	50	192	7
NMTAP	50	288	0
NMTAP	51	0	1
NMTAP	51	96	2
NMTAP	51	96	3
NMTTP	51	192	4	A	0	M1
NMTTP	51	192	4	D	0	M1
NMTTP	51	192	5	B	0	M1
NMTTP	51	192	5	E	0	M1
NMTTP	51	192	5	D	0	M1
NMTTP	51	192	6	E	0	M1
NMTTP	51	192	6	D	1	M1
BXSTR	52	0	0
NMSXL	52	0	0	96	192	3
NMTAP	53	0	5
NMTAP	53	96	0
NMTAP	53	96	6
NMTAP	53	192	2
NMTAP	53	288	1
NMTAP	53	288	7
NMSTR	54	0	0
BRSSL	54	0	0	96	192	4
NMSTR	55	0	6
NMSI_	55	0	6	96	48	4
NMSTR	55	96	0
NMSI_	55	96	0	96	48	2
NMSTR	55	192	7
NMSI_	55	192	7	96	48	3
NMHLD	56	0	0	96
NMHLD	56	96	2	96
NMHLD	56	192	4	96
NMTAP	56	288	6
BXHLD	57	0	0	576
BXSTR	57	0	7
NMSCL	57	0	7	96	192	5
CNSUL	57	288	5	0	288	2
NMHLD	59	0	1	96
NMHLD	59	0	4	96
BXTAP	59	192	6
BXTAP	59	192	7
BXTAP	59	240	6
BXTAP	59	240	7
BXSTR	59	288	6
NMSCL	59	288	6	96	96	2
BXTAP	59	288	7
BRTAP	60	240	1
BRTAP	60	240	7
BRTAP	60	288	1
BRTAP	60	288	7
NMSTR	61	0	0
NMSXL	61	0	0	96	672	5
CNSCL	63	0	5	0	576	6
NMSTR	65	0	7
NMSXR	65	0	7	96	672	2
CNSCR	67	0	2	0	576	1
NMHLD	69	0	7	1344
NMTTP	69	192	5	B	0	M1
NMTTP	70	0	4	D	0	M1
NMTTP	70	192	0	B	0	M1
NMSTR	71	0	5
NMSCR	71	0	5	96	96	6
CNSV_	71	192	6	0	192	1
CNSUL	72	0	1	0	192	4
NMHLD	73	0	3	1344
NMTTP	73	192	2	B	0	M1
NMTTP	74	0	1	D	0	M1
NMTTP	74	192	7	B	0	M1
NMSTR	75	0	0
NMSCR	75	0	0	96	96	1
CNSV_	75	192	1	0	192	4
CNSI_	76	0	4	0	192	2
NMHLD	77	0	3	96
NMHLD	77	96	2	96
NMHLD	77	192	1	96
NMHLD	77	288	0	96
NMHLD	78	0	7	96
NMHLD	78	96	6	96
NMHLD	78	192	5	96
NMHLD	78	288	4	2016
NMTAP	79	0	3
NMTAP	79	96	1
NMTAP	79	192	7
NMSTR	79	288	5
NMSI_	79	288	5	96	96	7
CNSSR	80	96	7	0	96	3
CNSI_	80	192	3	0	288	1
CNSI_	81	96	1	0	96	6
NMSTR	82	0	5
NMSCR	82	0	5	96	384	3
CNSUR	83	96	3	0	288	6
NMTAP	86	0	0
NMTAP	86	96	1
NMTAP	86	96	7
NMTAP	86	192	2
NMTAP	86	192	6
NMSTR	86	288	3
BRSCR	86	288	3	96	192	0
NMHLD	86	288	5	96
BXHLD	88	0	0	48
BXHLD	88	0	5	48
NMHLD	88	96	2	48
NMHLD	88	96	3	48
NMHLD	88	192	0	48
NMHLD	88	192	5	48
NMHLD	88	288	2	48
NMHLD	88	288	3	48
NMSTR	89	0	0
NMSCR	89	0	0	96	96	4
NMTAP	89	0	7
EXTAP	89	192	0
NMTAP	89	288	7
NMHLD	90	0	6	96
NMHLD	90	96	4	96
NMTAP	90	192	3
NMTAP	90	240	3
NMSTR	90	288	3
NMSCL	90	288	3	96	192	4
NMTAP	91	288	1
NMTAP	91	288	5
NMTAP	92	0	4
NMTAP	92	0	5
NMTAP	92	96	0
NMTAP	92	96	6
NMTAP	92	192	4
NMTAP	92	192	5
NMTAP	92	288	0
NMTAP	92	288	6
NMTAP	93	0	2
NMTAP	93	0	3
NMTAP	93	96	1
NMTAP	93	96	7
NMTAP	93	192	2
NMTAP	93	192	3
NMTAP	93	288	1
NMTAP	93	288	7
NMSTR	94	0	6
NMSI_	94	0	6	96	48	3
NMSTR	94	96	1
NMSI_	94	96	1	96	48	4
NMTAP	94	192	5
NMTAP	94	288	7
NMTAP	94	336	7
BRTAP	95	48	0
BRTAP	95	96	0
BRTAP	95	144	0
BRTAP	95	192	0
BXHLD	96	0	2	48
BXHLD	96	0	7	48
NMHLD	96	96	4	48
NMHLD	96	96	5	48
NMHLD	96	192	2	48
NMHLD	96	192	7	48
NMHLD	96	288	4	48
NMHLD	96	288	5	48
NMTAP	97	0	0
NMSTR	97	0	7
NMSCL	97	0	7	96	96	3
EXTAP	97	192	7
NMTAP	97	288	0
NMTAP	97	288	6
NMTAP	98	0	1
NMTAP	98	96	2
NMTAP	98	96	3
NMTTP	98	192	4	A	0	M1
NMTTP	98	192	4	D	0	M1
NMTTP	98	192	5	B	0	M1
NMTTP	98	192	5	E	0	M1
NMTTP	98	192	5	D	0	M1
NMTTP	98	192	6	E	0	M1
NMTTP	98	192	6	D	1	M1
BXSTR	99	0	7
NMSXR	99	0	7	96	192	4
NMTAP	100	0	2
NMTAP	100	0	3
NMTAP	100	96	6
NMTAP	100	96	7
NMTAP	100	192	4
NMTAP	100	192	5
NMTAP	100	288	0
NMTAP	100	288	1
NMSTR	101	0	7
BRSSR	101	0	7	96	192	3
NMSTR	102	0	1
NMSI_	102	0	1	96	48	3
NMSTR	102	96	7
NMSI_	102	96	7	96	48	5
NMSTR	102	192	0
NMSI_	102	192	0	96	48	4
NMHLD	103	0	7	96
NMHLD	103	96	5	96
NMHLD	103	192	3	96
NMTAP	103	288	1
BXSTR	104	0	0
NMSCR	104	0	0	96	192	2
BXHLD	104	0	7	576
CNSUR	104	288	2	0	288	5
NMHLD	106	0	1	96
NMHLD	106	0	4	96
BXTAP	106	192	6
BXTAP	106	192	7
BXTAP	106	240	6
BXTAP	106	240	7
BXSTR	106	288	6
NMSCL	106	288	6	96	96	2
BXTAP	106	288	7
BRTAP	107	240	1
BRTAP	107	240	7
BRTAP	107	288	1
BRTAP	107	288	7
EXTAP	108	0	0
NMTAP	108	96	2
NMTAP	108	96	3
NMTAP	108	192	7
NMTAP	108	288	4
NMTAP	108	288	5
NMTAP	109	0	0
NMHLD	109	96	2	192
NMSTR	109	96	3
NMSCR	109	96	3	96	96	7
NMTAP	110	0	0
NMTAP	110	96	2
NMTAP	110	96	3
NMTAP	110	192	7
NMTAP	110	288	4
NMTAP	110	288	5
EXTAP	111	0	1
EXTAP	111	0	7
EXTAP	111	96	1
EXTAP	111	96	7
EXTAP	111	192	0
EXTAP	111	192	6
BXTAP	111	288	1
BXTAP	111	288	5
EXTAP	112	0	7
NMTAP	112	96	4
NMTAP	112	96	5
NMTAP	112	192	0
NMTAP	112	288	2
NMTAP	112	288	3
NMTAP	113	0	4
NMHLD	113	0	5	192
NMSTR	113	96	7
NMSCR	113	96	7	96	96	3
NMHLD	114	0	4	288
NMHLD	114	0	5	288
EXTAP	115	48	3
EXTAP	115	48	6
EXTAP	115	96	3
EXTAP	115	96	6
NMTAP	115	192	2
NMTAP	115	192	3
BXTAP	115	288	0
BXTAP	115	288	7

T_REC_TAP	192
T_REC_BRK	20
T_REC_XTP	28
T_REC_BXX	32
T_REC_HLD	63
T_REC_XHO	0
T_REC_BHO	0
T_REC_BXH	14
T_REC_STR	39
T_REC_BST	0
T_REC_XST	3
T_REC_XBS	7
T_REC_TTP	40
T_REC_THO	0
T_REC_SLD	47
T_REC_BSL	3
T_REC_ALL	488
T_NUM_TAP	302
T_NUM_BRK	76
T_NUM_HLD	63
T_NUM_SLD	47
T_NUM_ALL	488
T_JUDGE_TAP	361
T_JUDGE_HLD	262
T_JUDGE_SLD	50
T_JUDGE_ALL	673
TTM_EACHPAIRS	133
TTM_SCR_TAP	151000
TTM_SCR_BRK	197600
TTM_SCR_HLD	63000
TTM_SCR_SLD	70500
TTM_SCR_ALL	482100
TTM_SCR_S	460300
TTM_SCR_SS	474500
TTM_RAT_ACV	10160

