VERSION	0.00.00	1.04.00
FES_MODE	0
BPM_DEF	175.000	175.000	175.000	175.000
MET_DEF	4	4
RESOLUTION	384
CLK_DEF	384
COMPATIBLE_CODE	MA2

BPM	0	0	175.000
MET	0	0	4	4

NMTAP	3	0	2
NMTAP	3	96	2
NMTAP	3	192	2
NMTAP	4	0	1
NMTAP	4	96	1
NMTAP	4	192	1
NMTAP	5	0	0
NMTAP	5	96	0
NMTAP	5	192	0
NMTAP	6	0	6
NMTAP	6	0	7
NMTAP	6	192	6
NMTAP	6	192	7
NMTAP	7	0	5
NMTAP	7	96	5
NMTAP	7	192	5
NMTAP	8	0	6
NMTAP	8	96	6
NMTAP	8	192	6
NMTAP	9	0	7
NMTAP	9	96	7
NMTAP	9	192	7
NMTAP	10	0	0
NMTAP	10	0	1
NMTAP	10	192	0
NMTAP	10	192	1
NMHLD	11	0	2	192
NMTAP	11	192	3
NMTAP	12	0	2
NMTAP	12	96	2
NMTAP	12	192	2
NMTAP	12	192	3
NMHLD	13	0	1	192
NMTAP	13	192	0
NMTAP	14	0	1
NMTAP	14	96	1
NMTAP	14	192	0
NMTAP	14	192	1
NMHLD	15	0	6	192
NMTAP	15	192	7
NMTAP	16	0	6
NMTAP	16	96	6
NMTAP	16	192	6
NMTAP	16	192	7
NMHLD	17	0	5	192
NMTAP	17	192	4
NMTAP	18	0	5
NMTAP	18	96	5
NMTAP	18	192	4
NMTAP	18	192	5
NMTAP	19	0	4
NMTAP	19	96	4
NMTAP	19	192	5
NMTAP	20	0	6
NMTAP	20	96	6
NMTAP	20	192	7
NMTAP	21	0	0
NMTAP	21	96	0
NMTAP	21	192	1
NMTAP	22	0	2
NMTAP	22	96	2
NMTAP	22	192	2
NMTAP	22	192	3
NMTAP	23	0	3
NMTAP	23	96	3
NMTAP	23	192	2
NMTAP	24	0	1
NMTAP	24	96	1
NMTAP	24	192	0
NMTAP	25	0	7
NMTAP	25	96	7
NMTAP	25	192	6
NMTAP	26	0	5
NMTAP	26	96	5
NMTAP	26	192	4
NMTAP	26	192	5
NMSTR	27	0	6
NMSI_	27	0	6	96	192	3
NMSTR	28	0	2
NMSI_	28	0	2	96	192	5
NMSTR	29	0	6
NMSI_	29	0	6	96	192	2
NMTAP	30	0	1
NMTAP	30	192	0
NMTAP	30	192	1
NMSTR	31	0	1
NMSI_	31	0	1	96	192	4
NMSTR	32	0	5
NMSI_	32	0	5	96	192	0
NMSTR	33	0	1
NMSI_	33	0	1	96	192	5
NMTAP	34	0	6
NMTAP	34	192	6
NMTAP	34	192	7
NMTTP	35	0	6	B	0	L1
NMTTP	35	96	5	B	0	L1
NMTTP	35	192	4	B	0	L1
NMTTP	36	0	1	B	0	L1
NMTTP	36	96	2	B	0	L1
NMTTP	36	192	3	B	0	L1
NMTTP	37	0	7	B	0	L1
NMTTP	37	96	6	B	0	L1
NMTTP	37	192	5	B	0	L1
NMTTP	37	288	4	B	0	L1
NMTTP	38	0	3	B	0	L1
NMTTP	38	96	2	B	0	L1
NMTTP	38	192	1	B	0	L1
NMTTP	38	288	0	B	0	L1
NMTTP	39	0	0	C	1	L1
EXTAP	41	0	2
EXTAP	41	96	2
EXTAP	41	192	1
EXTAP	41	288	1
EXTAP	42	0	0
EXTAP	42	96	0
EXTAP	42	192	6
EXTAP	42	192	7
NMTAP	43	0	5
NMTAP	43	96	5
NMTAP	43	192	6
NMTAP	43	288	6
NMTAP	44	0	7
NMTAP	44	96	7
NMTAP	44	192	0
NMTAP	44	192	1
NMTAP	45	0	1
NMTAP	45	96	1
NMTAP	45	192	2
NMTAP	45	288	2
NMTAP	46	0	3
NMTAP	46	96	3
NMTAP	46	192	4
NMTAP	46	192	5
NMTAP	47	0	6
NMTAP	47	96	6
NMTAP	47	192	5
NMTAP	47	288	5
NMTAP	48	0	4
NMTAP	48	96	4
BXTAP	48	192	2
BXTAP	48	192	3
NMTAP	49	0	2
NMTAP	49	96	2
NMTAP	49	192	1
NMTAP	49	288	1
NMTAP	50	0	0
NMTAP	50	96	0
NMTAP	50	192	6
NMTAP	50	192	7
NMTAP	51	0	5
NMTAP	51	96	5
NMTAP	51	192	6
NMTAP	51	288	6
NMTAP	52	0	7
NMTAP	52	96	7
NMTAP	52	192	0
NMTAP	52	192	1
NMTAP	53	0	1
NMTAP	53	96	1
NMTAP	53	192	2
NMTAP	53	288	2
NMTAP	54	0	3
NMTAP	54	96	3
NMTAP	54	192	4
NMTAP	54	192	5
NMTAP	55	0	6
NMTAP	55	96	6
NMTAP	55	192	5
NMTAP	55	288	5
NMTAP	56	0	4
NMTAP	56	96	4
NMTAP	56	192	2
NMTAP	56	192	3
NMTAP	57	0	2
NMTAP	57	96	2
NMTAP	57	192	2
NMTAP	57	192	3
NMTAP	58	0	5
NMTAP	58	96	5
NMTAP	58	192	4
NMTAP	58	192	5
NMHLD	59	0	3	192
NMHLD	59	0	4	192
NMTAP	60	0	3
NMTAP	60	0	4
NMTAP	60	96	3
NMTAP	60	96	4
NMTAP	60	192	3
NMTAP	60	192	4
NMSTR	61	0	5
NMSUL	61	0	5	96	480	2
NMSTR	63	0	1
NMSUR	63	0	1	96	480	4
NMSTR	65	0	6
NMSUL	65	0	6	96	480	3
NMSTR	67	0	1
NMSXR	67	0	1	96	480	4
NMHLD	69	0	5	192
NMHLD	69	192	4	192
NMHLD	70	0	3	192
NMTAP	70	192	2
NMHLD	71	0	2	192
NMHLD	71	192	3	192
NMHLD	72	0	4	192
NMTAP	72	192	5
NMHLD	73	0	6	192
NMHLD	73	192	5	192
NMHLD	74	0	4	192
NMTAP	74	192	3
NMHLD	75	0	1	192
NMHLD	75	192	2	192
NMHLD	76	0	3	192
NMTAP	76	192	4
NMTAP	77	0	2
NMTAP	77	96	2
NMTAP	77	192	1
NMTAP	77	288	1
NMTAP	78	0	0
NMTAP	78	96	0
NMTAP	78	192	7
NMTAP	78	288	7
NMTAP	79	0	6
NMTAP	79	96	6
NMTAP	79	192	4
NMTAP	79	192	5
NMTAP	80	0	4
NMTAP	80	0	5
NMTAP	80	192	4
NMTAP	80	192	5
NMTAP	81	0	6
NMTAP	81	96	6
NMTAP	81	192	6
NMTAP	82	0	0
NMTAP	82	0	7
NMTAP	82	192	0
NMTAP	82	192	7
NMTAP	83	0	1
NMTAP	83	96	1
NMTAP	83	192	1
NMHLD	84	0	2	192
NMHLD	84	0	3	192
NMHLD	85	0	4	192
NMHLD	85	0	5	192
NMTAP	86	0	3
NMTAP	86	96	3
NMTAP	86	192	4
NMTAP	86	288	4
BRTAP	87	0	3
BRTAP	87	0	4
NMTAP	88	0	2
NMTAP	88	96	2
NMTAP	88	192	0
NMTAP	88	192	1
NMTAP	88	288	0
NMTAP	88	288	1
NMTAP	89	0	7
NMTAP	89	96	7
NMTAP	89	192	6
NMTAP	89	192	7
NMTAP	90	0	5
NMTAP	90	96	5
NMTAP	90	192	6
NMTAP	90	192	7
NMTAP	90	288	6
NMTAP	90	288	7
NMTAP	91	0	0
NMTAP	91	96	0
NMTAP	91	192	0
NMTAP	91	192	1
NMTAP	92	0	1
NMTAP	92	96	1
NMTAP	92	192	2
NMTAP	92	192	3
NMTAP	92	288	2
NMTAP	92	288	3
NMTAP	93	0	4
NMTAP	93	96	4
NMTAP	93	192	4
NMTAP	93	192	5
NMTAP	94	0	6
NMTAP	94	96	6
NMTAP	94	192	4
NMTAP	94	192	5
NMTAP	94	288	4
NMTAP	94	288	5
NMTAP	95	0	3
NMTAP	95	96	3
NMTAP	95	192	2
NMTAP	95	192	3
NMTAP	96	0	2
NMTAP	96	96	2
NMTAP	96	192	0
NMTAP	96	192	1
NMTAP	96	288	0
NMTAP	96	288	1
NMTAP	97	0	7
NMTAP	97	96	7
NMTAP	97	192	6
NMTAP	97	192	7
NMTAP	97	288	6
NMTAP	97	288	7
NMTAP	98	0	5
NMTAP	98	96	5
NMTAP	98	192	6
NMTAP	98	192	7
NMTAP	98	288	6
NMTAP	98	288	7
NMTAP	99	0	0
NMTAP	99	96	0
NMTAP	99	192	0
NMTAP	99	192	1
NMTAP	100	0	1
NMTAP	100	96	1
NMTAP	100	192	2
NMTAP	100	192	3
NMTAP	100	288	2
NMTAP	100	288	3
NMTAP	101	0	4
NMTAP	101	96	4
NMTAP	101	192	4
NMTAP	101	192	5
NMTAP	101	288	4
NMTAP	101	288	5
NMTAP	102	0	6
NMTAP	102	96	6
NMTAP	102	192	4
NMTAP	102	192	5
NMTAP	102	288	4
NMTAP	102	288	5
NMTAP	103	0	3
NMTAP	103	96	3
NMTAP	103	192	2
NMTAP	103	192	3
NMTAP	104	0	2
NMTAP	104	96	2
NMTAP	104	192	3
NMTAP	104	288	3
NMTAP	105	0	4
NMTAP	105	96	4
NMTAP	105	192	4
NMTAP	105	192	5
NMHLD	106	0	5	192
NMTAP	106	192	4
NMHLD	107	0	2	192
NMTAP	107	192	3
NMTAP	108	0	4
NMTAP	108	96	5
NMTAP	108	192	6
NMTAP	108	288	7
NMTAP	109	0	0
NMTAP	109	96	1
NMTAP	109	192	2
NMTAP	109	192	3
NMTAP	110	0	3
NMTAP	110	96	2
NMTAP	110	192	1
NMTAP	110	288	0
NMTAP	111	0	7
NMTAP	111	96	6
NMTAP	111	192	4
NMTAP	111	192	5
NMTAP	112	0	4
NMTAP	112	96	5
NMTAP	112	192	6
NMTAP	112	288	7
NMTAP	113	0	0
NMTAP	113	96	1
NMTAP	113	192	2
NMTAP	113	288	3
NMTAP	114	0	4
NMTAP	114	96	5
NMTAP	114	192	6
NMTAP	114	288	7
NMTAP	115	0	0
NMTAP	115	0	7
NMTAP	115	96	0
NMTAP	115	96	7
NMTAP	115	192	1
NMTAP	115	192	6
BXTAP	115	288	1
BXTAP	115	288	6

T_REC_TAP	308
T_REC_BRK	2
T_REC_XTP	8
T_REC_BXX	4
T_REC_HLD	24
T_REC_XHO	0
T_REC_BHO	0
T_REC_BXH	0
T_REC_STR	10
T_REC_BST	0
T_REC_XST	0
T_REC_XBS	0
T_REC_TTP	15
T_REC_THO	0
T_REC_SLD	10
T_REC_BSL	0
T_REC_ALL	381
T_NUM_TAP	341
T_NUM_BRK	6
T_NUM_HLD	24
T_NUM_SLD	10
T_NUM_ALL	381
T_JUDGE_TAP	347
T_JUDGE_HLD	96
T_JUDGE_SLD	10
T_JUDGE_ALL	453
TTM_EACHPAIRS	67
TTM_SCR_TAP	170500
TTM_SCR_BRK	15600
TTM_SCR_HLD	24000
TTM_SCR_SLD	15000
TTM_SCR_ALL	225100
TTM_SCR_S	217800
TTM_SCR_SS	224500
TTM_RAT_ACV	10026

