VERSION	0.00.00	1.04.00
FES_MODE	0
BPM_DEF	225.000	225.000	225.000	225.000
MET_DEF	4	4
RESOLUTION	384
CLK_DEF	384
COMPATIBLE_CODE	MA2

BPM	0	0	225.000
MET	0	0	4	4

NMTAP	2	0	4
NMTAP	2	48	4
NMTAP	2	96	4
NMTAP	2	192	2
NMTAP	2	240	3
NMTAP	2	288	4
NMHLD	3	0	3	96
NMHLD	3	0	5	48
NMHLD	3	192	2	48
NMHLD	3	192	4	96
NMTAP	4	0	4
NMTAP	4	48	4
NMTAP	4	96	4
NMTAP	4	192	2
NMTAP	4	240	3
NMTAP	4	288	4
NMHLD	5	0	4	48
NMHLD	5	0	6	96
NMHLD	5	192	1	96
NMHLD	5	192	3	48
NMTAP	6	0	4
NMTAP	6	48	4
NMTAP	6	96	4
NMTAP	6	192	2
NMTAP	6	240	3
NMTAP	6	288	4
NMHLD	7	0	3	48
NMHLD	7	0	5	96
NMHLD	7	192	2	96
NMHLD	7	192	4	48
NMTAP	8	0	4
NMTAP	8	48	4
NMTAP	8	96	4
NMTAP	8	192	2
NMTAP	8	240	3
NMTAP	8	288	4
NMTAP	9	0	4
NMTAP	9	48	3
NMTAP	9	96	4
NMTAP	9	144	2
NMTAP	9	144	5
NMTTP	9	240	3	B	0	M1
NMTTP	9	240	3	E	0	M1
NMTTP	9	240	4	B	0	M1
NMTTP	9	240	5	E	0	M1
BRSTR	10	0	1
NMSI_	10	0	1	96	48	4
NMTAP	10	96	1
NMTAP	10	96	7
NMTAP	10	192	5
NMTAP	10	240	5
NMTAP	10	288	4
NMTAP	10	336	6
NMSTR	11	0	1
NMSCR	11	0	1	96	48	3
NMTAP	11	96	4
NMSTR	11	192	5
NMSCR	11	192	5	96	48	7
NMTAP	11	288	3
NMSTR	12	0	1
NMSI_	12	0	1	96	48	4
NMTAP	12	96	0
NMTAP	12	96	1
NMTAP	12	192	5
NMTAP	12	240	5
NMTAP	12	288	4
NMTAP	12	336	6
NMSTR	13	0	0
NMSI_	13	0	0	96	48	2
NMSI_	13	0	0	96	48	4
NMSTR	13	192	7
NMSI_	13	192	7	96	48	3
NMSI_	13	192	7	96	48	5
BXTAP	14	0	2
BXTAP	14	0	4
NMHLD	14	96	3	96
NMTAP	14	96	5
NMTAP	14	192	4
NMTAP	14	240	3
NMTAP	14	288	5
NMTAP	15	0	4
NMSTR	15	0	6
NMSI_	15	0	6	96	48	2
NMSTR	15	96	3
NMSI_	15	96	3	96	72	0
EXTAP	15	192	4
CNSCL	15	264	0	0	48	7
EXTAP	15	288	5
CNSI_	15	312	7	0	72	4
EXHLD	16	0	6	96
NMTAP	16	96	4
NMTAP	16	192	2
NMSTR	16	192	3
NMSI_	16	192	3	96	48	7
NMTAP	16	288	1
NMSTR	17	0	0
BRSCL	17	0	0	96	48	5
BRSCR	17	0	0	96	48	3
BXTAP	17	192	1
BXTAP	17	192	7
BRSTR	18	0	6
NMSI_	18	0	6	96	48	3
NMTAP	18	96	0
NMTAP	18	96	6
NMTAP	18	192	2
NMTAP	18	240	2
NMTAP	18	288	3
NMTAP	18	336	1
NMSTR	19	0	5
NMSCR	19	0	5	96	48	7
NMTAP	19	96	3
NMSTR	19	192	1
NMSCR	19	192	1	96	48	3
NMTAP	19	288	7
NMSTR	20	0	5
NMSI_	20	0	5	96	48	0
NMTAP	20	96	3
NMTAP	20	96	5
NMTAP	20	192	2
NMTAP	20	240	2
NMTAP	20	288	3
NMTAP	20	336	1
NMSTR	21	0	7
NMSI_	21	0	7	96	48	3
NMSCL	21	0	7	96	48	5
NMSTR	21	192	0
NMSI_	21	192	0	96	48	4
NMSCR	21	192	0	96	48	2
BXTAP	22	0	1
BXTAP	22	0	5
NMTAP	22	96	2
NMHLD	22	96	4	96
NMTAP	22	192	3
NMTAP	22	240	4
NMTAP	22	288	2
NMSTR	23	0	1
NMSI_	23	0	1	96	48	5
NMTAP	23	0	3
NMSTR	23	96	4
NMSI_	23	96	4	96	72	6
EXTAP	23	192	3
CNSCR	23	264	6	0	48	0
EXTAP	23	288	2
NMHLD	24	0	1	96
NMTAP	24	96	3
NMTAP	24	192	5
NMTAP	24	240	5
NMTAP	24	288	4
NMSTR	24	288	6
NMSI_	24	288	6	96	48	3
NMSTR	25	0	2
NMSI_	25	0	2	96	48	7
NMSTR	25	96	7
NMSUR	25	96	7	96	72	3
BRTAP	25	192	5
NMTAP	26	0	2
NMTAP	26	0	4
NMTAP	26	96	2
NMTAP	26	96	4
NMTAP	26	192	3
NMTAP	26	192	5
NMSTR	26	288	3
NMSI_	26	288	3	96	96	7
NMTAP	26	288	5
NMTAP	27	0	4
NMTAP	27	96	4
NMTAP	27	192	5
NMHLD	27	192	7	96
NMTAP	27	288	5
NMTAP	28	0	4
NMSTR	28	0	7
NMSI_	28	0	7	96	96	3
NMTAP	28	96	4
NMTAP	28	192	5
NMTAP	28	288	3
NMTAP	28	288	5
NMTAP	29	0	4
NMTAP	29	0	5
NMTAP	29	96	6
NMTAP	29	96	7
NMTAP	29	192	0
NMTAP	29	192	1
NMTAP	29	288	2
NMSTR	29	288	3
NMSI_	29	288	3	96	96	0
NMTAP	30	0	1
NMTAP	30	96	1
NMTAP	30	192	0
NMTAP	30	192	2
NMSTR	30	288	0
NMSUL	30	288	0	96	96	4
NMTAP	30	288	2
NMTAP	31	0	3
NMTAP	31	96	2
NMTAP	31	192	1
NMTAP	31	192	3
NMTAP	31	288	2
NMSTR	31	288	4
NMSI_	31	288	4	96	96	7
NMTAP	32	0	3
NMTAP	32	96	3
CNSI_	32	96	7	0	96	3
NMTAP	32	192	2
NMSTR	32	288	1
NMSI_	32	288	1	96	48	5
NMTAP	32	288	4
NMSTR	33	0	3
NMSI_	33	0	3	96	48	7
NMTAP	33	96	0
NMTAP	33	192	0
NMTAP	33	192	6
BRTAP	34	0	1
BRTAP	34	0	5
NMTAP	34	96	2
NMTAP	34	144	2
NMTAP	34	192	2
NMTAP	34	192	4
NMTAP	34	288	3
NMSTR	34	288	5
NMSI_	34	288	5	96	48	3
NMSTR	35	0	1
NMSV_	35	0	1	96	48	4
NMTAP	35	96	7
NMTAP	35	192	7
NMTAP	35	288	3
NMTAP	35	288	5
NMHLD	36	0	6	96
NMTAP	36	96	4
NMTAP	36	144	4
NMTAP	36	192	4
NMTAP	36	192	5
NMTAP	36	288	2
NMSTR	36	288	3
NMSCR	36	288	3	96	48	5
NMSTR	37	0	1
NMSI_	37	0	1	96	48	3
NMTAP	37	96	7
NMTAP	37	192	7
NMTAP	37	288	4
NMTAP	37	288	6
NMTAP	38	0	2
NMTAP	38	0	4
NMTAP	38	96	1
NMTAP	38	144	1
NMTAP	38	192	1
NMTAP	38	192	3
NMSTR	38	288	2
NMSCR	38	288	2	96	96	5
NMTAP	38	288	4
NMTAP	39	0	6
NMTAP	39	96	7
NMSTR	39	192	7
NMSXR	39	192	7	96	144	7
NMTAP	39	288	3
NMTAP	40	0	3
NMTAP	40	96	2
NMTAP	40	144	2
NMSTR	40	192	2
NMSI_	40	192	2	96	48	7
NMTAP	40	288	5
NMTAP	41	0	0
NMTAP	41	0	6
NMTAP	41	48	0
NMTAP	41	48	6
NMTAP	41	96	0
NMTAP	41	96	6
BRTAP	41	192	2
BRTAP	41	192	4
NMTAP	42	0	5
NMSTR	42	96	5
NMSCR	42	96	5	96	576	1
NMHLD	42	336	3	240
NMTAP	44	0	2
NMSTR	44	96	2
NMSCL	44	96	2	96	576	6
NMHLD	44	336	4	240
NMTAP	46	0	5
NMHLD	46	96	5	768
NMTTP	46	336	5	B	0	M1
NMTTP	46	336	5	E	0	M1
NMTTP	47	192	2	B	0	M1
NMTTP	47	192	3	E	0	M1
NMTAP	48	0	1
NMHLD	48	96	1	480
NMTHO	48	336	0	432	C	0	M1
EXTAP	50	0	0
EXSTR	50	96	0
NMSCR	50	96	0	96	288	3
NMTTP	50	336	3	B	0	M1
NMTTP	50	336	4	B	0	M1
NMTTP	50	336	4	E	0	M1
CNSCL	51	96	3	0	288	0
NMTAP	52	0	6
NMSTR	52	96	6
NMSCL	52	96	6	96	192	3
NMTTP	52	336	2	B	0	M1
NMTTP	52	336	3	B	0	M1
NMTTP	52	336	3	E	0	M1
CNSCR	53	0	3	0	384	6
NMTAP	54	0	1
NMSTR	54	96	1
NMSCR	54	96	1	96	192	4
NMTTP	54	336	4	B	0	M1
NMTTP	54	336	5	B	0	M1
NMTTP	54	336	5	E	0	M1
CNSCL	55	0	4	0	384	1
NMHLD	56	0	0	288
NMTAP	56	240	1
NMTAP	56	288	1
NMTAP	57	0	0
NMTAP	57	0	1
NMTAP	57	96	2
NMTAP	57	96	3
NMTAP	57	192	3
NMTAP	57	216	4
NMTAP	57	240	3
NMTAP	57	264	4
NMTAP	57	288	3
BRSTR	58	0	1
NMSCR	58	0	1	96	48	4
NMTAP	58	0	7
NMTAP	58	96	1
NMTAP	58	96	7
NMTAP	58	192	6
NMTAP	58	240	5
NMTAP	58	288	3
NMTAP	58	336	2
NMSTR	59	0	1
NMSI_	59	0	1	96	48	3
NMTAP	59	96	7
NMSTR	59	192	5
NMSI_	59	192	5	96	48	7
NMTAP	59	288	3
NMSTR	60	0	2
NMSV_	60	0	2	96	48	7
NMTAP	60	96	2
NMTAP	60	96	7
NMTAP	60	192	6
NMTAP	60	240	5
NMTAP	60	288	3
NMTAP	60	336	2
NMSTR	61	0	0
NMSI_	61	0	0	96	48	3
NMSTR	61	0	1
NMSV_	61	0	1	96	48	3
NMSTR	61	192	6
NMSV_	61	192	6	96	48	4
NMSTR	61	192	7
NMSI_	61	192	7	96	48	4
BRTAP	62	0	0
BRTAP	62	0	7
NMTAP	62	96	6
NMTAP	62	144	6
NMSTR	62	192	4
NMSI_	62	192	4	96	48	0
NMSTR	62	288	5
NMSCL	62	288	5	96	48	2
NMHLD	63	0	1	96
NMTAP	63	96	7
NMTAP	63	192	1
NMTAP	63	192	6
NMTAP	63	240	2
NMTAP	63	240	5
NMSTR	63	288	3
NMSI_	63	288	3	96	48	0
NMSI_	63	288	3	96	48	6
NMTAP	63	288	4
EXTAP	64	96	1
EXTAP	64	96	5
NMTAP	64	192	2
NMTAP	64	240	3
NMTAP	64	288	4
NMTAP	64	336	5
NMSTR	65	0	6
NMSI_	65	0	6	96	48	2
NMTAP	65	0	7
NMSTR	65	96	0
NMSCL	65	96	0	96	48	5
NMSCR	65	96	0	96	48	3
BXTAP	65	192	0
NMSTR	66	0	5
NMSV_	66	0	5	96	48	0
NMTAP	66	96	4
NMTAP	66	96	5
NMTAP	66	192	3
NMTAP	66	240	2
NMTAP	66	288	7
NMTAP	66	336	6
NMSTR	67	0	5
NMSI_	67	0	5	96	48	3
NMTAP	67	96	0
NMSTR	67	192	2
NMSI_	67	192	2	96	48	0
NMTAP	67	288	4
NMSTR	68	0	5
NMSV_	68	0	5	96	48	0
NMTAP	68	96	0
NMTAP	68	96	5
NMTAP	68	192	1
NMTAP	68	240	2
NMTAP	68	288	4
NMTAP	68	336	5
NMSTR	69	0	6
NMSV_	69	0	6	96	48	3
NMSTR	69	0	7
NMSI_	69	0	7	96	48	4
NMSTR	69	192	0
NMSI_	69	192	0	96	48	3
NMSTR	69	192	1
NMSV_	69	192	1	96	48	4
BRTAP	70	0	0
BRTAP	70	0	7
NMTAP	70	96	1
NMTAP	70	144	1
NMSTR	70	192	3
NMSI_	70	192	3	96	48	7
NMSTR	70	288	2
NMSCR	70	288	2	96	48	5
NMSTR	71	0	6
NMSI_	71	0	6	96	48	2
NMTAP	71	96	0
NMTAP	71	192	1
NMTAP	71	240	1
NMTAP	71	288	2
NMTAP	71	288	3
NMTAP	72	0	4
NMSTR	72	0	5
NMSCR	72	0	5	96	48	0
EXTAP	72	96	1
NMTAP	72	96	5
NMTAP	72	192	2
NMTAP	72	240	2
NMSTR	72	288	6
NMSI_	72	288	6	96	48	2
NMTAP	73	0	6
NMTAP	73	0	7
NMSTR	73	96	0
NMSI_	73	96	0	96	48	3
NMSCL	73	96	0	96	48	6
BXTAP	73	192	0
NMTAP	74	0	3
NMHLD	74	0	6	96
NMTAP	74	96	4
NMHLD	74	144	4	240
NMTTP	74	216	6	E	0	M1
NMTTP	74	228	5	B	0	M1
NMHLD	75	0	6	288
NMTTP	75	96	4	B	0	M1
NMTTP	75	108	5	E	0	M1
NMTTP	75	192	6	E	0	M1
NMTTP	75	204	6	D	0	M1
EXTAP	75	288	0
NMTAP	76	0	1
NMTAP	76	48	1
NMTAP	76	96	3
NMTAP	76	144	3
NMTAP	76	192	2
NMTAP	76	240	3
NMTAP	76	288	4
NMTAP	76	336	5
NMTTP	77	0	3	B	0	M1
NMHLD	77	0	6	96
NMTTP	77	12	4	E	0	M1
EXTAP	77	192	0
EXTAP	77	256	1
EXTAP	77	256	7
EXTAP	77	320	2
EXTAP	77	320	6
NMTTP	78	0	3	B	0	M1
NMHLD	78	0	5	288
NMTTP	78	12	4	E	0	M1
NMTTP	78	144	5	B	0	M1
NMTTP	78	144	6	E	0	M1
NMSTR	78	288	7
NMSCR	78	288	7	96	96	3
NMTAP	79	0	6
NMTAP	79	96	6
EXTAP	79	192	7
EXTAP	79	264	0
EXTAP	79	264	6
EXTAP	79	336	1
EXTAP	79	336	5
EXTAP	80	0	1
EXTAP	80	0	5
NMTAP	80	96	3
NMTAP	80	96	4
NMTAP	80	192	1
NMTAP	80	192	7
NMTAP	80	240	1
NMSTR	80	240	7
NMSI_	80	240	7	96	48	3
NMHLD	80	336	0	240
NMTAP	81	192	3
NMTAP	81	256	2
NMTAP	81	256	4
EXTAP	81	320	2
EXTAP	81	320	4
BXTAP	82	0	5
EXTAP	82	24	4
NMTAP	82	96	6
NMTAP	82	120	7
NMTAP	82	192	1
NMTAP	82	216	0
NMTAP	82	288	2
NMTAP	82	312	3
NMTAP	83	0	3
NMTAP	83	0	4
NMTAP	83	48	5
NMHLD	83	96	6	48
NMTAP	83	144	4
NMHLD	83	192	3	48
NMTAP	83	240	5
NMTAP	83	288	4
NMTAP	83	288	6
BRTAP	84	0	6
NMTAP	84	24	7
NMTAP	84	96	1
NMTAP	84	120	0
NMTAP	84	192	2
NMTAP	84	216	3
NMTAP	84	288	5
NMTAP	84	312	4
NMTAP	85	0	3
NMTAP	85	0	4
NMTAP	85	48	2
NMHLD	85	96	1	48
NMTAP	85	144	3
NMHLD	85	192	4	48
NMTAP	85	240	2
NMTAP	85	288	1
NMTAP	85	288	3
NMHLD	86	0	2	72
NMHLD	86	0	4	48
NMHLD	86	96	2	72
NMHLD	86	96	4	48
NMHLD	86	192	2	72
NMHLD	86	192	4	48
NMHLD	86	288	2	72
NMHLD	86	288	4	48
NMHLD	87	0	3	48
NMHLD	87	0	5	72
NMHLD	87	96	3	48
NMHLD	87	96	5	72
NMHLD	87	192	3	48
NMHLD	87	192	5	72
NMHLD	87	288	3	48
NMHLD	87	288	5	72
EXTAP	88	0	2
EXTAP	88	0	6
NMTAP	88	96	3
NMTAP	88	144	2
NMHLD	88	192	1	96
NMTAP	88	288	2
NMTAP	88	336	3
NMTAP	89	0	1
NMTAP	89	0	4
NMHLD	89	48	1	24
NMHLD	89	48	4	24
BRTAP	89	144	0
BRTAP	89	144	5
BRTAP	89	192	0
BRTAP	89	192	5
NMSTR	89	288	6
NMSCL	89	288	6	96	768	1
NMTTP	90	0	0	C	1	M1
NMHLD	92	0	0	336
CNSCR	92	0	1	0	768	6
NMTHO	94	0	0	336	C	0	M1
NMTTP	95	0	6	E	0	M1
NMTTP	95	192	0	E	0	M1
NMTTP	96	0	2	E	0	M1
NMHLD	96	0	7	336
NMTHO	97	0	0	384	C	0	M1
NMSTR	98	0	5
NMSCR	98	0	5	96	672	2
CNSI_	100	0	2	0	192	0
NMTAP	100	0	3
CNSI_	100	192	0	0	576	6
NMTAP	100	192	3
NMTAP	101	0	3
NMTAP	101	192	3
NMTAP	102	0	4
NMTAP	102	96	5
NMTAP	102	192	6
NMSTR	102	240	6
NMSI_	102	240	6	96	96	0
NMHLD	102	336	3	336
CNSI_	103	48	0	0	144	3
CNSI_	103	192	3	0	96	5
NMTAP	104	0	4
NMHLD	104	0	6	240
NMTAP	104	240	5
NMTAP	104	288	5
NMTAP	105	0	5
NMTAP	105	0	6
NMTAP	105	96	4
NMTAP	105	96	5
NMTAP	105	192	4
NMTAP	105	216	3
NMTAP	105	240	4
NMTAP	105	264	3
NMTAP	105	288	5
BRSTR	106	0	1
NMSV_	106	0	1	96	48	4
BRTAP	106	0	7
NMTAP	106	96	0
NMTAP	106	96	1
NMTAP	106	192	5
NMTAP	106	240	6
NMTAP	106	288	0
NMTAP	106	336	1
NMSTR	107	0	2
NMSI_	107	0	2	96	48	0
NMTAP	107	96	4
NMSTR	107	192	2
NMSCL	107	192	2	96	48	7
NMTAP	107	288	5
NMSTR	108	0	6
NMSV_	108	0	6	96	48	3
NMTAP	108	96	6
NMTAP	108	96	7
NMTAP	108	192	2
NMTAP	108	240	1
NMTAP	108	288	7
NMTAP	108	336	6
NMSTR	109	0	4
NMSV_	109	0	4	96	48	7
NMSTR	109	0	5
NMSV_	109	0	5	96	48	0
NMSTR	109	192	2
NMSV_	109	192	2	96	48	7
NMSTR	109	192	3
NMSV_	109	192	3	96	48	0
BRTAP	110	0	1
BRTAP	110	0	5
NMTAP	110	96	4
NMHLD	110	96	6	96
NMSTR	110	192	7
NMSI_	110	192	7	96	48	3
NMSTR	110	288	6
NMSCR	110	288	6	96	48	1
NMSTR	111	0	2
NMSCR	111	0	2	96	48	5
NMTAP	111	96	5
NMTAP	111	192	6
NMTAP	111	240	6
NMSTR	111	288	0
NMSCL	111	288	0	96	24	7
NMSTR	111	288	7
NMSCR	111	288	7	96	24	0
CNSI_	112	24	0	0	24	3
CNSI_	112	24	7	0	24	4
EXTAP	112	96	2
EXTAP	112	96	5
NMTAP	112	192	1
NMTAP	112	240	0
NMTAP	112	288	7
NMTAP	112	336	6
NMTAP	113	0	4
NMSTR	113	0	5
NMSI_	113	0	5	96	48	1
NMSTR	113	96	3
NMSCL	113	96	3	96	48	0
NMSCR	113	96	3	96	48	6
BXTAP	113	192	3
NMTAP	114	0	3
BRSTR	114	0	6
NMSV_	114	0	6	96	48	3
NMTAP	114	96	0
NMTAP	114	96	6
NMTAP	114	192	2
NMTAP	114	240	1
NMTAP	114	288	7
NMTAP	114	336	6
NMSTR	115	0	5
NMSCR	115	0	5	96	48	7
NMTAP	115	96	3
NMSTR	115	192	5
NMSCR	115	192	5	96	48	0
NMTAP	115	288	3
NMSTR	116	0	1
NMSV_	116	0	1	96	48	4
NMTAP	116	96	0
NMTAP	116	96	1
NMTAP	116	192	5
NMTAP	116	240	6
NMTAP	116	288	0
NMTAP	116	336	1
NMSTR	117	0	2
NMSV_	117	0	2	96	48	0
NMSTR	117	0	3
NMSV_	117	0	3	96	48	6
NMSTR	117	192	4
NMSV_	117	192	4	96	48	1
NMSTR	117	192	5
NMSV_	117	192	5	96	48	7
NMTAP	118	0	2
NMTAP	118	0	3
BRTAP	118	48	0
BRTAP	118	48	4
NMSTR	118	192	4
NMSI_	118	192	4	96	48	0
NMTAP	118	192	6
NMSTR	118	288	5
NMSCL	118	288	5	96	48	2
NMSTR	119	0	1
NMSCL	119	0	1	96	48	6
NMTAP	119	96	6
NMTAP	119	192	5
NMTAP	119	240	5
NMTAP	119	288	4
NMSTR	119	288	6
NMSI_	119	288	6	96	48	4
NMSTR	120	0	2
NMSCL	120	0	2	96	48	7
NMTAP	120	96	7
NMTAP	120	192	4
NMTAP	120	240	5
NMSTR	120	288	6
NMSI_	120	288	6	96	48	2
NMSTR	121	0	0
NMSI_	121	0	0	96	48	4
NMTAP	121	0	6
NMTAP	121	96	0
NMSTR	121	96	7
NMSF_	121	96	7	96	48	3
BXTAP	121	192	7
NMSTR	122	0	0
NMSI_	122	0	0	96	48	4
NMTAP	122	96	7
CNSI_	122	144	4	0	48	2
NMSTR	122	192	0
NMSI_	122	192	0	96	48	4
NMTAP	122	288	2
CNSI_	122	336	4	0	48	6
NMSTR	123	0	0
NMSI_	123	0	0	96	48	4
NMTAP	123	96	7
CNSI_	123	144	4	0	48	2
NMTAP	123	192	6
NMTAP	123	240	6
NMTAP	123	288	2
NMTAP	123	288	6
NMSTR	124	0	7
NMSI_	124	0	7	96	48	3
NMTAP	124	96	0
CNSI_	124	144	3	0	48	5
NMSTR	124	192	7
NMSI_	124	192	7	96	48	3
NMTAP	124	288	5
CNSI_	124	336	3	0	48	1
NMSTR	125	0	7
NMSI_	125	0	7	96	48	3
NMTAP	125	96	0
CNSI_	125	144	3	0	48	5
NMTAP	125	192	1
NMTAP	125	240	1
NMTAP	125	288	1
NMTAP	125	288	5
NMSTR	126	0	3
NMSI_	126	0	3	96	48	7
NMTAP	126	96	4
CNSI_	126	144	7	0	48	1
NMSTR	126	192	3
NMSI_	126	192	3	96	48	7
NMTAP	126	288	2
CNSI_	126	336	7	0	48	5
NMSTR	127	0	4
NMSI_	127	0	4	96	48	0
NMTAP	127	96	6
CNSI_	127	144	0	0	48	2
NMSTR	127	192	4
NMSI_	127	192	4	96	48	0
NMTAP	127	288	2
CNSI_	127	336	0	0	48	6
NMSTR	128	0	5
NMSI_	128	0	5	96	48	1
NMTAP	128	96	7
CNSI_	128	144	1	0	48	3
NMHLD	128	192	6	96
NMHLD	128	288	4	96
NMHLD	129	0	2	96
NMHLD	129	96	0	96
NMTAP	129	192	6
NMSTR	129	288	6
NMSCL	129	288	6	96	384	1
NMTAP	129	288	7
NMTTP	130	0	0	C	0	M1
NMTTP	130	0	3	B	1	M1
NMHLD	131	0	0	192
CNSLR	131	0	1	0	336	5
NMSTR	131	288	1
NMSCR	131	288	1	96	384	6
CNSLL	133	0	6	0	336	2
NMHLD	133	0	7	192
NMSTR	133	288	5
NMSCR	133	288	5	96	384	2
CNSLL	135	0	2	0	336	6
NMHLD	135	0	3	192
NMSTR	135	288	2
NMSCL	135	288	2	96	48	1
CNSI_	136	48	1	0	240	7
CNSCL	136	288	7	0	96	6
NMTAP	137	0	5
NMSTR	137	96	3
NMSI_	137	96	3	96	48	0
NMSTR	137	96	4
NMSI_	137	96	4	96	48	7
NMTTP	137	192	3	B	0	M1
NMTTP	137	192	3	E	0	M1
NMTTP	137	192	4	B	0	M1
NMTTP	137	192	5	E	0	M1

T_REC_TAP	368
T_REC_BRK	19
T_REC_XTP	28
T_REC_BXX	11
T_REC_HLD	64
T_REC_XHO	1
T_REC_BHO	0
T_REC_BXH	0
T_REC_STR	114
T_REC_BST	5
T_REC_XST	1
T_REC_XBS	0
T_REC_TTP	39
T_REC_THO	3
T_REC_SLD	127
T_REC_BSL	2
T_REC_ALL	782
T_NUM_TAP	550
T_NUM_BRK	37
T_NUM_HLD	68
T_NUM_SLD	127
T_NUM_ALL	782
T_JUDGE_TAP	585
T_JUDGE_HLD	204
T_JUDGE_SLD	129
T_JUDGE_ALL	918
TTM_EACHPAIRS	129
TTM_SCR_TAP	275000
TTM_SCR_BRK	96200
TTM_SCR_HLD	68000
TTM_SCR_SLD	190500
TTM_SCR_ALL	629700
TTM_SCR_S	607250
TTM_SCR_SS	626000
TTM_RAT_ACV	10059

