VERSION	0.00.00	1.04.00
FES_MODE	0
BPM_DEF	225.000	225.000	225.000	225.000
MET_DEF	4	4
RESOLUTION	384
CLK_DEF	384
COMPATIBLE_CODE	MA2

BPM	0	0	225.000
MET	0	0	4	4

NMHLD	2	0	2	576
NMTAP	2	192	3
NMTAP	3	0	1
NMTAP	3	192	3
NMHLD	4	0	5	576
NMTAP	4	192	4
NMTAP	5	0	6
NMTAP	5	192	4
NMHLD	6	0	2	576
NMTAP	6	192	3
NMTAP	7	0	1
NMTAP	7	192	4
NMTAP	8	0	5
NMTAP	8	96	5
NMTAP	8	192	4
NMTAP	8	288	4
NMSTR	9	0	6
NMSI_	9	0	6	96	96	2
NMTAP	10	0	1
NMTAP	10	96	1
NMTAP	10	192	0
NMTAP	10	288	0
NMHLD	11	0	2	96
NMHLD	11	0	3	96
NMHLD	11	192	2	96
NMHLD	11	192	3	96
NMTAP	12	0	5
NMTAP	12	96	5
NMTAP	12	192	4
NMTAP	12	288	4
NMHLD	13	0	6	96
NMHLD	13	0	7	96
NMHLD	13	192	6	96
NMHLD	13	192	7	96
NMHLD	14	0	1	192
NMTAP	14	96	0
NMTAP	14	192	0
NMHLD	15	0	6	192
NMTAP	15	96	7
NMTAP	15	192	7
NMTAP	16	0	5
NMTAP	16	96	4
NMTAP	16	192	2
NMTAP	16	192	3
EXTAP	17	0	0
EXTAP	17	0	1
EXTAP	17	96	0
EXTAP	17	96	1
EXTAP	17	192	2
EXTAP	17	192	7
NMTAP	18	0	6
NMTAP	18	96	6
NMTAP	18	192	7
NMTAP	18	288	7
NMHLD	19	0	4	96
NMHLD	19	0	5	96
NMHLD	19	192	4	96
NMHLD	19	192	5	96
NMTAP	20	0	2
NMTAP	20	96	2
NMTAP	20	192	3
NMTAP	20	288	3
NMHLD	21	0	0	96
NMHLD	21	0	1	96
NMHLD	21	192	0	96
NMHLD	21	192	1	96
NMHLD	22	0	6	192
NMTAP	22	96	7
NMTAP	22	192	7
NMHLD	23	0	1	192
NMTAP	23	96	0
NMTAP	23	192	0
NMTAP	24	0	3
NMTAP	24	0	4
NMTAP	24	96	3
NMTAP	24	96	4
NMTAP	24	192	2
NMTAP	24	192	5
NMSTR	25	0	0
NMSI_	25	0	0	96	96	3
NMSTR	25	0	7
NMSI_	25	0	7	96	96	4
NMHLD	26	0	1	192
NMHLD	26	192	2	192
NMTAP	27	0	3
NMTAP	27	96	3
NMTAP	27	192	2
NMTAP	27	192	4
NMHLD	28	0	6	192
NMHLD	28	192	5	192
NMTAP	29	0	4
NMTAP	29	96	4
NMTAP	29	192	3
NMTAP	29	192	5
NMHLD	30	0	1	192
NMTAP	30	192	3
NMTAP	31	0	2
NMTAP	31	0	4
NMTAP	31	96	3
NMTAP	31	192	4
NMTAP	31	192	5
NMHLD	32	0	6	192
NMTAP	32	192	4
NMTAP	33	0	3
NMTAP	33	0	5
NMTAP	33	96	2
NMTAP	33	96	6
NMTAP	33	192	1
NMTAP	33	192	7
NMHLD	34	0	2	192
NMTAP	34	192	0
NMTAP	34	288	0
NMTAP	35	0	1
NMTAP	35	192	6
NMTAP	35	192	7
NMHLD	36	0	5	192
NMTAP	36	192	7
NMTAP	36	288	7
NMTAP	37	0	6
NMTAP	37	192	0
NMTAP	37	192	1
NMHLD	38	0	2	192
NMTAP	38	192	4
NMTAP	38	288	4
NMSTR	39	0	1
NMSI_	39	0	1	96	96	5
EXTAP	39	192	6
NMSTR	40	0	7
NMSI_	40	0	7	96	96	3
EXTAP	40	192	2
EXTAP	41	0	0
EXTAP	41	96	0
BRTAP	41	192	1
BRTAP	41	192	7
NMSTR	42	0	5
NMSCR	42	0	5	96	1248	2
NMTAP	46	0	3
NMTAP	46	0	4
NMHLD	46	192	5	192
NMHLD	47	0	4	192
NMHLD	47	192	3	192
NMSTR	48	0	2
NMSUL	48	0	2	96	480	5
NMHLD	50	0	6	576
NMSTR	50	192	4
NMSI_	50	192	4	96	288	7
NMHLD	52	0	1	576
NMSTR	52	192	3
NMSI_	52	192	3	96	288	0
NMHLD	54	0	6	576
NMSTR	54	192	7
NMSI_	54	192	7	96	288	4
NMTAP	56	0	3
NMTAP	56	0	5
NMTAP	56	192	2
NMTAP	56	192	4
NMTAP	57	0	3
NMTAP	57	0	5
NMTAP	57	96	3
NMTAP	57	96	5
BRTAP	57	192	0
BRTAP	57	192	7
NMTAP	58	0	1
NMTAP	58	48	1
NMTAP	58	96	0
NMTAP	58	192	2
NMTAP	58	192	3
NMTAP	58	288	4
NMSTR	59	0	5
NMSI_	59	0	5	96	48	1
NMSTR	59	192	2
NMSI_	59	192	2	96	48	6
NMTAP	60	0	5
NMTAP	60	48	5
NMTAP	60	96	4
NMTAP	60	192	6
NMTAP	60	192	7
NMTAP	60	288	0
NMSTR	61	0	1
NMSI_	61	0	1	96	48	5
NMSTR	61	192	7
NMSI_	61	192	7	96	48	3
NMTAP	62	0	2
NMTAP	62	96	2
NMTAP	62	192	0
NMTAP	62	192	1
NMTAP	62	288	6
NMTAP	62	288	7
NMTAP	63	0	5
NMTAP	63	96	5
NMTAP	63	192	6
NMTAP	63	192	7
NMTAP	63	288	0
NMTAP	63	288	1
NMTAP	64	0	2
NMTAP	64	96	3
NMTAP	64	192	4
NMTAP	64	288	5
EXTAP	65	0	6
EXTAP	65	0	7
EXTAP	65	96	6
EXTAP	65	96	7
EXTAP	65	192	0
EXTAP	65	192	5
NMTAP	66	0	6
NMTAP	66	48	6
NMTAP	66	96	7
NMTAP	66	192	4
NMTAP	66	192	5
NMTAP	66	288	3
NMSTR	67	0	2
NMSI_	67	0	2	96	48	6
NMSTR	67	192	5
NMSI_	67	192	5	96	48	1
NMTAP	68	0	2
NMTAP	68	48	2
NMTAP	68	96	3
NMTAP	68	192	0
NMTAP	68	192	1
NMTAP	68	288	7
NMSTR	69	0	6
NMSI_	69	0	6	96	48	2
NMSTR	69	192	0
NMSI_	69	192	0	96	48	4
NMTAP	70	0	5
NMTAP	70	96	5
NMTAP	70	192	6
NMTAP	70	192	7
NMTAP	70	288	0
NMTAP	70	288	1
NMTAP	71	0	2
NMTAP	71	96	2
NMTAP	71	192	0
NMTAP	71	192	1
NMTAP	71	288	6
NMTAP	71	288	7
NMTAP	72	0	5
NMTAP	72	96	4
NMTAP	72	192	3
NMTAP	72	288	2
BXTAP	73	0	0
BXTAP	73	0	1
BXSTR	73	96	0
NMSI_	73	96	0	96	48	5
BXSTR	73	96	1
NMSI_	73	96	1	96	48	4
EXTAP	74	0	3
EXTAP	74	0	6
EXTAP	74	96	5
EXHLD	74	144	5	96
EXTAP	74	240	4
EXTAP	74	288	4
NMHLD	75	0	6	192
NMTAP	75	96	4
NMTAP	75	192	3
NMSTR	76	0	1
NMSI_	76	0	1	96	96	4
NMHLD	76	0	5	192
NMHLD	77	0	2	192
NMSTR	77	0	6
NMSI_	77	0	6	96	96	3
EXTAP	78	0	1
EXTAP	78	0	4
EXTAP	78	96	2
EXHLD	78	144	2	96
EXTAP	78	240	3
EXTAP	78	288	3
NMHLD	79	0	1	192
NMTAP	79	96	3
NMTAP	79	192	4
EXTAP	80	0	2
EXTAP	80	0	6
NMTAP	80	96	3
NMTAP	80	96	5
EXTAP	80	192	2
EXTAP	80	192	6
NMSTR	81	0	1
NMSCR	81	0	1	96	144	5
NMHLD	81	0	7	192
NMTAP	82	0	6
NMTAP	82	96	6
NMTAP	82	96	7
NMHLD	82	192	5	384
NMTAP	83	0	4
NMTAP	83	192	7
NMTAP	84	0	1
NMTAP	84	96	0
NMTAP	84	96	1
NMHLD	84	192	2	384
NMTAP	85	0	3
NMTAP	85	192	0
NMTAP	86	0	6
NMTAP	86	96	6
NMTAP	86	96	7
NMHLD	86	192	5	384
NMTAP	87	0	4
NMTAP	87	96	4
NMTAP	87	192	3
NMTAP	88	0	1
NMTAP	88	0	6
NMSTR	88	96	1
NMSCR	88	96	1	96	96	3
NMSTR	88	96	6
NMSCL	88	96	6	96	96	4
BRHLD	89	0	1	192
BRHLD	89	0	6	192
NMTHO	90	0	0	1536	C	0	M1
NMTTP	94	192	5	B	0	M1
NMTTP	94	192	6	B	0	M1
NMTTP	94	192	6	E	0	M1
NMTTP	95	0	3	B	0	M1
NMTTP	95	0	4	B	0	M1
NMTTP	95	0	4	E	0	M1
NMTTP	95	192	1	B	0	M1
NMTTP	95	192	2	B	0	M1
NMTTP	95	192	2	E	0	M1
EXSTR	96	0	0
NMSCL	96	0	0	96	480	4
NMSCR	96	0	0	96	480	4
EXHLD	98	0	6	576
NMTTP	98	192	7	E	0	M1
NMTTP	99	0	5	B	0	M1
NMTTP	99	192	4	A	0	M1
EXHLD	100	0	1	576
NMTTP	100	192	1	E	0	M1
NMTTP	101	0	2	B	0	M1
NMTTP	101	192	3	A	0	M1
EXHLD	102	0	6	576
NMTTP	102	192	5	E	0	M1
NMTTP	103	0	6	B	0	M1
NMTTP	103	192	7	A	0	M1
NMTAP	104	0	0
NMTAP	104	0	5
NMTAP	104	192	2
NMTAP	104	192	7
NMTAP	105	0	0
NMTAP	105	0	7
NMTAP	105	96	0
NMTAP	105	96	7
BRTAP	105	192	1
BRTAP	105	192	6
NMTAP	106	0	1
NMTAP	106	48	1
NMTAP	106	96	0
NMTAP	106	192	2
NMTAP	106	192	7
NMTAP	106	288	3
NMTAP	106	288	6
NMSTR	107	0	5
NMSCL	107	0	5	96	48	2
NMSTR	107	192	1
NMSCL	107	192	1	96	48	6
NMTAP	108	0	5
NMTAP	108	48	5
NMTAP	108	96	4
NMTAP	108	192	3
NMTAP	108	192	6
NMTAP	108	288	2
NMTAP	108	288	7
NMSTR	109	0	1
NMSCR	109	0	1	96	48	4
NMSTR	109	192	5
NMSCR	109	192	5	96	48	0
NMHLD	110	0	2	96
NMHLD	110	96	1	96
NMHLD	110	192	0	96
NMHLD	110	288	7	96
NMTAP	111	0	6
NMTAP	111	192	4
NMTAP	111	192	5
NMTAP	111	288	4
NMTAP	111	288	5
NMTAP	112	0	2
NMTAP	112	0	3
NMTAP	112	96	2
NMTAP	112	96	3
NMSTR	112	192	0
NMSCL	112	192	0	96	96	5
NMSTR	112	192	1
NMSCR	112	192	1	96	96	4
NMTAP	113	192	2
NMTAP	113	192	5
NMTAP	114	0	6
NMTAP	114	48	6
NMTAP	114	96	7
NMTAP	114	192	0
NMTAP	114	192	5
NMTAP	114	288	1
NMTAP	114	288	4
NMSTR	115	0	2
NMSCR	115	0	2	96	48	5
NMSTR	115	192	6
NMSCR	115	192	6	96	48	1
NMTAP	116	0	2
NMTAP	116	48	2
NMTAP	116	96	3
NMTAP	116	192	1
NMTAP	116	192	4
NMTAP	116	288	0
NMTAP	116	288	5
NMSTR	117	0	6
NMSCL	117	0	6	96	48	3
NMSTR	117	192	2
NMSCL	117	192	2	96	48	7
EXSTR	118	0	6
NMSLL	118	0	6	96	144	2
EXTAP	119	0	1
EXTAP	119	0	3
NMTAP	119	96	1
NMTAP	119	96	3
NMTAP	119	192	4
NMTAP	119	192	6
NMTAP	119	288	4
NMTAP	119	288	6
NMTAP	120	0	0
NMTAP	120	0	7
NMTAP	120	96	0
NMTAP	120	96	7
NMTAP	120	192	2
NMTAP	120	192	3
NMTAP	120	288	2
NMTAP	120	288	3
NMTAP	121	0	4
NMTAP	121	0	5
NMTAP	121	96	4
NMTAP	121	96	5
BRTAP	121	192	0
BRTAP	121	192	7
EXTAP	122	0	2
NMTAP	122	96	3
NMTAP	122	96	4
NMHLD	122	192	5	192
NMTAP	123	0	7
NMTAP	123	48	7
NMTAP	123	96	6
NMTAP	123	192	0
NMTAP	123	240	0
NMTAP	123	288	7
EXTAP	124	0	0
EXSTR	124	0	1
NMSI_	124	0	1	96	48	3
NMTAP	124	192	4
NMTAP	125	0	1
NMTAP	125	48	1
NMTAP	125	96	0
NMTAP	125	192	6
NMTAP	125	240	6
NMTAP	125	288	7
EXTAP	126	0	5
NMTAP	126	96	3
NMTAP	126	96	4
NMHLD	126	192	2	192
NMTAP	127	0	0
NMTAP	127	48	0
NMTAP	127	96	1
NMTAP	127	192	7
NMTAP	127	240	7
NMTAP	127	288	0
EXSTR	128	0	1
NMSI_	128	0	1	96	48	4
EXTAP	128	0	4
EXSTR	128	192	6
NMSI_	128	192	6	96	48	3
EXSTR	129	0	0
NMSF_	129	0	0	96	96	4
EXHLD	130	0	6	672
NMTAP	130	96	4
NMTAP	130	288	4
NMTAP	131	96	4
NMTAP	131	288	4
EXHLD	132	0	2	672
NMTAP	132	96	4
NMTAP	132	288	4
NMTAP	133	96	4
NMTAP	133	288	4
EXHLD	134	0	5	672
NMTAP	134	96	4
NMTAP	134	288	4
NMTAP	135	96	4
NMTAP	135	288	4
EXHLD	136	0	3	288
NMTAP	136	96	4
NMTAP	136	288	4
NMTAP	137	0	2
NMTAP	137	0	5
NMTAP	137	96	2
NMSTR	137	96	5
NMSI_	137	96	5	96	48	2

T_REC_TAP	275
T_REC_BRK	8
T_REC_XTP	36
T_REC_BXX	2
T_REC_HLD	52
T_REC_XHO	9
T_REC_BHO	2
T_REC_BXH	0
T_REC_STR	34
T_REC_BST	0
T_REC_XST	6
T_REC_XBS	2
T_REC_TTP	18
T_REC_THO	1
T_REC_SLD	43
T_REC_BSL	0
T_REC_ALL	488
T_NUM_TAP	369
T_NUM_BRK	14
T_NUM_HLD	62
T_NUM_SLD	43
T_NUM_ALL	488
T_JUDGE_TAP	381
T_JUDGE_HLD	356
T_JUDGE_SLD	43
T_JUDGE_ALL	780
TTM_EACHPAIRS	99
TTM_SCR_TAP	184500
TTM_SCR_BRK	36400
TTM_SCR_HLD	62000
TTM_SCR_SLD	64500
TTM_SCR_ALL	347400
TTM_SCR_S	335650
TTM_SCR_SS	346000
TTM_RAT_ACV	10040

