VERSION	0.00.00	1.04.00
FES_MODE	0
BPM_DEF	155.000	155.000	182.000	155.000
MET_DEF	4	4
RESOLUTION	384
CLK_DEF	384
COMPATIBLE_CODE	MA2

BPM	0	0	155.000
BPM	67	0	182.000
BPM	67	192	155.000
MET	0	0	4	4
MET	84	0	8	1
MET	84	48	4	4

NMTTP	1	240	4	E	0	M1
NMTTP	1	288	3	E	0	M1
NMTTP	1	288	5	E	1	M1
NMTAP	2	0	0
NMTAP	2	24	0
NMTAP	2	72	1
NMTAP	2	72	7
NMTAP	2	120	2
NMTAP	2	120	6
NMTAP	2	168	5
NMTAP	2	192	3
NMTAP	2	240	2
NMTAP	2	240	4
NMTAP	2	288	1
NMTAP	2	288	5
NMTAP	2	336	0
NMTAP	2	336	6
NMSTR	3	0	7
NMSF_	3	0	7	96	48	3
BRTAP	3	192	1
BRTAP	3	192	5
EXTAP	4	0	2
EXTAP	4	0	7
EXTAP	4	48	0
EXTAP	4	48	5
EXTAP	4	96	2
EXTAP	4	96	7
EXTAP	4	144	0
EXTAP	4	144	5
EXTAP	4	192	2
EXTAP	4	192	7
EXTAP	4	240	0
EXTAP	4	240	5
EXTAP	4	288	2
EXTAP	4	288	7
EXTAP	4	336	0
EXTAP	4	336	5
EXTAP	5	0	1
EXTAP	5	0	7
EXTAP	5	48	0
EXTAP	5	48	6
EXTAP	5	96	1
EXTAP	5	96	7
EXTAP	5	144	0
EXTAP	5	144	6
EXTAP	5	192	1
EXTAP	5	192	7
EXTAP	5	240	0
EXTAP	5	240	6
EXTAP	5	288	1
EXTAP	5	288	7
EXTAP	5	336	0
EXTAP	5	336	6
EXTAP	6	0	2
EXTAP	6	0	7
EXTAP	6	48	0
EXTAP	6	48	5
EXTAP	6	96	2
EXTAP	6	96	7
EXTAP	6	144	0
EXTAP	6	144	5
EXTAP	6	192	2
EXTAP	6	192	7
EXTAP	6	240	0
EXTAP	6	240	5
EXTAP	6	288	2
EXTAP	6	288	7
EXTAP	6	336	0
EXTAP	6	336	5
NMSTR	7	0	1
NMSI_	7	0	1	96	48	4
NMSTR	7	96	6
NMSCR	7	96	6	96	48	1
NMSTR	7	192	3
NMSI_	7	192	3	96	48	0
BRTAP	7	288	7
NMTAP	8	0	0
NMTAP	8	0	5
NMTAP	8	48	2
NMTAP	8	48	7
NMTAP	8	96	0
NMTAP	8	96	5
NMTAP	8	144	2
NMTAP	8	144	7
NMTAP	8	192	0
NMTAP	8	192	5
NMTAP	8	240	2
NMTAP	8	240	7
NMTAP	8	288	0
NMTAP	8	288	5
NMTAP	8	336	2
NMTAP	8	336	7
NMTAP	9	0	0
NMTAP	9	0	6
NMTAP	9	48	1
NMTAP	9	48	7
NMTAP	9	96	0
NMTAP	9	96	6
NMTAP	9	144	1
NMTAP	9	144	7
NMTAP	9	192	0
NMTAP	9	192	6
NMTAP	9	240	1
NMTAP	9	240	7
NMTAP	9	288	0
NMTAP	9	288	6
NMTAP	9	336	1
NMTAP	9	336	7
NMTAP	10	0	0
NMTAP	10	0	5
NMTAP	10	48	2
NMTAP	10	48	7
NMTAP	10	96	0
NMTAP	10	96	5
NMTAP	10	144	2
NMTAP	10	144	7
NMTAP	10	192	0
NMTAP	10	192	5
NMTAP	10	240	2
NMTAP	10	240	7
NMSTR	10	288	0
NMSI_	10	288	0	96	48	4
NMTAP	10	288	5
EXTAP	11	0	0
BRTAP	11	96	6
NMTAP	11	192	0
NMTAP	11	216	7
NMTAP	11	240	0
NMTAP	11	264	7
NMSTR	11	288	0
NMSUR	11	288	0	96	48	4
NMTAP	12	0	0
NMTAP	12	0	4
NMTAP	12	96	5
NMTAP	12	144	5
NMTAP	12	168	4
NMTAP	12	216	2
NMTAP	12	264	2
NMTAP	12	288	3
NMHLD	12	336	2	96
NMHLD	12	336	4	96
NMTAP	13	96	1
NMTAP	13	144	1
NMTAP	13	168	3
NMTAP	13	216	3
NMTAP	13	240	4
NMTAP	13	288	4
NMHLD	13	336	3	96
NMHLD	13	336	5	96
NMTAP	14	96	2
NMTAP	14	144	2
NMTAP	14	168	3
NMTAP	14	216	1
NMSTR	14	240	0
NMSI_	14	240	0	96	48	4
NMTAP	14	288	0
NMSTR	14	336	0
NMSI_	14	336	0	96	48	3
NMSTR	15	48	0
NMSI_	15	48	0	96	48	5
NMSTR	15	144	0
NMSI_	15	144	0	96	48	4
NMSTR	15	240	0
NMSXL	15	240	0	96	48	2
NMSXR	15	240	0	96	48	6
NMTAP	16	96	6
NMTAP	16	144	6
NMTAP	16	168	4
NMTAP	16	216	4
NMTAP	16	240	3
NMTAP	16	288	3
NMHLD	16	336	2	96
NMHLD	16	336	4	96
NMTAP	17	96	1
NMTAP	17	144	1
NMTAP	17	168	3
NMTAP	17	216	3
NMTAP	17	240	4
NMTAP	17	288	4
NMHLD	17	336	3	96
NMHLD	17	336	5	96
NMTAP	18	96	2
NMTAP	18	144	2
NMTAP	18	168	3
NMTAP	18	216	1
NMSTR	18	240	0
NMSCR	18	240	0	96	48	4
NMTAP	18	288	2
NMTAP	18	288	7
NMTTP	18	336	0	E	1	M1
NMTTP	19	96	4	A	0	M1
NMTTP	19	112	4	D	0	M1
NMTTP	19	128	3	A	0	M1
NMTTP	19	144	3	D	0	M1
NMTTP	19	160	2	A	0	M1
NMTTP	19	176	2	D	0	M1
EXSTR	19	192	5
NMSI_	19	192	5	96	48	2
BRTAP	19	288	5
NMTTP	20	0	3	A	0	M1
NMTTP	20	0	4	E	1	M1
NMTTP	20	0	4	A	0	M1
NMTTP	20	0	4	D	0	M1
NMTTP	20	96	2	E	1	M1
NMSTR	20	192	3
NMSCL	20	192	3	96	24	2
NMSTR	20	192	4
NMSCR	20	192	4	96	24	5
NMTAP	20	240	2
NMTAP	20	240	5
EXTAP	20	288	3
EXTAP	20	288	4
CNSI_	20	312	2	0	24	0
CNSI_	20	312	5	0	24	7
NMSTR	21	0	0
NMSCR	21	0	0	96	48	3
NMSTR	21	0	7
NMSCL	21	0	7	96	48	4
EXTAP	21	96	0
EXTAP	21	96	7
NMSTR	21	192	1
NMSV_	21	192	1	96	48	6
NMTAP	21	192	6
NMTAP	21	240	5
NMTTP	21	288	0	E	0	M1
EXTAP	21	288	1
NMSTR	22	0	4
NMSXR	22	0	4	96	48	2
NMTAP	22	0	7
EXTAP	22	96	4
NMSTR	22	192	6
NMSLL	22	192	6	96	96	1
NMSTR	22	288	1
NMSLR	22	288	1	96	96	6
EXTAP	22	288	6
EXTAP	23	0	0
NMTTP	23	96	1	E	1	M1
NMTAP	23	192	7
NMTAP	23	264	0
NMTAP	23	264	6
NMTAP	23	336	1
NMTAP	23	336	5
NMHLD	24	0	1	96
NMHLD	24	0	5	96
NMHLD	24	144	2	96
NMHLD	24	144	6	96
NMTAP	24	336	3
NMTAP	24	336	5
NMTAP	25	48	5
NMTAP	25	48	7
NMTAP	25	144	0
NMTAP	25	144	7
NMSTR	25	240	0
NMSI_	25	240	0	96	48	3
NMSI_	25	240	0	96	48	5
NMTAP	25	240	2
NMSTR	26	48	4
NMSI_	26	48	4	96	48	2
NMSI_	26	48	4	96	48	6
NMTAP	26	96	4
NMSTR	26	240	7
NMSCL	26	240	7	96	48	4
NMSCR	26	240	7	96	48	2
NMTAP	26	288	7
NMSTR	27	48	3
NMSXL	27	48	3	96	192	7
NMSXR	27	48	3	96	192	7
NMTAP	27	96	3
NMTTP	28	0	1	B	0	M1
NMTTP	28	0	1	A	0	M1
NMTTP	28	0	2	E	0	M1
NMTTP	28	0	5	B	0	M1
NMTTP	28	0	5	E	1	M1
NMTTP	28	0	5	A	0	M1
NMTAP	28	192	2
NMTAP	28	192	4
NMSTR	28	240	2
NMSCL	28	240	2	96	96	4
NMTAP	28	240	4
NMTTP	28	336	4	E	1	M1
NMSTR	29	96	6
NMSI_	29	96	6	96	48	0
NMTAP	29	144	4
NMTAP	29	192	3
NMSTR	29	288	2
NMSI_	29	288	2	96	48	7
NMTAP	29	336	3
NMSTR	30	0	4
NMSI_	30	0	4	96	48	7
NMTAP	30	96	1
NMSTR	30	144	0
NMSI_	30	144	0	96	48	3
NMSTR	30	240	5
NMSCR	30	240	5	96	96	3
NMTAP	30	336	3
NMSTR	31	96	1
NMSI_	31	96	1	96	48	4
NMTAP	31	144	0
NMTAP	31	192	7
NMSTR	31	288	6
NMSI_	31	288	6	96	48	3
NMSTR	31	336	3
NMSXL	31	336	3	96	144	7
EXSTR	32	288	0
NMSCR	32	288	0	96	96	4
EXSTR	33	0	4
NMSCR	33	0	4	96	96	0
EXTAP	33	96	0
EXTAP	33	192	4
NMSTR	33	288	6
NMSLL	33	288	6	96	96	2
NMSTR	34	0	2
NMSLL	34	0	2	96	96	6
NMTAP	34	96	6
NMTAP	34	192	2
NMSTR	34	288	0
NMSCR	34	288	0	96	48	2
NMSTR	35	0	6
NMSCL	35	0	6	96	48	4
CNSI_	35	48	2	0	48	6
NMTAP	35	96	0
CNSI_	35	144	4	0	48	0
NMTAP	35	192	6
NMTAP	35	288	4
NMTAP	35	288	7
NMTAP	35	336	4
NMTAP	35	336	7
NMSTR	36	48	5
NMSI_	36	48	5	96	48	1
NMSI_	36	48	5	96	48	2
NMTTP	36	144	5	A	1	M1
EXTAP	36	240	0
NMSTR	36	240	6
NMSXL	36	240	6	96	144	3
NMTAP	36	336	3
NMTAP	37	96	2
NMTAP	37	144	2
NMTAP	37	192	1
NMTAP	37	192	3
NMTAP	37	288	4
NMTAP	37	288	6
NMSTR	37	336	7
NMSCR	37	336	7	96	96	3
NMSTR	38	48	3
NMSCR	38	48	3	96	96	7
NMTAP	38	144	7
NMTAP	38	240	3
NMSTR	38	336	0
NMSLR	38	336	0	96	48	4
NMTAP	39	48	6
NMTAP	39	96	7
NMSTR	39	144	0
NMSLL	39	144	0	96	48	4
NMTAP	39	240	2
NMTAP	39	288	1
NMSTR	39	336	0
NMSLR	39	336	0	96	48	4
NMTAP	40	48	4
NMTAP	40	96	5
NMSTR	40	144	6
NMSI_	40	144	6	96	48	0
NMSTR	40	240	2
NMSI_	40	240	2	96	48	4
NMTAP	40	336	5
NMSTR	41	0	6
NMSI_	41	0	6	96	48	0
NMTAP	41	48	6
NMSTR	41	96	2
NMSI_	41	96	2	96	48	5
NMTAP	41	144	2
NMSTR	41	192	6
NMSI_	41	192	6	96	48	1
NMTAP	41	240	6
NMSTR	41	288	2
NMSCR	41	288	2	96	48	5
NMTAP	41	336	2
NMSTR	42	0	6
NMSCR	42	0	6	96	48	1
NMTAP	42	48	6
NMSTR	42	96	2
NMSCR	42	96	2	96	48	5
NMTAP	42	144	2
EXSTR	42	192	7
NMSXR	42	192	7	96	192	3
EXTAP	42	240	7
NMTAP	42	288	2
NMTAP	42	336	2
NMTAP	43	0	2
NMTAP	43	48	2
NMTAP	43	96	1
NMTAP	43	144	1
NMTAP	43	192	0
NMTAP	43	216	4
NMTAP	43	240	0
NMTAP	43	264	4
NMTAP	43	288	0
NMTAP	43	312	4
NMSTR	43	336	0
NMSI_	43	336	0	96	48	4
EXTAP	44	48	0
NMTAP	44	48	3
NMTAP	44	96	5
NMTAP	44	144	3
NMTAP	44	144	6
BRTAP	44	240	0
BRTAP	44	240	1
BRTAP	44	288	2
BRTAP	44	288	7
NMTAP	45	0	6
NMTAP	45	48	7
NMTAP	45	96	3
NMTAP	45	96	5
NMTAP	45	144	2
NMTAP	45	144	6
NMTAP	45	192	5
NMTAP	45	240	2
NMTAP	45	240	4
NMTAP	45	264	1
NMTAP	45	264	5
NMTAP	45	312	2
NMTAP	45	336	3
EXTAP	46	0	3
EXTAP	46	24	5
EXTAP	46	48	7
NMTAP	46	96	3
NMTAP	46	96	5
NMTAP	46	144	4
NMTAP	46	192	3
NMTAP	46	192	5
NMTAP	46	240	7
NMTTP	46	288	5	A	0	M1
NMTTP	46	304	5	D	0	M1
NMTTP	46	320	4	A	0	M1
NMTTP	46	336	4	D	0	M1
NMTTP	46	352	3	A	0	M1
NMTTP	46	368	3	D	0	M1
NMTTP	47	0	2	A	0	M1
EXTAP	47	48	0
EXTAP	47	48	6
EXTAP	47	96	7
NMTAP	47	120	6
NMTAP	47	144	5
NMTAP	47	168	4
NMTAP	47	192	0
NMTAP	47	192	3
NMTAP	47	240	5
NMTAP	47	264	5
NMTAP	47	312	1
NMTAP	47	312	7
NMTAP	47	336	1
NMTAP	47	336	7
NMSTR	48	0	5
NMSI_	48	0	5	96	48	2
BRTAP	48	96	5
NMTAP	48	192	4
NMTAP	48	204	5
NMTAP	48	216	6
NMTAP	48	228	7
NMTAP	48	240	0
NMTAP	48	252	1
NMTAP	48	264	2
NMTAP	48	276	3
BXSTR	48	288	4
NMSI_	48	288	4	96	1920	0
NMTTP	49	0	0	A	1	M1
NMTTP	49	48	1	D	1	M1
NMTTP	49	96	1	A	1	M1
NMTTP	49	144	2	D	1	M1
NMTTP	49	192	2	A	1	M1
NMTTP	49	240	3	D	1	M1
NMTTP	49	288	3	A	1	M1
NMTTP	49	336	4	D	1	M1
NMTTP	50	0	4	A	1	M1
NMTTP	50	48	5	D	1	M1
NMTTP	50	96	5	A	1	M1
NMTTP	50	144	6	D	1	M1
NMTTP	50	192	6	A	1	M1
NMTTP	50	240	7	D	1	M1
NMTTP	50	288	7	A	1	M1
NMTTP	50	336	7	B	1	M1
NMTTP	51	0	7	E	1	M1
NMTTP	51	48	6	B	1	M1
NMTTP	51	96	6	E	1	M1
NMTTP	51	144	5	B	1	M1
NMTTP	51	192	5	E	1	M1
NMTTP	51	240	4	B	1	M1
NMTTP	51	288	4	E	1	M1
NMTTP	51	336	3	B	1	M1
NMTTP	52	0	3	E	1	M1
NMTTP	52	48	2	B	1	M1
NMTTP	52	96	2	E	1	M1
NMTTP	52	144	1	B	1	M1
NMTTP	52	192	1	E	1	M1
NMTTP	52	240	1	A	1	M1
NMTTP	52	288	2	D	1	M1
NMTTP	52	336	2	A	1	M1
NMTTP	53	0	3	D	1	M1
NMTTP	53	48	3	A	1	M1
NMTTP	53	96	4	D	1	M1
NMTTP	53	144	4	A	1	M1
NMTTP	53	192	5	D	1	M1
NMTTP	53	240	5	A	1	M1
NMTTP	53	288	6	D	1	M1
NMTTP	53	336	6	A	1	M1
NMTTP	54	0	7	D	1	M1
NMTTP	54	48	7	A	1	M1
NMTTP	54	96	7	E	1	M1
NMTTP	54	144	6	B	1	M1
NMTTP	54	192	6	E	1	M1
NMTTP	54	240	5	B	1	M1
NMTTP	54	288	5	E	1	M1
NMTAP	55	0	0
NMTAP	55	32	0
NMTAP	55	64	0
NMTAP	55	96	1
NMTAP	55	96	7
NMTAP	55	128	1
NMTAP	55	128	7
NMTAP	55	160	1
NMTAP	55	160	7
NMTAP	55	192	2
NMTAP	55	192	6
NMTAP	55	264	1
NMTAP	55	264	3
NMTAP	55	336	4
NMTAP	55	336	6
EXSTR	56	0	6
NMSUL	56	0	6	96	48	2
EXSTR	56	0	7
NMSV_	56	0	7	96	48	2
BRTAP	56	96	6
BRTAP	56	96	7
BXHLD	56	192	1	48
BXHLD	56	192	3	48
BXHLD	56	264	3	48
BXHLD	56	264	5	48
BXTAP	56	336	2
BXTAP	56	336	6
BXSTR	57	0	2
NMSCR	57	0	2	96	48	4
BXSTR	57	0	6
NMSCR	57	0	6	96	48	0
NMTAP	57	96	2
NMTAP	57	96	6
NMSTR	57	192	7
NMSI_	57	192	7	96	12	3
NMSI_	57	192	7	96	24	3
NMTAP	57	240	0
NMTAP	57	240	6
NMTAP	57	288	7
CNSI_	57	300	3	0	36	5
CNSI_	57	312	3	0	24	1
EXSTR	58	0	3
NMSI_	58	0	3	96	48	7
BRTAP	58	96	3
NMTTP	58	96	7	E	0	M1
NMSTR	58	192	0
NMSI_	58	192	0	96	48	4
NMSTR	58	192	6
NMSI_	58	192	6	96	48	2
NMTAP	58	240	1
NMTAP	58	240	5
NMTAP	58	288	0
NMTAP	58	288	6
NMSTR	59	0	0
NMSV_	59	0	0	96	48	7
NMSTR	59	0	1
NMSV_	59	0	1	96	48	2
CNSI_	59	144	2	0	48	4
CNSI_	59	144	7	0	48	5
EXTAP	59	240	3
EXTAP	59	240	6
BXTAP	59	288	3
BXTAP	59	288	6
NMSTR	60	0	2
BRSI_	60	0	2	96	48	0
NMTTP	60	96	2	A	1	M1
NMTTP	60	96	3	A	0	M1
NMTTP	60	96	3	D	0	M1
NMTTP	60	96	4	A	0	M1
NMTTP	60	96	4	D	0	M1
NMTAP	60	192	3
NMTAP	60	192	6
EXTAP	60	240	5
EXTAP	60	264	4
EXSTR	60	288	5
NMSCR	60	288	5	96	192	2
BRTAP	61	0	3
NMTAP	61	96	4
NMTAP	61	144	4
NMSTR	61	240	5
NMSCR	61	240	5	96	192	2
BRTAP	61	336	3
NMTAP	62	48	4
NMTAP	62	144	5
NMSTR	62	240	6
BRSCR	62	240	6	96	48	1
BRTAP	62	336	3
NMSTR	63	48	6
BRSCR	63	48	6	96	48	1
BRTAP	63	144	4
NMSTR	63	240	6
BRSCR	63	240	6	96	48	1
BRTAP	63	336	3
NMSTR	64	48	6
BRSCR	64	48	6	96	48	1
NMHLD	64	144	4	912
NMSTR	64	144	6
NMSCL	64	144	6	96	240	2
CNSUL	65	96	2	0	192	6
CNSUL	65	288	6	0	192	2
CNSCL	66	96	2	0	192	6
NMTTP	68	0	0	B	0	M1
NMTTP	68	0	0	C	1	M1
NMTTP	68	0	1	B	0	M1
NMTTP	68	0	2	B	0	M1
NMTTP	68	0	2	E	0	M1
NMTTP	68	0	2	A	0	M1
NMTTP	68	0	3	B	0	M1
NMTTP	68	0	3	E	0	M1
NMTTP	68	0	3	A	0	M1
NMTTP	68	0	3	D	0	M1
NMTTP	68	0	4	B	0	M1
NMTTP	68	0	4	E	0	M1
NMTTP	68	0	4	A	0	M1
NMTTP	68	0	4	D	0	M1
NMTTP	68	0	5	B	0	M1
NMTTP	68	0	5	E	0	M1
NMTTP	68	0	5	A	0	M1
NMTTP	68	0	5	D	0	M1
NMTTP	68	0	6	B	0	M1
NMTTP	68	0	6	E	0	M1
NMTTP	68	0	7	B	0	M1
NMSTR	68	288	6
NMSI_	68	288	6	96	48	3
NMSTR	68	288	7
NMSI_	68	288	7	96	48	2
BRTAP	69	0	6
BRTAP	69	0	7
NMSTR	69	96	0
NMSI_	69	96	0	96	48	5
NMSTR	69	96	1
NMSI_	69	96	1	96	48	4
BRTAP	69	192	0
BRTAP	69	192	1
EXSTR	69	288	4
BRSXR	69	288	4	96	192	0
EXTAP	69	288	5
NMTAP	70	0	6
NMTAP	70	144	7
NMHLD	70	192	7	144
NMTAP	70	336	1
NMSTR	71	0	1
NMSI_	71	0	1	96	48	5
BRTAP	71	96	1
BRTAP	71	96	5
NMTAP	71	192	2
NMTAP	71	192	7
NMTAP	71	288	3
NMTAP	71	288	6
NMTAP	71	336	4
NMTAP	71	336	5
NMTAP	72	0	4
NMTAP	72	0	5
NMSTR	72	96	5
NMSCL	72	96	5	96	96	2
NMSTR	72	96	6
NMSUL	72	96	6	96	96	1
NMSTR	73	0	2
NMSI_	73	0	2	96	48	5
NMTAP	73	0	6
NMSTR	73	192	7
NMSXR	73	192	7	96	96	7
NMSTR	74	0	0
NMSCR	74	0	0	96	96	7
NMTAP	74	192	0
NMSTR	74	288	2
NMSI_	74	288	2	96	48	0
NMSTR	74	288	6
NMSI_	74	288	6	96	48	4
BRSTR	75	0	2
NMSV_	75	0	2	96	48	7
BRSTR	75	0	6
NMSV_	75	0	6	96	48	3
BRTAP	75	96	2
BRTAP	75	96	6
BRTAP	75	192	1
BRTAP	75	192	5
NMSTR	75	288	6
NMSCL	75	288	6	96	72	1
NMSTR	75	288	7
NMSUL	75	288	7	96	72	0
BRTAP	76	0	6
BRTAP	76	0	7
EXTAP	76	144	2
EXTAP	76	144	7
EXTAP	76	192	2
EXTAP	76	192	7
EXTAP	76	240	4
EXTAP	76	240	5
NMTAP	76	336	2
NMSTR	77	0	1
NMSI_	77	0	1	96	48	5
NMTAP	77	96	1
NMSTR	77	96	7
NMSI_	77	96	7	96	48	3
NMSTR	77	192	4
NMSI_	77	192	4	96	48	0
NMTAP	77	192	7
EXSTR	77	288	3
NMSCL	77	288	3	96	48	0
NMSUR	77	288	3	96	48	7
NMTAP	77	288	4
EXSTR	78	96	4
NMSCR	78	96	4	96	48	7
NMSUL	78	96	4	96	48	0
EXTAP	78	144	4
EXSTR	78	288	3
NMSCL	78	288	3	96	192	4
NMSUL	78	288	3	96	192	4
EXTAP	78	336	3
NMSTR	79	288	7
NMSI_	79	288	7	96	48	3
NMTAP	80	0	3
NMSTR	80	48	2
BRSI_	80	48	2	96	48	5
NMTAP	80	96	2
NMSTR	80	144	6
BRSI_	80	144	6	96	48	1
NMTAP	80	192	6
NMSTR	80	240	2
BRSI_	80	240	2	96	48	5
NMTAP	80	288	2
NMSTR	80	336	6
BRSCR	80	336	6	96	48	1
NMTAP	81	0	6
NMSTR	81	48	2
BRSCR	81	48	2	96	48	5
NMTAP	81	96	2
NMSTR	81	144	6
BRSI_	81	144	6	96	48	1
NMTAP	81	192	6
NMTAP	81	240	2
NMTAP	81	288	2
BXTAP	81	336	7
BXTAP	82	0	7
NMTAP	82	48	3
NMTAP	82	48	6
NMTAP	82	96	3
NMTAP	82	96	6
NMTAP	82	144	3
NMTAP	82	144	6
NMTAP	82	192	3
NMTAP	82	192	6
NMTAP	82	240	2
NMTAP	82	264	5
NMTAP	82	288	2
NMTAP	82	312	5
NMTAP	82	336	1
NMTAP	82	360	4
NMHLD	83	0	0	96
BRTAP	83	96	3
BRTAP	83	144	2
BRTAP	83	144	5
BRTAP	83	192	4
BRSTR	83	192	7
NMSI_	83	192	7	96	48	3
NMSTR	83	240	1
NMSI_	83	240	1	96	48	5
NMTAP	83	288	7
NMTAP	83	336	1
NMTAP	84	48	1
NMTAP	84	48	3
NMTAP	84	96	0
NMTAP	84	144	4
NMTAP	84	144	6
NMTAP	84	192	7
NMTAP	84	240	2
NMTAP	84	240	3
NMTAP	84	288	1
NMTAP	84	312	0
NMTAP	84	360	6
NMTAP	85	0	7
NMTAP	85	48	4
NMTAP	85	48	6
NMTAP	85	96	7
NMTAP	85	144	1
NMTAP	85	144	3
NMTAP	85	192	0
NMTAP	85	240	4
NMTAP	85	240	5
NMTAP	85	288	6
NMTAP	85	312	7
NMTAP	85	360	1
NMTAP	86	0	0
NMSTR	86	48	1
NMSI_	86	48	1	96	48	5
NMTAP	86	48	3
NMSTR	86	96	5
NMSI_	86	96	5	96	48	1
NMTAP	86	144	6
NMSTR	86	192	7
NMSI_	86	192	7	96	48	3
NMTAP	86	240	7
NMTAP	86	312	0
NMTAP	87	0	1
NMTAP	87	0	4
NMTAP	87	48	1
NMTAP	87	48	4
NMTAP	87	144	2
NMSTR	87	144	3
NMSI_	87	144	3	96	48	0
NMTAP	87	192	1
NMSTR	87	192	4
NMSI_	87	192	4	96	48	7
NMHLD	88	0	0	96
NMTAP	88	96	2
NMSTR	88	144	2
NMSV_	88	144	2	96	48	5
NMSTR	88	192	1
NMSCL	88	192	1	96	48	6
NMTAP	88	240	1
EXSTR	89	0	5
NMSI_	89	0	5	96	48	7
EXTAP	89	48	5
NMTAP	89	96	3
NMTAP	89	144	3
CNSI_	89	144	7	0	48	4
NMTAP	89	192	2
CNSI_	89	192	4	0	48	0
CNSI_	89	240	0	0	48	3
NMTAP	89	240	2
EXTAP	89	312	1
NMTAP	90	0	5
NMSTR	90	48	7
NMSUL	90	48	7	96	48	2
NMTAP	90	96	1
NMTAP	90	144	0
NMTAP	90	192	0
NMHLD	90	240	1	72
NMHLD	90	312	2	72
NMTAP	91	0	3
NMTAP	91	48	1
NMTAP	91	48	4
NMTTP	91	96	2	E	0	M1
NMTTP	91	104	1	E	0	M1
NMTTP	91	112	0	E	0	M1
NMTTP	91	120	7	E	0	M1
NMTTP	91	128	6	E	0	M1
NMTTP	91	136	5	E	0	M1
NMTTP	91	144	4	E	1	M1
NMTAP	91	240	1
NMTAP	91	264	3
NMTAP	91	288	2
NMTAP	91	312	4
NMTAP	91	336	3
NMTAP	91	360	5
NMTAP	92	0	4
NMTAP	92	48	4
NMTAP	92	48	6
NMTAP	92	96	7
NMTAP	92	144	1
NMTAP	92	144	3
NMTAP	92	192	0
NMTAP	92	240	4
NMTAP	92	240	5
NMTAP	92	288	6
NMTAP	92	312	7
NMTAP	92	360	1
NMTAP	93	0	0
NMTAP	93	48	1
NMTAP	93	48	3
NMTAP	93	96	0
NMTAP	93	144	4
NMTAP	93	144	6
NMTAP	93	192	7
NMTAP	93	240	2
NMTAP	93	240	3
NMTAP	93	288	1
NMTAP	93	312	0
NMTAP	93	360	6
NMTAP	94	0	7
NMTAP	94	48	4
NMSTR	94	48	6
NMSI_	94	48	6	96	48	2
NMSTR	94	96	2
NMSI_	94	96	2	96	48	6
NMTAP	94	144	1
NMSTR	94	192	0
NMSI_	94	192	0	96	48	4
NMTAP	94	240	0
NMTAP	94	312	7
EXTAP	95	0	4
EXTAP	95	0	6
EXSTR	95	48	4
NMSI_	95	48	4	96	48	7
EXTAP	95	48	6
NMSTR	95	144	3
NMSI_	95	144	3	96	48	0
NMTAP	95	144	4
NMSTR	95	240	1
NMSCL	95	240	1	96	48	6
NMTAP	95	240	3
NMTAP	95	336	5
NMTAP	96	0	5
EXTAP	96	48	6
EXTAP	96	48	7
NMTAP	96	96	0
NMTAP	96	96	5
NMSTR	96	144	1
NMSI_	96	144	1	96	48	5
NMTAP	96	144	4
NMTAP	96	192	2
NMTAP	96	192	3
NMTAP	96	240	4
CNSI_	96	288	5	0	48	2
NMTAP	96	312	6
NMTAP	97	0	7
NMTAP	97	48	7
NMTAP	97	96	3
NMTAP	97	96	5
NMSTR	97	144	3
BRSLR	97	144	3	96	96	0
NMSTR	97	144	5
BRSLL	97	144	5	96	96	0
NMTAP	97	192	2
NMTAP	97	192	6
EXTAP	98	0	1
EXTAP	98	0	7
EXTAP	98	48	1
EXTAP	98	48	7
NMTAP	98	96	2
NMTAP	98	96	6
NMTAP	98	144	2
NMTAP	98	144	6
NMTAP	98	192	3
NMTAP	98	192	5
NMTAP	98	240	3
NMTAP	98	240	5
NMTAP	98	288	6
NMTAP	98	312	4
NMTAP	98	360	1
NMTAP	99	0	3
NMSTR	99	48	0
NMSI_	99	48	0	96	48	3
NMSTR	99	48	4
NMSI_	99	48	4	96	48	7
BRTAP	99	144	0
BRSTR	99	144	4
NMSCL	99	144	4	96	96	5
NMSTR	100	48	5
NMSI_	100	48	5	96	48	7
NMTAP	100	120	4
NMTAP	100	144	5
NMTAP	100	192	2
NMSTR	100	240	6
NMSI_	100	240	6	96	48	0
NMTAP	100	312	1
NMTAP	100	336	6
NMTAP	101	0	3
NMSTR	101	48	7
NMSI_	101	48	7	96	48	1
NMTAP	101	120	0
NMTAP	101	144	7
NMTAP	101	192	4
NMSTR	101	240	0
NMSI_	101	240	0	96	48	2
NMTAP	101	312	3
NMTAP	101	336	0
NMTAP	102	0	4
NMSTR	102	48	1
NMSI_	102	48	1	96	48	3
NMTAP	102	120	7
NMTAP	102	144	1
NMTAP	102	192	5
NMSTR	102	240	2
NMSI_	102	240	2	96	48	4
NMTAP	102	312	4
NMTAP	102	336	2
NMTAP	103	0	7
NMSTR	103	48	3
NMSI_	103	48	3	96	48	5
NMTAP	103	120	4
NMTAP	103	144	3
NMTAP	103	192	6
NMSTR	103	240	4
NMSI_	103	240	4	96	48	6
NMTAP	103	312	2
NMTAP	103	336	4
NMTAP	104	0	1
BRSTR	104	48	5
NMSI_	104	48	5	96	48	7
NMTAP	104	120	4
NMTAP	104	144	5
NMTAP	104	192	0
BRSTR	104	240	6
NMSI_	104	240	6	96	48	0
NMTAP	104	312	3
NMTAP	104	336	6
NMTAP	105	0	4
BRSTR	105	48	7
NMSI_	105	48	7	96	48	1
NMTAP	105	120	0
NMTAP	105	144	7
NMTAP	105	192	4
BRSTR	105	240	0
NMSI_	105	240	0	96	48	2
NMTAP	105	312	3
NMTAP	105	336	0
NMTAP	106	0	4
BRSTR	106	48	1
NMSI_	106	48	1	96	48	5
BRTAP	106	120	0
BRTAP	106	120	1
BRSTR	106	192	6
NMSI_	106	192	6	96	48	2
BRTAP	106	264	6
BRTAP	106	264	7
BRTAP	106	336	0
BRTAP	107	0	0
NMTAP	107	48	0
NMTAP	107	72	7
NMTAP	107	96	0
NMTAP	107	120	7
NMTAP	107	144	0
NMTAP	107	156	1
NMTAP	107	168	2
NMTAP	107	180	3
NMTAP	107	192	4
NMTAP	107	204	5
NMTAP	107	216	6
NMTAP	107	228	7
NMTAP	107	240	0
NMTAP	107	264	4
NMTAP	107	288	0
NMTAP	107	312	4
NMSTR	107	336	1
BRSI_	107	336	1	96	48	6
NMTAP	107	360	5
NMTAP	108	0	2
NMTAP	108	24	6
BRTAP	108	48	1

T_REC_TAP	452
T_REC_BRK	42
T_REC_XTP	92
T_REC_BXX	6
T_REC_HLD	18
T_REC_XHO	0
T_REC_BHO	0
T_REC_BXH	4
T_REC_STR	118
T_REC_BST	10
T_REC_XST	14
T_REC_XBS	3
T_REC_TTP	113
T_REC_THO	0
T_REC_SLD	140
T_REC_BSL	15
T_REC_ALL	1027
T_NUM_TAP	789
T_NUM_BRK	80
T_NUM_HLD	18
T_NUM_SLD	140
T_NUM_ALL	1027
T_JUDGE_TAP	850
T_JUDGE_HLD	58
T_JUDGE_SLD	155
T_JUDGE_ALL	1063
TTM_EACHPAIRS	188
TTM_SCR_TAP	394500
TTM_SCR_BRK	208000
TTM_SCR_HLD	18000
TTM_SCR_SLD	210000
TTM_SCR_ALL	830500
TTM_SCR_S	797850
TTM_SCR_SS	822500
TTM_RAT_ACV	10097

