VERSION	0.00.00	1.04.00
FES_MODE	0
BPM_DEF	155.000	155.000	182.000	155.000
MET_DEF	4	4
RESOLUTION	384
CLK_DEF	384
COMPATIBLE_CODE	MA2

BPM	0	0	155.000
BPM	67	0	182.000
BPM	67	192	155.000
MET	0	0	4	4
MET	84	0	8	1
MET	84	48	4	4

BXTAP	2	0	1
BXSTR	2	0	6
BRSI_	2	0	6	96	192	2
EXTAP	3	0	0
EXTAP	3	0	1
NMHLD	3	96	2	96
NMHLD	3	96	7	96
BXTAP	4	0	1
NMTAP	4	48	1
NMTAP	4	96	0
NMTAP	4	192	2
NMTAP	4	192	7
NMTAP	4	288	2
NMTAP	4	288	7
NMTAP	5	0	6
NMTAP	5	48	6
NMTAP	5	96	7
NMTAP	5	192	0
NMTAP	5	192	5
NMTAP	5	288	0
NMTAP	5	288	5
NMTAP	6	0	1
NMTAP	6	48	1
NMTAP	6	96	0
NMTAP	6	192	2
NMTAP	6	192	7
NMTAP	6	288	2
NMTAP	6	288	7
NMTAP	7	0	1
NMTAP	7	0	6
NMSTR	7	96	0
NMSI_	7	96	0	96	96	4
NMTAP	7	96	5
NMTAP	8	0	6
NMTAP	8	48	6
NMTAP	8	96	4
NMTAP	8	192	3
NMTAP	8	192	5
NMTAP	8	288	2
NMTAP	8	288	4
NMTAP	9	0	1
NMTAP	9	48	1
NMTAP	9	96	3
NMTAP	9	192	2
NMTAP	9	192	4
NMTAP	9	288	3
NMTAP	9	288	5
NMSTR	10	0	5
NMSI_	10	0	5	96	96	0
NMSTR	10	192	1
NMSI_	10	192	1	96	96	4
BXTAP	11	0	7
NMTAP	11	96	7
EXTAP	11	192	0
EXTAP	11	192	6
NMHLD	12	0	2	576
NMHLD	12	0	4	192
NMTAP	12	288	4
NMHLD	13	0	3	480
NMTAP	13	288	2
NMHLD	14	0	1	96
NMTAP	14	192	1
NMTAP	14	192	3
EXTAP	14	288	2
EXTAP	14	336	2
EXTAP	15	48	2
EXTAP	15	48	3
EXTAP	15	144	3
EXTAP	15	144	4
EXTAP	15	240	4
EXTAP	15	240	5
EXHLD	15	336	3	240
EXHLD	15	336	6	624
NMTAP	16	288	3
NMHLD	17	0	4	384
NMTAP	17	288	6
NMHLD	18	0	5	288
NMHLD	18	192	2	96
NMTTP	18	336	0	C	1	M1
NMTTP	18	336	3	B	0	M1
NMTTP	18	336	4	B	0	M1
NMHLD	19	192	0	96
NMHLD	19	192	7	96
BRTAP	20	0	1
BRTAP	20	0	6
EXTAP	20	96	4
EXTAP	20	96	5
NMTAP	20	192	4
NMTAP	20	192	5
EXTAP	20	288	1
EXTAP	20	288	3
NMTAP	21	0	1
NMTAP	21	0	3
EXTAP	21	96	4
EXTAP	21	96	6
NMTAP	21	192	4
NMTAP	21	192	6
EXTAP	21	288	0
EXTAP	21	288	1
NMTAP	22	0	0
NMTAP	22	0	1
EXTAP	22	96	6
EXTAP	22	96	7
NMTAP	22	192	6
NMTAP	22	192	7
EXSTR	22	288	3
BRSI_	22	288	3	96	96	6
EXSTR	22	288	4
BRSI_	22	288	4	96	96	1
BXTAP	23	192	0
BXTAP	23	192	7
NMTTP	24	0	0	B	0	M1
NMTTP	24	0	0	E	0	M1
NMTTP	24	0	1	B	0	M1
NMTTP	24	0	1	E	0	M1
NMTTP	24	0	6	B	0	M1
NMTTP	24	0	7	B	0	M1
NMTTP	24	0	7	E	0	M1
NMTTP	24	336	2	B	0	M1
NMTTP	24	336	2	A	0	M1
NMTTP	24	336	3	B	0	M1
NMTTP	24	336	3	E	0	M1
NMTTP	24	336	3	A	0	M1
NMTTP	24	336	3	D	0	M1
NMTTP	25	144	4	B	0	M1
NMTTP	25	144	4	A	0	M1
NMTTP	25	144	5	B	0	M1
NMTTP	25	144	5	E	0	M1
NMTTP	25	144	5	A	0	M1
NMTTP	25	144	5	D	0	M1
NMTTP	25	336	0	B	0	M1
NMTTP	25	336	0	A	0	M1
NMTTP	25	336	1	B	0	M1
NMTTP	25	336	1	E	0	M1
NMTTP	25	336	1	A	0	M1
NMTTP	25	336	1	D	0	M1
NMTTP	26	144	6	B	0	M1
NMTTP	26	144	6	A	0	M1
NMTTP	26	144	7	B	0	M1
NMTTP	26	144	7	E	0	M1
NMTTP	26	144	7	A	0	M1
NMTTP	26	144	7	D	0	M1
NMTTP	26	336	3	B	0	M1
NMTTP	26	336	3	A	0	M1
NMTTP	26	336	4	B	0	M1
NMTTP	26	336	4	E	0	M1
NMTTP	26	336	4	A	0	M1
NMTTP	26	336	4	D	0	M1
NMTHO	27	144	0	240	C	1	M1
NMTTP	27	144	1	B	0	M1
NMTTP	27	144	2	B	0	M1
NMTTP	27	144	2	E	0	M1
NMTTP	27	144	5	B	0	M1
NMTTP	27	144	6	B	0	M1
NMTTP	27	144	6	E	0	M1
NMHLD	28	192	0	144
BXTAP	28	336	7
NMTAP	29	48	0
NMTAP	29	48	1
NMTAP	29	96	0
NMTAP	29	96	1
NMTAP	29	192	3
NMTAP	29	192	4
NMTAP	29	288	6
NMTAP	29	288	7
NMTAP	29	336	6
NMTAP	29	336	7
NMTAP	30	48	0
NMTAP	30	48	5
NMTAP	30	144	2
NMTAP	30	144	3
NMTAP	30	240	0
NMTAP	30	240	1
NMTAP	30	336	2
NMTAP	30	336	7
NMTAP	31	48	4
NMTAP	31	48	5
NMTAP	31	96	4
NMTAP	31	96	5
NMTAP	31	192	5
NMTAP	31	192	6
NMTAP	31	288	6
NMTAP	31	288	7
NMSTR	31	336	6
NMSCL	31	336	6	96	96	3
NMSTR	31	336	7
NMSCR	31	336	7	96	96	2
NMTAP	32	288	2
NMHLD	32	336	2	96
NMTAP	33	48	3
NMTAP	33	144	0
NMTAP	33	144	1
NMTAP	33	240	2
NMTAP	33	240	7
NMHLD	33	336	5	96
NMTAP	34	48	4
NMTAP	34	144	6
NMTAP	34	144	7
NMTAP	34	240	0
NMTAP	34	240	5
NMHLD	34	336	1	96
NMTAP	35	48	3
NMHLD	35	144	6	96
NMTAP	35	240	4
BXTAP	35	336	0
BXTAP	35	336	1
BXTAP	36	48	6
BXTAP	36	48	7
BXHLD	36	144	1	96
BXHLD	36	144	7	96
EXTAP	36	336	0
EXTAP	37	48	2
EXTAP	37	48	3
EXTAP	37	96	2
EXTAP	37	96	3
NMTAP	37	192	1
NMTAP	37	192	4
NMTAP	37	288	7
NMHLD	37	336	7	96
NMTAP	38	48	5
NMHLD	38	144	0	96
NMTAP	38	240	2
NMTAP	38	336	3
NMTAP	38	336	4
NMTAP	39	48	6
NMTAP	39	96	6
NMTAP	39	144	6
NMTAP	39	144	7
NMTAP	39	240	1
NMTAP	39	288	1
NMTAP	39	336	0
NMTAP	39	336	1
NMTAP	40	48	2
NMTAP	40	48	7
NMHLD	40	144	6	96
NMTAP	40	240	4
BRTAP	40	336	3
BRTAP	40	336	4
NMTAP	41	48	2
NMTAP	41	48	5
NMTAP	41	96	2
NMTAP	41	96	5
NMTAP	41	192	0
NMTAP	41	192	1
NMTAP	41	288	6
NMTAP	41	288	7
NMTAP	42	0	4
NMTAP	42	0	5
NMTAP	42	96	2
NMTAP	42	96	3
EXTAP	42	192	0
EXTAP	42	192	1
NMTAP	42	288	6
NMTAP	42	288	7
NMTAP	43	0	3
NMTAP	43	0	4
NMTAP	43	96	0
NMTAP	43	96	1
NMTAP	43	192	3
NMTAP	43	192	4
EXTAP	43	288	1
EXTAP	43	288	6
BXTAP	43	336	1
BXTAP	43	336	6
NMTAP	44	48	2
NMTAP	44	48	5
NMTAP	44	96	2
NMTAP	44	96	5
NMHLD	44	144	2	96
NMHLD	44	144	5	96
BXTAP	45	0	0
BXTAP	45	0	7
NMTAP	45	96	6
NMTAP	45	144	6
NMTAP	45	192	7
NMTAP	45	288	4
NMTAP	45	288	5
NMTAP	46	0	2
NMTAP	46	0	3
NMTAP	46	96	1
NMTAP	46	144	1
NMTAP	46	192	0
NMTAP	46	288	6
NMTAP	46	288	7
NMHLD	47	0	5	96
NMHLD	47	96	7	96
NMHLD	47	192	0	96
NMTAP	47	288	2
NMTAP	48	0	2
NMTAP	48	0	3
BRTAP	48	96	1
BRTAP	48	96	6
NMTAP	48	192	3
NMTAP	48	192	4
NMTAP	48	240	3
NMTAP	48	240	4
NMTAP	48	288	3
NMSTR	48	288	4
BRSI_	48	288	4	96	2640	0
EXHLD	49	0	3	192
EXHLD	50	0	3	192
EXHLD	51	0	2	192
EXHLD	52	0	2	192
EXHLD	53	0	1	192
EXHLD	54	0	1	192
EXTAP	55	0	1
EXHLD	55	192	1	288
BXTAP	56	96	0
EXTAP	56	192	0
EXTAP	56	192	1
EXTAP	56	264	2
EXTAP	56	264	7
EXTAP	56	336	3
EXHLD	56	336	6	144
BXTAP	57	96	4
NMTAP	57	192	0
NMTAP	57	192	1
BRTAP	57	288	3
BRTAP	57	288	5
NMTAP	58	0	6
NMTAP	58	0	7
BRTAP	58	96	2
BRTAP	58	96	4
NMTAP	58	192	0
NMTAP	58	192	1
BRTAP	58	288	3
BRTAP	58	288	5
NMTAP	59	0	0
NMTAP	59	0	7
BRTAP	59	96	2
BRTAP	59	96	3
NMTAP	59	192	0
NMTAP	59	192	7
BRTAP	59	288	4
BRTAP	59	288	6
NMTAP	60	0	3
NMHLD	60	0	5	96
BRTAP	60	96	0
EXTAP	60	192	0
EXHLD	60	192	6	192
EXSTR	61	0	1
NMSUR	61	0	1	96	192	4
EXTAP	61	288	5
EXSTR	61	336	5
NMSUL	61	336	5	96	240	2
EXTAP	62	288	1
EXSTR	62	336	1
NMSI_	62	336	1	96	96	4
EXSTR	63	144	5
NMSI_	63	144	5	96	96	0
EXSTR	63	336	2
NMSI_	63	336	2	96	96	5
BRSTR	64	144	7
NMSCL	64	144	7	96	432	0
NMTHO	65	288	0	384	C	0	M1
NMTTP	66	288	1	B	0	M1
NMTTP	66	288	6	B	0	M1
EXHLD	67	240	0	96
EXHLD	67	240	7	96
NMTTP	68	0	0	C	1	M1
NMTTP	68	0	2	B	0	M1
NMTTP	68	0	3	B	0	M1
NMTTP	68	0	4	B	0	M1
NMTTP	68	0	5	B	0	M1
EXTAP	68	240	0
EXTAP	68	240	1
BXTAP	68	288	0
BXTAP	68	288	1
BXTAP	69	0	2
BXTAP	69	0	7
BXTAP	69	96	3
BXTAP	69	96	6
BXTAP	69	192	4
BXTAP	69	192	5
BXTAP	69	288	3
BXTAP	69	288	4
NMHLD	70	0	2	144
NMHLD	70	0	3	144
NMTAP	70	192	2
NMTAP	70	192	3
NMTAP	70	240	2
NMTAP	70	240	3
NMTAP	70	336	0
NMSTR	71	0	0
NMSF_	71	0	0	96	144	4
NMHLD	72	0	4	96
NMHLD	72	0	6	96
NMTAP	72	192	3
NMTAP	72	192	7
NMTAP	72	288	4
NMTAP	72	288	6
NMHLD	73	0	2	96
NMHLD	73	96	3	96
NMTAP	73	192	2
NMSTR	73	288	4
NMSUL	73	288	4	96	96	0
NMSUR	73	288	4	96	96	0
EXTAP	74	192	1
EXTAP	74	192	7
EXTAP	74	288	1
EXTAP	74	288	7
BRTAP	75	0	2
BRTAP	75	0	6
BRTAP	75	96	1
BRTAP	75	96	5
BRTAP	75	192	3
BRTAP	75	192	7
NMHLD	75	288	1	96
EXTAP	76	0	0
NMTAP	76	96	2
NMTAP	76	96	3
NMTAP	76	144	2
NMTAP	76	144	3
NMTAP	76	240	4
NMTAP	76	240	5
NMTAP	76	336	6
NMHLD	77	0	6	96
NMHLD	77	96	7	96
NMHLD	77	192	0	96
NMHLD	77	288	1	96
NMTAP	78	0	2
NMTAP	78	96	3
NMTAP	78	144	3
NMTAP	78	192	2
NMTAP	78	192	4
NMTAP	78	288	5
NMTAP	78	336	5
NMTAP	79	0	4
NMTAP	79	0	6
NMTAP	79	96	2
NMTAP	79	144	2
NMTAP	79	192	1
NMTAP	79	192	3
NMTAP	79	288	2
NMTAP	79	288	4
NMHLD	80	0	1	96
NMHLD	80	0	7	96
NMTAP	80	144	1
NMTAP	80	144	7
NMTAP	80	240	0
NMTAP	80	240	6
NMTAP	80	336	0
NMTAP	80	336	6
NMTAP	81	48	0
NMTAP	81	48	1
NMTAP	81	144	0
NMTAP	81	144	7
BXHLD	81	240	6	96
NMTAP	81	336	7
NMTAP	82	48	0
NMTAP	82	96	0
NMTAP	82	144	7
NMTAP	82	192	7
NMTAP	82	240	0
NMTAP	82	240	7
EXTAP	82	288	0
EXTAP	82	288	7
BRTAP	83	0	1
BRTAP	83	0	6
NMTAP	83	96	3
NMTAP	83	96	4
NMTAP	83	144	3
NMTAP	83	144	4
NMTAP	83	192	3
NMTAP	83	192	4
NMTAP	83	288	1
NMSTR	83	336	1
NMSI_	83	336	1	96	48	3
BRSTR	84	48	0
NMSI_	84	48	0	96	48	4
NMSTR	84	144	1
NMSI_	84	144	1	96	48	3
NMSTR	84	240	0
NMSI_	84	240	0	96	48	4
NMSTR	84	336	1
NMSI_	84	336	1	96	48	3
NMSTR	85	48	0
NMSI_	85	48	0	96	48	6
NMSTR	85	144	1
NMSI_	85	144	1	96	48	5
NMSTR	85	240	0
NMSI_	85	240	0	96	48	6
NMSTR	85	336	1
NMSXL	85	336	1	96	192	5
EXTAP	86	48	0
BXTAP	86	240	7
NMTAP	86	336	4
NMTAP	86	336	6
NMSTR	87	48	3
NMSI_	87	48	3	96	48	0
NMSTR	87	48	4
NMSI_	87	48	4	96	48	7
BRTAP	87	240	1
BRTAP	87	240	6
EXTAP	88	0	3
EXSTR	88	48	3
NMSI_	88	48	3	96	48	7
NMTAP	88	144	5
NMTAP	88	240	0
NMTAP	88	240	6
NMTAP	88	336	5
NMTAP	89	0	4
NMSTR	89	48	5
NMSI_	89	48	5	96	48	0
NMTAP	89	144	2
NMTAP	89	240	1
NMTAP	89	240	7
NMTAP	89	336	2
NMTAP	90	0	3
NMSTR	90	48	2
NMSI_	90	48	2	96	48	4
NMSTR	90	144	6
NMSI_	90	144	6	96	48	2
NMSTR	90	240	1
NMSI_	90	240	1	96	48	5
NMSTR	90	336	7
BRSCL	90	336	7	96	144	2
BXTAP	91	48	4
BXTAP	91	240	0
NMSTR	91	336	1
BRSI_	91	336	1	96	48	3
NMTAP	91	336	7
BRSTR	92	48	0
BRSI_	92	48	0	96	48	4
NMSTR	92	144	1
BRSI_	92	144	1	96	48	3
NMSTR	92	240	0
BRSI_	92	240	0	96	48	4
NMSTR	92	336	1
BRSI_	92	336	1	96	48	3
NMSTR	93	48	0
BRSI_	93	48	0	96	48	6
NMSTR	93	144	1
BRSI_	93	144	1	96	48	5
NMSTR	93	240	0
BRSI_	93	240	0	96	48	6
NMSTR	93	336	1
BRSXL	93	336	1	96	192	5
EXTAP	94	48	0
BXTAP	94	240	7
NMTAP	94	336	4
NMTAP	94	336	6
NMSTR	95	48	3
NMSI_	95	48	3	96	48	7
NMSTR	95	48	4
NMSI_	95	48	4	96	48	0
BRTAP	95	240	1
BRTAP	95	240	6
EXTAP	96	0	6
EXSTR	96	48	6
NMSI_	96	48	6	96	48	3
NMSTR	96	144	2
NMSI_	96	144	2	96	48	7
NMTAP	96	240	4
NMTAP	96	336	0
NMTAP	96	336	6
NMSTR	97	48	1
NMSI_	97	48	1	96	48	4
NMSTR	97	144	5
NMSI_	97	144	5	96	48	0
NMTAP	97	240	3
EXTAP	97	336	1
EXTAP	97	336	7
NMTAP	98	48	1
NMTAP	98	96	1
NMTAP	98	144	3
NMTAP	98	240	5
NMTAP	98	288	5
NMTAP	98	336	3
EXTAP	99	48	2
EXTAP	99	48	4
BXSTR	99	144	1
NMSCR	99	144	1	96	96	4
BXSTR	99	144	5
NMSCR	99	144	5	96	96	0
BXTAP	100	48	7
NMTAP	100	144	2
NMTAP	100	192	2
NMTAP	100	240	1
NMTAP	100	240	3
NMTAP	100	336	0
NMHLD	100	336	7	96
NMHLD	101	48	5	96
NMHLD	101	144	3	96
NMHLD	101	240	1	96
NMTAP	101	336	0
NMTAP	102	48	6
NMTAP	102	48	7
NMTAP	102	144	5
NMTAP	102	192	5
NMTAP	102	240	4
NMTAP	102	240	6
NMHLD	102	336	0	96
NMTAP	102	336	7
NMHLD	103	48	2	96
NMHLD	103	144	4	96
NMHLD	103	240	6	96
NMTAP	103	336	7
BXHLD	104	48	0	72
BXHLD	104	48	1	72
NMTAP	104	192	0
NMTAP	104	192	7
NMHLD	104	240	6	72
NMHLD	104	240	7	72
NMTAP	105	0	0
NMTAP	105	0	5
NMHLD	105	48	1	72
NMHLD	105	48	4	72
NMTAP	105	192	2
NMTAP	105	192	3
NMSTR	105	240	2
NMSI_	105	240	2	96	48	7
NMSTR	105	240	3
NMSI_	105	240	3	96	48	7
BXTAP	106	48	0
NMTAP	106	120	0
NMTAP	106	120	6
NMTAP	106	192	0
NMTAP	106	192	1
NMTAP	106	264	1
NMTAP	106	264	3
NMTAP	106	336	5
NMTAP	107	0	5
NMTAP	107	48	4
NMTAP	107	48	5
NMTTP	107	144	0	C	1	M1
NMTTP	107	144	2	B	0	M1
NMTTP	107	144	6	B	0	M1
NMTAP	107	240	1
NMTAP	107	240	7
NMTAP	107	288	1
NMTAP	107	288	7
NMSTR	107	336	1
NMSI_	107	336	1	96	48	4
NMSTR	107	336	7
NMSI_	107	336	7	96	48	3

T_REC_TAP	281
T_REC_BRK	29
T_REC_XTP	57
T_REC_BXX	32
T_REC_HLD	50
T_REC_XHO	13
T_REC_BHO	0
T_REC_BXH	5
T_REC_STR	40
T_REC_BST	3
T_REC_XST	9
T_REC_XBS	3
T_REC_TTP	56
T_REC_THO	2
T_REC_SLD	42
T_REC_BSL	14
T_REC_ALL	636
T_NUM_TAP	443
T_NUM_BRK	86
T_NUM_HLD	65
T_NUM_SLD	42
T_NUM_ALL	636
T_JUDGE_TAP	510
T_JUDGE_HLD	215
T_JUDGE_SLD	56
T_JUDGE_ALL	781
TTM_EACHPAIRS	174
TTM_SCR_TAP	221500
TTM_SCR_BRK	223600
TTM_SCR_HLD	65000
TTM_SCR_SLD	63000
TTM_SCR_ALL	573100
TTM_SCR_S	547600
TTM_SCR_SS	564500
TTM_RAT_ACV	10152

