VERSION	0.00.00	1.04.00
FES_MODE	0
BPM_DEF	155.000	155.000	182.000	155.000
MET_DEF	4	4
RESOLUTION	384
CLK_DEF	384
COMPATIBLE_CODE	MA2

BPM	0	0	155.000
BPM	67	0	182.000
BPM	67	192	155.000
MET	0	0	4	4
MET	68	0	8	1
MET	68	48	4	4

BXTAP	4	0	2
NMTAP	4	96	2
NMTAP	4	192	2
NMTAP	5	0	1
NMTAP	5	96	1
NMTAP	5	192	1
NMTAP	6	0	0
NMTAP	6	96	0
NMTAP	6	192	0
NMTAP	7	0	6
NMTAP	7	0	7
NMTAP	7	192	6
NMTAP	7	192	7
NMTAP	8	0	5
NMTAP	8	96	5
NMTAP	8	192	5
NMTAP	9	0	6
NMTAP	9	96	6
NMTAP	9	192	6
NMTAP	10	0	7
NMTAP	10	96	7
NMTAP	10	192	7
NMTAP	11	0	0
NMTAP	11	0	1
NMTAP	11	192	0
NMTAP	11	192	1
NMSTR	12	0	1
NMSI_	12	0	1	96	192	4
NMSTR	13	0	5
NMSI_	13	0	5	96	192	2
NMSTR	14	0	1
NMSI_	14	0	1	96	192	5
NMTAP	15	0	6
NMTAP	15	192	6
NMTAP	15	192	7
NMSTR	16	0	6
NMSI_	16	0	6	96	192	3
NMSTR	17	0	1
NMSI_	17	0	1	96	192	5
NMSTR	18	0	7
NMSI_	18	0	7	96	192	3
NMTAP	19	192	3
NMTAP	19	192	4
NMTAP	20	0	2
NMTAP	20	96	2
NMTAP	20	192	2
NMTAP	20	192	3
NMTAP	21	0	1
NMTAP	21	96	1
NMTAP	21	192	0
NMTAP	21	192	1
NMTAP	22	0	7
NMTAP	22	96	7
NMTAP	22	192	6
NMTAP	22	192	7
NMTAP	23	0	4
NMTAP	23	0	5
NMTAP	23	96	4
NMTAP	23	96	5
NMTAP	23	192	4
NMTAP	23	192	5
NMTAP	24	0	5
NMTAP	24	96	5
NMTAP	24	192	4
NMTAP	24	192	5
NMTAP	25	0	6
NMTAP	25	96	6
NMTAP	25	192	6
NMTAP	25	192	7
NMTAP	26	0	0
NMTAP	26	96	0
NMTAP	26	192	0
NMTAP	26	192	1
NMTAP	27	0	2
NMTAP	27	0	3
NMTAP	27	96	2
NMTAP	27	96	3
NMTAP	27	192	2
NMTAP	27	192	3
NMTAP	28	192	3
NMTAP	28	288	3
NMTAP	29	0	2
NMTAP	29	96	2
NMTAP	29	192	1
NMTAP	29	288	1
NMTAP	30	0	0
NMTAP	30	96	0
NMTAP	30	192	6
NMTAP	30	192	7
NMTAP	31	0	5
NMTAP	31	96	5
NMTAP	31	192	6
NMTAP	31	288	6
NMTAP	32	0	7
NMTAP	32	96	7
NMTAP	32	192	0
NMTAP	32	192	1
NMTAP	33	0	1
NMTAP	33	96	1
NMTAP	33	192	2
NMTAP	33	288	2
NMTAP	34	0	3
NMTAP	34	96	3
NMTAP	34	192	4
NMTAP	34	192	5
NMTAP	35	0	6
NMTAP	35	96	6
NMTAP	35	192	5
NMTAP	35	288	5
NMTAP	36	0	4
NMTAP	36	96	4
NMTAP	36	192	2
NMTAP	36	192	3
NMTAP	37	0	2
NMTAP	37	96	2
NMTAP	37	192	1
NMTAP	37	288	1
NMTAP	38	0	0
NMTAP	38	96	0
NMTAP	38	192	6
NMTAP	38	192	7
NMTAP	39	0	5
NMTAP	39	96	5
NMTAP	39	192	6
NMTAP	39	288	6
NMTAP	40	0	7
NMTAP	40	96	7
NMTAP	40	192	0
NMTAP	40	192	1
NMTAP	41	0	1
NMTAP	41	96	1
NMTAP	41	192	2
NMTAP	41	288	2
NMTAP	42	0	3
NMTAP	42	96	3
NMTAP	42	192	4
NMTAP	42	192	5
NMTAP	43	0	6
NMTAP	43	96	6
NMTAP	43	192	5
NMTAP	43	288	5
NMTAP	44	0	4
NMTAP	44	96	4
NMTAP	44	192	2
NMTAP	44	192	3
NMTTP	45	0	1	B	0	L1
NMTTP	45	96	2	B	0	L1
NMTTP	45	192	3	B	0	L1
NMTTP	45	288	4	B	0	L1
NMTTP	46	0	5	B	0	L1
NMTTP	46	96	6	B	0	L1
NMTTP	46	192	0	C	0	L1
NMTTP	47	0	7	B	0	L1
NMTTP	47	96	6	B	0	L1
NMTTP	47	192	5	B	0	L1
NMTTP	47	288	4	B	0	L1
NMTTP	48	0	3	B	0	L1
NMTTP	48	96	2	B	0	L1
NMTTP	48	192	0	B	0	L1
NMTTP	48	192	1	B	0	L1
NMHLD	49	0	6	192
NMHLD	49	192	7	192
NMHLD	50	0	0	192
NMTAP	50	192	1
NMHLD	51	0	1	192
NMHLD	51	192	0	192
NMHLD	52	0	7	192
NMTAP	52	192	6
NMHLD	53	0	5	192
NMHLD	53	192	4	192
NMHLD	54	0	3	192
NMTAP	54	192	2
NMHLD	55	0	2	192
NMTAP	55	192	3
EXTAP	56	0	3
EXTAP	56	0	4
EXTAP	56	96	3
EXTAP	56	96	4
EXTAP	56	192	3
EXTAP	56	192	4
NMTAP	57	0	5
NMTAP	57	96	5
NMTAP	57	192	5
NMTAP	57	288	5
NMTAP	58	0	6
NMTAP	58	96	6
NMTAP	58	192	6
NMTAP	58	288	6
NMTAP	59	0	7
NMTAP	59	96	7
NMTAP	59	192	7
NMTAP	59	288	7
NMTAP	60	0	0
NMTAP	60	0	1
NMTAP	61	0	2
NMTAP	61	96	2
NMTAP	61	192	2
NMTAP	61	288	2
NMTAP	62	0	1
NMTAP	62	96	1
NMTAP	62	192	1
NMTAP	62	288	1
NMTAP	63	0	0
NMTAP	63	96	0
NMTAP	63	192	0
NMTAP	63	288	0
NMTAP	64	0	6
NMTAP	64	0	7
NMSTR	64	192	0
NMSXL	64	192	0	96	672	3
NMSTR	64	192	7
NMSXR	64	192	7	96	672	4
EXTAP	68	48	2
EXTAP	68	144	2
EXTAP	68	240	0
EXTAP	68	240	1
EXTAP	68	336	0
EXTAP	68	336	1
EXTAP	69	48	7
EXTAP	69	144	7
EXTAP	69	240	6
EXTAP	69	240	7
NMTAP	70	48	5
NMTAP	70	144	5
NMTAP	70	240	6
NMTAP	70	240	7
NMTAP	70	336	6
NMTAP	70	336	7
NMTAP	71	48	0
NMTAP	71	144	0
NMTAP	71	240	0
NMTAP	71	240	1
NMTAP	72	48	1
NMTAP	72	144	1
NMTAP	72	240	2
NMTAP	72	240	3
NMTAP	72	336	2
NMTAP	72	336	3
NMTAP	73	48	4
NMTAP	73	144	4
NMTAP	73	240	4
NMTAP	73	240	5
NMTAP	74	48	6
NMTAP	74	144	6
NMTAP	74	240	4
NMTAP	74	240	5
NMTAP	74	336	4
NMTAP	74	336	5
NMTAP	75	48	3
NMTAP	75	144	3
NMTAP	75	240	2
NMTAP	75	240	3
NMTAP	76	48	2
NMTAP	76	144	2
NMTAP	76	240	0
NMTAP	76	240	1
NMTAP	76	336	0
NMTAP	76	336	1
NMTAP	77	48	7
NMTAP	77	144	7
NMTAP	77	240	6
NMTAP	77	240	7
NMTAP	78	48	5
NMTAP	78	144	5
NMTAP	78	240	6
NMTAP	78	240	7
NMTAP	78	336	6
NMTAP	78	336	7
NMTAP	79	48	0
NMTAP	79	144	0
NMTAP	79	240	0
NMTAP	79	240	1
NMTAP	80	48	1
NMTAP	80	144	1
NMTAP	80	240	2
NMTAP	80	240	3
NMTAP	80	336	2
NMTAP	80	336	3
NMTAP	81	48	4
NMTAP	81	144	4
NMTAP	81	240	4
NMTAP	81	240	5
NMTAP	82	48	6
NMTAP	82	144	6
NMTAP	82	240	4
NMTAP	82	240	5
NMTAP	82	336	4
NMTAP	82	336	5
NMTAP	83	48	3
NMTAP	83	144	3
NMTAP	83	240	2
NMTAP	83	240	3
EXTAP	84	48	1
EXTAP	84	144	1
EXTAP	84	240	1
EXTAP	84	336	0
EXTAP	84	336	1
NMTAP	85	48	2
NMTAP	85	144	2
NMTAP	85	240	2
NMTAP	85	336	2
NMTAP	85	336	3
NMTAP	86	48	4
NMTAP	86	144	4
NMTAP	86	240	4
NMTAP	86	336	4
NMTAP	86	336	5
NMTAP	87	48	6
NMTAP	87	48	7
NMTAP	87	144	6
NMTAP	87	144	7
NMTAP	87	240	6
NMTAP	87	240	7
NMTAP	88	48	6
NMTAP	88	144	6
NMTAP	88	240	6
NMTAP	88	336	6
NMTAP	88	336	7
NMTAP	89	48	5
NMTAP	89	144	5
NMTAP	89	240	5
NMTAP	89	336	4
NMTAP	89	336	5
NMTAP	90	48	3
NMTAP	90	144	3
NMTAP	90	240	3
NMTAP	90	336	2
NMTAP	90	336	3
NMTAP	91	48	0
NMTAP	91	48	1
NMTAP	91	144	0
NMTAP	91	144	1
NMTAP	91	240	0
NMTAP	91	240	1
NMTAP	92	48	0
NMTAP	92	48	1
NMTAP	92	144	0
NMTAP	92	144	1
NMTAP	92	240	2
NMTAP	92	240	7
NMTAP	93	48	2
NMTAP	93	48	3
NMTAP	93	144	2
NMTAP	93	144	3
NMTAP	93	240	1
NMTAP	93	240	4
NMTAP	94	48	4
NMTAP	94	48	5
NMTAP	94	144	4
NMTAP	94	144	5
NMTAP	94	240	3
NMTAP	94	240	6
NMTAP	95	48	6
NMTAP	95	48	7
NMTAP	95	144	6
NMTAP	95	144	7
NMTAP	95	240	0
NMTAP	95	240	5
NMTAP	96	48	6
NMTAP	96	48	7
NMTAP	96	144	6
NMTAP	96	144	7
NMTAP	96	240	0
NMTAP	96	240	5
NMTAP	97	48	4
NMTAP	97	48	5
NMTAP	97	144	4
NMTAP	97	144	5
NMTAP	97	240	3
NMTAP	97	240	6
NMTAP	98	48	2
NMTAP	98	48	3
NMTAP	98	144	2
NMTAP	98	144	3
NMTAP	98	240	1
NMTAP	98	240	4
NMTAP	99	48	0
NMTAP	99	48	1
NMTAP	99	144	0
NMTAP	99	144	1
NMTAP	99	240	2
NMTAP	99	240	7
NMHLD	100	48	1	192
NMTAP	100	240	0
NMTAP	101	48	1
NMTAP	101	144	1
NMTAP	101	240	0
NMTAP	101	240	1
NMHLD	102	48	2	192
NMTAP	102	240	3
NMTAP	103	48	2
NMTAP	103	144	2
NMTAP	103	240	2
NMTAP	103	240	3
NMHLD	104	48	5	192
NMTAP	104	240	4
NMTAP	105	48	5
NMTAP	105	144	5
NMTAP	105	240	4
NMTAP	105	240	5
NMHLD	106	48	6	192
NMTAP	106	240	7
NMTAP	107	48	6
NMTAP	107	144	6
NMTAP	107	240	6
NMTAP	107	240	7
BRTAP	108	48	0
BRTAP	108	48	7

T_REC_TAP	339
T_REC_BRK	2
T_REC_XTP	21
T_REC_BXX	1
T_REC_HLD	14
T_REC_XHO	0
T_REC_BHO	0
T_REC_BXH	0
T_REC_STR	8
T_REC_BST	0
T_REC_XST	0
T_REC_XBS	0
T_REC_TTP	15
T_REC_THO	0
T_REC_SLD	8
T_REC_BSL	0
T_REC_ALL	408
T_NUM_TAP	383
T_NUM_BRK	3
T_NUM_HLD	14
T_NUM_SLD	8
T_NUM_ALL	408
T_JUDGE_TAP	386
T_JUDGE_HLD	56
T_JUDGE_SLD	8
T_JUDGE_ALL	450
TTM_EACHPAIRS	97
TTM_SCR_TAP	191500
TTM_SCR_BRK	7800
TTM_SCR_HLD	14000
TTM_SCR_SLD	12000
TTM_SCR_ALL	225300
TTM_SCR_S	218250
TTM_SCR_SS	225000
TTM_RAT_ACV	10013

