VERSION	0.00.00	1.04.00
FES_MODE	0
BPM_DEF	175.000	175.000	175.000	175.000
MET_DEF	4	4
RESOLUTION	384
CLK_DEF	384
COMPATIBLE_CODE	MA2

BPM	0	0	175.000
MET	0	0	4	4

NMSTR	1	0	3
NMSI_	1	0	3	96	240	5
NMHLD	1	0	4	2304
CNSI_	1	336	5	0	312	2
CNSI_	2	264	2	0	336	6
CNSI_	3	216	6	0	312	1
CNSI_	4	144	1	0	240	7
CNSCL	5	0	7	0	768	0
NMTAP	7	288	0
NMTAP	7	312	7
NMTAP	7	336	0
BXTAP	8	0	1
BXTAP	8	0	6
NMTAP	8	96	2
NMSTR	8	144	2
NMSI_	8	144	2	96	48	5
NMTAP	8	240	7
NMTAP	8	288	7
NMSTR	9	0	6
NMSCL	9	0	6	96	48	3
NMTAP	9	48	6
NMTAP	9	96	0
NMTAP	9	144	0
NMTAP	9	240	2
NMTAP	9	240	3
NMTAP	9	288	2
NMTAP	9	288	3
NMTAP	10	0	1
NMTAP	10	0	7
NMTAP	10	96	6
NMSTR	10	144	6
NMSI_	10	144	6	96	48	1
NMTAP	10	240	3
NMTAP	10	288	3
NMSTR	11	0	2
NMSCL	11	0	2	96	48	7
NMTAP	11	48	2
NMTAP	11	96	4
NMTAP	11	144	4
NMTAP	11	240	0
NMTAP	11	264	7
NMTAP	11	288	0
NMTAP	11	312	7
NMTAP	11	336	0
BXTAP	12	0	1
BXTAP	12	0	6
NMTAP	12	96	5
NMSTR	12	144	5
NMSI_	12	144	5	96	48	2
NMTAP	12	240	0
NMTAP	12	288	0
NMSTR	13	0	1
NMSCR	13	0	1	96	48	4
NMTAP	13	48	1
NMTAP	13	96	7
NMTAP	13	144	7
NMTAP	13	240	4
NMTAP	13	240	5
NMTAP	13	288	4
NMTAP	13	288	5
NMTAP	14	0	0
NMTAP	14	0	6
NMTAP	14	96	1
NMSTR	14	144	1
NMSI_	14	144	1	96	48	4
NMTAP	14	240	5
NMSTR	14	288	5
NMSV_	14	288	5	96	48	0
NMTAP	15	0	2
NMTAP	15	96	3
NMTAP	15	96	7
NMTAP	15	144	3
NMTAP	15	144	7
NMTAP	15	240	1
NMTAP	15	240	5
BRTAP	15	288	1
BRTAP	15	288	5
NMHLD	16	0	4	96
NMTAP	16	96	3
NMHLD	16	144	5	96
NMTAP	16	240	4
NMTTP	16	288	6	E	0	M1
NMHLD	17	0	4	96
NMTAP	17	96	5
NMHLD	17	144	3	96
NMTAP	17	240	4
NMTTP	17	288	3	E	0	M1
NMHLD	18	0	4	96
NMTAP	18	96	3
NMHLD	18	144	5	96
NMTAP	18	240	4
NMHLD	18	288	6	96
NMTTP	19	0	7	E	0	M1
NMTTP	19	48	6	E	0	M1
NMTTP	19	96	5	E	0	M1
NMTTP	19	144	4	E	0	M1
NMTAP	19	240	3
NMTAP	19	240	5
NMTAP	19	288	3
NMTAP	19	288	5
NMHLD	20	0	3	96
NMTAP	20	96	4
NMHLD	20	144	2	96
NMTAP	20	240	3
NMTTP	20	288	2	E	0	M1
NMHLD	21	0	3	96
NMTAP	21	96	2
NMHLD	21	144	4	96
NMTAP	21	240	3
NMTTP	21	288	5	E	0	M1
NMTAP	22	0	7
NMTAP	22	48	6
NMTAP	22	96	4
NMTAP	22	96	5
NMTAP	22	192	0
NMTAP	22	240	1
NMTAP	22	288	2
NMTAP	22	288	3
NMTAP	23	0	5
NMTAP	23	48	4
NMTAP	23	96	3
NMTAP	23	144	2
NMTAP	23	144	5
NMTTP	23	240	4	E	0	M1
NMTTP	23	288	0	C	0	M1
BRTAP	24	0	0
BRHLD	24	0	7	96
NMTAP	24	96	0
NMHLD	24	144	6	96
NMTAP	24	240	7
NMTTP	24	288	6	E	0	M1
NMHLD	25	0	0	96
NMTAP	25	96	7
NMHLD	25	144	1	96
NMTAP	25	240	0
NMTTP	25	288	2	E	0	M1
NMHLD	26	0	7	96
NMTAP	26	96	0
NMHLD	26	144	6	96
NMTAP	26	240	7
NMHLD	26	288	5	96
NMTTP	27	0	6	E	0	M1
NMTTP	27	48	7	E	0	M1
NMTTP	27	96	0	E	0	M1
NMTTP	27	144	1	E	0	M1
NMTAP	27	240	1
NMTAP	27	240	7
NMTAP	27	288	1
NMTAP	27	288	7
NMHLD	28	0	0	96
NMTAP	28	0	2
NMTAP	28	96	1
NMHLD	28	144	7	96
NMTAP	28	240	0
NMTTP	28	288	7	E	0	M1
NMTAP	29	0	5
NMHLD	29	0	7	96
NMTAP	29	96	6
NMHLD	29	144	0	96
NMTAP	29	240	7
NMTAP	29	288	0
NMTAP	29	288	7
NMSTR	30	0	2
NMSI_	30	0	2	96	48	0
NMSTR	30	0	3
NMSI_	30	0	3	96	48	7
NMSTR	30	192	4
NMSI_	30	192	4	96	48	0
NMSTR	30	192	5
NMSI_	30	192	5	96	48	7
NMTAP	31	0	0
NMTAP	31	0	7
NMTAP	31	96	1
NMTAP	31	96	6
NMTAP	31	144	1
NMTAP	31	144	6
BRTAP	31	240	7
NMSTR	31	336	0
NMSCR	31	336	0	96	96	3
NMTAP	32	0	0
NMSTR	32	144	7
NMSCL	32	144	7	96	96	4
NMTAP	32	192	7
NMTAP	32	336	1
NMSTR	33	0	1
NMSCR	33	0	1	96	96	4
NMSTR	33	96	4
NMSUL	33	96	4	96	96	7
NMTAP	33	192	7
NMSTR	33	336	4
NMSCR	33	336	4	96	96	7
NMTAP	34	0	4
NMSTR	34	144	3
NMSCL	34	144	3	96	96	0
NMTAP	34	192	3
NMTAP	34	336	5
NMSTR	35	0	5
NMSCR	35	0	5	96	96	0
NMSTR	35	96	0
NMSUL	35	96	0	96	96	3
NMTAP	35	192	3
NMSTR	35	336	1
NMSLR	35	336	1	96	96	5
NMTAP	36	0	1
NMSTR	36	144	6
NMSLL	36	144	6	96	96	2
NMTAP	36	192	6
NMTAP	36	336	1
NMTAP	37	0	1
NMTAP	37	96	3
NMTAP	37	144	4
NMTAP	37	192	5
NMTAP	37	240	6
NMTAP	37	288	0
NMTAP	37	288	7
NMTAP	38	0	0
NMTAP	38	0	1
NMTAP	38	96	4
NMTAP	38	96	6
NMTAP	38	192	2
NMTAP	38	192	3
NMTAP	38	240	1
NMTAP	38	240	4
NMTAP	38	336	6
NMTAP	38	336	7
NMTAP	39	48	1
NMTAP	39	48	3
NMTAP	39	144	4
NMTAP	39	144	5
NMTAP	39	192	4
NMTAP	39	192	5
NMSTR	39	288	6
NMSCL	39	288	6	96	48	3
NMSTR	39	288	7
NMSV_	39	288	7	96	48	2
NMSTR	40	96	6
NMSCL	40	96	6	96	48	3
NMSTR	40	96	7
NMSV_	40	96	7	96	48	2
NMSTR	40	288	6
NMSCL	40	288	6	96	48	3
NMSTR	40	288	7
NMSV_	40	288	7	96	48	2
NMSTR	41	96	6
NMSCL	41	96	6	96	48	3
NMSTR	41	96	7
NMSV_	41	96	7	96	48	2
NMTAP	41	288	1
NMTAP	41	288	4
NMTAP	42	0	4
NMSTR	42	48	3
NMSCR	42	48	3	96	96	7
NMTAP	42	96	2
NMTAP	42	144	1
NMTAP	42	240	0
NMSTR	42	288	0
NMSXL	42	288	0	96	96	0
NMSTR	43	0	6
NMSXR	43	0	6	96	96	6
NMTAP	43	240	7
NMSTR	43	288	6
NMSCL	43	288	6	96	48	3
NMSTR	43	288	7
NMSV_	43	288	7	96	48	2
NMSTR	44	96	6
NMSCL	44	96	6	96	48	3
NMSTR	44	96	7
NMSV_	44	96	7	96	48	2
NMSTR	44	288	6
NMSCL	44	288	6	96	48	3
NMSTR	44	288	7
NMSV_	44	288	7	96	48	2
NMSTR	45	96	6
NMSCL	45	96	6	96	48	3
NMSTR	45	96	7
NMSV_	45	96	7	96	48	2
NMTAP	45	288	1
NMTAP	45	288	3
NMTAP	46	0	4
NMSTR	46	48	4
NMSI_	46	48	4	96	48	6
NMSI_	46	48	4	96	48	7
NMSTR	46	144	4
NMSI_	46	144	4	96	48	1
NMSI_	46	144	4	96	48	2
NMSTR	46	240	4
NMSCR	46	240	4	96	144	3
NMSUR	46	240	4	96	144	3
BRTAP	46	336	4
NMTAP	47	192	2
NMTAP	47	192	3
NMSTR	47	288	4
NMSUR	47	288	4	96	48	1
NMSTR	47	288	5
NMSCR	47	288	5	96	48	0
NMSTR	48	96	4
NMSUR	48	96	4	96	48	1
NMSTR	48	96	5
NMSCR	48	96	5	96	48	0
NMSTR	48	288	4
NMSUR	48	288	4	96	48	1
NMSTR	48	288	5
NMSCR	48	288	5	96	48	0
NMSTR	49	96	4
NMSUR	49	96	4	96	48	1
NMSTR	49	96	5
NMSCR	49	96	5	96	48	0
NMSTR	49	288	2
NMSI_	49	288	2	96	48	5
NMTAP	49	288	7
NMSTR	50	0	0
NMSI_	50	0	0	96	48	6
NMSTR	50	96	2
NMSI_	50	96	2	96	48	7
NMSTR	50	192	3
NMSUR	50	192	3	96	48	7
NMSTR	50	288	1
NMSXL	50	288	1	96	192	4
NMTAP	51	240	5
NMSTR	51	288	4
NMSUR	51	288	4	96	48	1
NMSTR	51	288	5
NMSLR	51	288	5	96	48	1
NMSTR	52	96	4
NMSUR	52	96	4	96	48	1
NMSTR	52	96	5
NMSLR	52	96	5	96	48	1
NMSTR	52	288	4
NMSUR	52	288	4	96	48	1
NMSTR	52	288	5
NMSLR	52	288	5	96	48	1
NMSTR	53	96	4
NMSUR	53	96	4	96	48	1
NMSTR	53	96	5
NMSLR	53	96	5	96	48	1
NMTAP	53	288	2
NMTAP	53	288	7
NMTAP	54	0	0
NMTAP	54	0	5
NMTAP	54	48	4
NMTAP	54	96	3
NMTAP	54	144	2
NMTAP	54	144	7
NMTAP	54	240	0
NMTAP	54	240	6
NMTAP	54	288	1
NMTAP	54	288	5
NMTAP	54	336	2
NMTAP	54	336	4
NMTAP	55	48	3
NMTAP	55	48	4
NMSTR	55	96	3
BRSUR	55	96	3	96	96	1
NMSTR	55	96	4
BRSCR	55	96	4	96	96	1
BRTAP	56	0	0
BRTAP	56	0	7
NMTAP	56	96	0
NMTAP	56	120	7
NMTAP	56	144	0
NMTAP	56	168	7
NMTAP	56	192	0
NMTAP	56	216	7
NMTAP	56	240	0
NMTAP	56	264	7
NMTAP	56	288	0
NMTAP	56	312	7
NMTAP	56	336	0
NMTAP	56	360	7
NMTAP	57	0	1
NMTAP	57	24	6
NMTAP	57	48	1
NMTAP	57	72	6
NMTAP	57	96	1
NMTAP	57	120	6
NMTAP	57	144	1
NMTAP	57	168	6
NMHLD	57	192	0	48
NMHLD	57	240	7	48
NMHLD	57	288	6	48
NMHLD	57	336	5	48
NMTAP	58	0	4
NMSTR	58	48	4
NMSI_	58	48	4	96	48	0
NMTAP	58	96	5
NMTAP	58	144	4
NMSTR	58	240	3
NMSI_	58	240	3	96	48	7
NMTAP	58	288	2
NMTAP	58	336	3
NMHLD	59	48	6	48
NMHLD	59	96	7	48
NMHLD	59	144	0	48
NMHLD	59	192	1	48
NMHLD	59	240	2	48
NMHLD	59	288	3	48
NMTAP	59	336	4
NMTAP	60	48	6
NMTAP	60	72	7
NMTAP	60	96	6
NMTAP	60	120	7
NMTAP	60	144	6
NMTAP	60	192	1
NMTAP	60	216	0
NMTAP	60	240	1
NMTAP	60	264	0
NMTAP	60	288	1
NMTAP	60	336	6
NMTAP	60	360	4
NMTAP	61	0	5
NMTAP	61	48	1
NMTAP	61	72	3
NMTAP	61	96	2
NMTAP	61	144	3
NMTAP	61	144	4
NMSTR	61	192	3
NMSCL	61	192	3	96	48	7
NMTAP	61	192	4
NMTAP	61	288	6
NMSTR	61	336	6
NMSLL	61	336	6	96	48	2
NMTAP	62	48	0
NMTAP	62	96	0
NMTAP	62	144	1
NMTAP	62	168	3
NMTAP	62	192	2
NMTAP	62	240	6
NMTAP	62	264	4
NMTAP	62	288	5
NMTAP	62	336	3
NMTAP	62	336	4
BXTAP	63	0	1
BXTAP	63	0	6
BXTAP	63	48	1
BXTAP	63	48	6
BXSTR	63	96	1
NMSXL	63	96	1	96	96	3
BXSTR	63	96	6
NMSXR	63	96	6	96	96	4
BXTAP	63	144	1
BXTAP	63	144	6
NMHLD	64	0	2	384
NMTAP	64	0	5
NMHLD	65	0	3	384
NMHLD	66	0	4	384
NMSTR	67	0	5
NMSXR	67	0	5	96	288	6
NMHLD	68	0	1	384
NMHLD	69	0	3	384
NMTHO	70	0	0	336	C	1	M1
BXTAP	70	336	7
NMSTR	71	288	0
NMSV_	71	288	0	96	48	2
NMSTR	71	288	6
NMSCL	71	288	6	96	48	2
NMSTR	72	96	0
NMSV_	72	96	0	96	48	2
NMSTR	72	96	6
NMSCL	72	96	6	96	48	2
NMSTR	72	288	0
NMSV_	72	288	0	96	48	2
NMSTR	72	288	6
NMSCL	72	288	6	96	48	2
NMSTR	73	96	0
NMSV_	73	96	0	96	48	2
NMSTR	73	96	6
NMSCL	73	96	6	96	48	2
NMSTR	73	288	1
NMSV_	73	288	1	96	48	3
NMTAP	73	288	4
NMSTR	74	0	5
NMSCR	74	0	5	96	48	0
NMSTR	74	96	4
NMSI_	74	96	4	96	48	1
NMSTR	74	192	6
NMSUL	74	192	6	96	48	2
NMSTR	74	288	7
NMSXR	74	288	7	96	192	3
NMTAP	75	240	4
NMSTR	75	288	2
NMSUR	75	288	2	96	48	0
NMSTR	75	288	4
NMSLR	75	288	4	96	48	0
NMSTR	76	96	2
NMSUR	76	96	2	96	48	0
NMSTR	76	96	4
NMSLR	76	96	4	96	48	0
NMSTR	76	288	2
NMSUR	76	288	2	96	48	0
NMSTR	76	288	4
NMSLR	76	288	4	96	48	0
NMSTR	77	96	2
NMSUR	77	96	2	96	48	0
NMSTR	77	96	4
NMSLR	77	96	4	96	48	0
NMTAP	77	288	1
NMTAP	77	288	7
NMTAP	78	0	2
NMTAP	78	0	6
NMTAP	78	48	3
NMTAP	78	96	4
NMTAP	78	144	1
NMTAP	78	144	5
NMTAP	78	240	0
NMTAP	78	240	6
NMTAP	78	288	1
NMTAP	78	288	5
NMTAP	78	336	2
NMTAP	78	336	4
NMTAP	79	48	3
NMTAP	79	48	4
NMSTR	79	96	3
BRSUR	79	96	3	96	96	1
NMSTR	79	96	4
BRSCR	79	96	4	96	96	1
BRTAP	80	0	3
BRTAP	80	0	7
NMHLD	80	96	1	48
NMHLD	80	96	5	48
NMHLD	80	192	2	48
NMHLD	80	192	7	48
NMHLD	80	288	0	48
NMHLD	80	288	5	48
NMHLD	81	0	3	48
NMHLD	81	0	6	48
NMHLD	81	96	1	48
NMHLD	81	96	4	48
NMTAP	81	192	4
NMTAP	81	192	6
NMTAP	81	240	5
NMTAP	81	288	3
NMTAP	81	288	4
NMTAP	81	336	2
NMHLD	82	0	0	48
NMHLD	82	0	1	48
NMHLD	82	96	2	48
NMHLD	82	96	3	48
NMHLD	82	192	4	48
NMHLD	82	192	5	48
NMHLD	82	288	6	48
NMHLD	82	288	7	48
NMHLD	83	0	1	48
NMHLD	83	0	3	48
NMHLD	83	96	4	48
NMHLD	83	96	6	48
NMSTR	83	192	3
NMSCL	83	192	3	96	48	0
NMSTR	83	192	7
NMSCL	83	192	7	96	48	4
NMTAP	84	0	1
NMSTR	84	48	1
NMSI_	84	48	1	96	48	5
NMSTR	84	144	0
NMSI_	84	144	0	96	48	4
NMSTR	84	240	7
NMSI_	84	240	7	96	48	3
NMSTR	84	336	6
NMSI_	84	336	6	96	48	1
NMSTR	85	48	2
NMSI_	85	48	2	96	48	5
NMTAP	85	144	7
NMTAP	85	192	7
NMTAP	85	288	0
NMTAP	85	288	6
NMTAP	86	0	0
NMTAP	86	0	7
NMTAP	86	48	0
NMTAP	86	96	0
NMTAP	86	96	2
NMTAP	86	144	0
NMTAP	86	192	0
NMTAP	86	192	4
NMTAP	86	240	0
NMTAP	86	288	0
NMTAP	86	288	6
NMTAP	86	336	0
NMTAP	87	0	0
NMTAP	87	0	7
NMTAP	87	48	7
NMTAP	87	96	5
NMTAP	87	96	7
NMTAP	87	144	7
NMTAP	87	192	2
NMTAP	87	192	7
NMTAP	87	240	7
NMTAP	87	288	0
NMTAP	87	288	7
NMTAP	88	0	6
NMTAP	88	0	7
NMTAP	88	48	5
NMTAP	88	96	4
NMTAP	88	144	3
NMTAP	88	144	4
NMTAP	88	192	2
NMTAP	88	240	1
NMTAP	88	288	0
NMTAP	88	288	1
NMTAP	88	336	7
NMTAP	89	0	0
NMTAP	89	0	7
NMTAP	89	48	6
NMHLD	89	96	6	96
NMTTP	89	144	0	A	0	M1
NMTTP	89	160	0	B	0	M1
NMTTP	89	176	0	C	0	M1
NMTTP	89	192	4	B	0	M1
NMTAP	89	240	5
NMTAP	89	288	5
NMTAP	89	336	5
NMTAP	90	0	2
NMTAP	90	48	1
NMTAP	90	96	0
NMTAP	90	96	3
NMTAP	90	144	1
NMTAP	90	192	2
NMTAP	90	192	5
NMTAP	90	240	6
NMTAP	90	288	4
NMTAP	90	288	7
NMTAP	90	336	6
NMSTR	91	0	4
NMSI_	91	0	4	96	48	0
NMSTR	91	0	5
NMSCL	91	0	5	96	48	2
NMTTP	91	192	1	E	0	M1
NMTTP	91	192	1	D	0	M1
NMTTP	91	240	5	E	0	M1
NMTTP	91	240	5	D	0	M1
NMTTP	91	288	3	E	0	M1
NMTTP	91	288	3	D	0	M1
NMTTP	91	336	7	E	0	M1
NMTTP	91	336	7	D	0	M1
NMTAP	92	0	2
NMSTR	92	48	2
NMSI_	92	48	2	96	48	6
NMSTR	92	144	7
NMSI_	92	144	7	96	48	4
NMSTR	92	240	3
NMSI_	92	240	3	96	48	0
NMSTR	92	336	5
NMSI_	92	336	5	96	48	0
NMTAP	93	48	1
NMTAP	93	96	1
NMTAP	93	144	1
NMTAP	93	144	7
NMTAP	93	240	1
NMTAP	93	264	0
NMTAP	93	288	2
NMTAP	93	336	6
NMTAP	93	360	7
NMTAP	94	0	5
NMTAP	94	48	4
NMTAP	94	96	0
NMTAP	94	96	4
NMTAP	94	144	1
NMTAP	94	192	2
NMTAP	94	192	6
NMTAP	94	240	5
NMTAP	94	288	1
NMTAP	94	288	4
NMTAP	94	336	2
NMTAP	94	360	3
NMTAP	95	0	1
NMTAP	95	48	0
NMTAP	95	96	0
NMTAP	95	96	7
NMTAP	95	144	6
NMTAP	95	192	5
NMTAP	95	240	4
NMHLD	95	288	3	96
NMSTR	95	288	4
BRSUR	95	288	4	96	48	1

T_REC_TAP	328
T_REC_BRK	9
T_REC_XTP	0
T_REC_BXX	11
T_REC_HLD	61
T_REC_XHO	0
T_REC_BHO	1
T_REC_BXH	0
T_REC_STR	110
T_REC_BST	0
T_REC_XST	0
T_REC_XBS	2
T_REC_TTP	29
T_REC_THO	1
T_REC_SLD	110
T_REC_BSL	5
T_REC_ALL	667
T_NUM_TAP	467
T_NUM_BRK	28
T_NUM_HLD	62
T_NUM_SLD	110
T_NUM_ALL	667
T_JUDGE_TAP	489
T_JUDGE_HLD	175
T_JUDGE_SLD	115
T_JUDGE_ALL	779
TTM_EACHPAIRS	130
TTM_SCR_TAP	233500
TTM_SCR_BRK	72800
TTM_SCR_HLD	62000
TTM_SCR_SLD	165000
TTM_SCR_ALL	533300
TTM_SCR_S	514600
TTM_SCR_SS	530500
TTM_RAT_ACV	10052

