VERSION	0.00.00	1.04.00
FES_MODE	0
BPM_DEF	175.000	175.000	175.000	175.000
MET_DEF	4	4
RESOLUTION	384
CLK_DEF	384
COMPATIBLE_CODE	MA2

BPM	0	0	175.000
MET	0	0	4	4

EXSTR	7	0	5
NMSCL	7	0	5	96	96	2
NMTAP	7	288	2
NMTAP	7	288	4
NMTAP	8	0	5
NMTAP	8	96	6
NMTAP	8	96	7
NMTAP	8	192	2
NMTAP	8	288	0
NMTAP	8	288	1
NMTAP	9	0	6
NMTAP	9	48	6
NMTAP	9	96	4
NMTAP	9	192	3
NMTAP	9	192	5
NMTAP	9	288	3
NMTAP	9	288	5
NMTAP	10	0	2
NMTAP	10	96	0
NMTAP	10	96	1
NMTAP	10	192	5
NMTAP	10	288	6
NMTAP	10	288	7
NMTAP	11	0	1
NMTAP	11	48	1
NMTAP	11	96	3
NMTAP	11	192	4
EXTAP	11	240	3
EXTAP	11	240	5
EXTAP	11	288	3
EXTAP	11	288	5
NMTAP	12	0	2
NMTAP	12	96	0
NMTAP	12	96	1
NMTAP	12	192	5
NMTAP	12	288	6
NMTAP	12	288	7
NMTAP	13	0	1
NMTAP	13	48	1
NMTAP	13	96	3
NMTAP	13	192	2
NMTAP	13	192	4
NMTAP	13	288	2
NMTAP	13	288	4
NMTAP	14	0	5
NMTAP	14	96	6
NMTAP	14	96	7
NMTAP	14	192	2
NMTAP	14	288	0
NMTAP	14	288	1
NMTAP	15	0	6
NMTAP	15	48	6
NMTAP	15	96	4
NMTAP	15	192	3
EXTAP	15	240	2
EXTAP	15	240	4
EXTAP	15	288	2
EXTAP	15	288	4
NMHLD	16	0	1	96
NMTAP	16	96	3
NMTAP	16	144	3
NMTAP	16	240	4
NMTAP	16	288	3
NMTAP	16	288	5
NMHLD	17	0	6	96
NMTAP	17	96	4
NMTAP	17	144	4
NMTAP	17	240	3
NMTAP	17	288	2
NMTAP	17	288	4
NMHLD	18	0	1	96
NMTAP	18	96	3
NMTAP	18	144	3
NMTAP	18	240	4
NMTAP	18	288	3
NMTAP	18	288	5
NMHLD	19	0	6	96
NMTAP	19	96	4
NMTAP	19	144	4
NMTAP	19	240	3
NMTAP	19	240	5
NMTAP	19	288	3
NMTAP	19	288	5
NMTAP	20	0	4
NMTAP	20	0	6
NMTAP	20	96	6
NMTAP	20	96	7
NMTAP	20	144	6
NMTAP	20	144	7
NMTAP	20	240	0
NMTAP	20	288	1
NMTAP	20	288	7
NMTAP	21	0	1
NMTAP	21	0	3
NMTAP	21	96	0
NMTAP	21	96	1
NMTAP	21	144	0
NMTAP	21	144	1
NMTAP	21	240	7
NMTAP	21	288	0
NMTAP	21	288	6
NMTAP	22	0	4
NMTAP	22	0	6
NMTAP	22	96	6
NMTAP	22	96	7
NMTAP	22	144	6
NMTAP	22	144	7
NMTAP	22	240	0
NMTAP	22	288	1
NMTAP	22	288	7
NMSTR	23	0	1
NMSI_	23	0	1	96	96	5
NMSTR	23	0	3
NMSI_	23	0	3	96	96	7
NMTAP	23	336	6
NMHLD	24	0	6	96
NMTAP	24	96	4
NMTAP	24	144	4
NMTAP	24	240	6
NMTAP	24	240	7
NMTAP	24	336	0
NMHLD	25	0	0	96
NMTAP	25	96	2
NMHLD	25	144	2	96
NMTAP	25	240	3
NMTAP	25	288	3
NMTAP	26	0	5
NMTAP	26	48	5
NMTAP	26	96	4
NMTAP	26	96	6
NMTAP	26	192	2
NMTAP	26	240	2
NMTAP	26	288	1
NMSTR	26	288	3
NMSSR	26	288	3	96	192	7
NMTAP	27	336	1
NMHLD	28	0	1	96
NMTAP	28	96	3
NMTAP	28	144	3
NMTAP	28	240	0
NMTAP	28	240	1
NMTAP	28	336	7
NMHLD	29	0	7	96
NMTAP	29	96	5
NMHLD	29	144	5	96
NMTAP	29	240	4
NMTAP	29	288	4
NMTAP	30	0	2
NMTAP	30	48	2
NMTAP	30	96	1
NMTAP	30	96	3
NMTAP	30	192	5
NMTAP	30	240	5
NMSTR	30	288	4
NMSXR	30	288	4	96	144	5
NMTAP	30	288	6
BXTAP	31	240	7
NMHLD	32	0	4	96
NMHLD	32	0	6	96
NMHLD	32	192	4	96
NMHLD	32	192	6	96
NMTAP	33	0	6
NMTAP	33	0	7
NMSTR	33	96	6
NMSCL	33	96	6	96	96	3
NMSTR	33	96	7
NMSUL	33	96	7	96	96	2
NMHLD	34	0	1	96
NMHLD	34	0	3	96
NMHLD	34	192	1	96
NMHLD	34	192	3	96
NMTAP	35	0	0
NMTAP	35	0	1
NMSTR	35	96	0
NMSI_	35	96	0	96	96	4
NMSTR	35	96	1
NMSI_	35	96	1	96	96	5
NMHLD	36	0	4	96
NMHLD	36	0	6	96
NMHLD	36	192	4	96
NMHLD	36	192	6	96
NMTAP	37	0	6
NMTAP	37	0	7
NMTAP	37	96	6
NMTAP	37	96	7
NMTAP	37	192	4
NMTAP	37	192	5
NMTAP	37	288	4
NMTAP	37	288	5
NMTAP	38	0	2
NMTAP	38	0	3
NMTAP	38	96	2
NMTAP	38	96	3
NMTAP	38	192	1
NMTAP	38	192	3
NMTAP	38	240	1
NMTAP	38	240	3
NMTAP	38	336	2
NMTAP	38	336	4
NMTAP	39	48	3
NMTAP	39	48	5
NMTAP	39	144	4
NMTAP	39	144	6
NMTAP	39	192	4
NMTAP	39	192	6
BRTAP	39	288	7
NMTAP	40	0	6
NMTAP	40	0	7
NMTAP	40	96	2
NMTAP	40	96	3
NMTAP	40	192	0
NMTAP	40	192	1
NMTAP	40	288	4
NMTAP	40	288	5
NMTAP	41	0	6
NMTAP	41	0	7
NMTAP	41	96	2
NMTAP	41	96	3
NMTAP	41	192	0
NMTAP	41	192	1
NMTAP	41	288	4
NMTAP	41	288	5
NMTAP	42	0	3
NMTAP	42	0	6
NMTAP	42	96	3
NMTAP	42	96	6
NMTAP	42	192	1
NMTAP	42	192	4
NMTAP	42	288	1
NMTAP	42	288	4
NMHLD	43	0	6	96
NMTAP	43	96	4
NMTAP	43	144	4
NMTAP	43	240	1
NMTAP	43	240	7
NMTAP	43	288	1
NMTAP	43	288	7
NMTAP	44	0	0
NMTAP	44	0	1
NMTAP	44	96	4
NMTAP	44	96	5
NMTAP	44	192	6
NMTAP	44	192	7
NMTAP	44	288	2
NMTAP	44	288	3
NMTAP	45	0	0
NMTAP	45	0	1
NMTAP	45	96	4
NMTAP	45	96	5
NMTAP	45	192	6
NMTAP	45	192	7
NMTAP	45	288	2
NMTAP	45	288	3
NMTAP	46	0	1
NMTAP	46	0	4
NMTAP	46	96	1
NMTAP	46	96	4
NMTAP	46	192	3
NMSTR	46	192	6
NMSXL	46	192	6	96	192	2
BRTAP	47	192	0
BRTAP	47	288	0
NMTAP	48	0	0
NMTAP	48	0	1
NMTAP	48	96	4
NMTAP	48	96	6
NMTAP	48	192	6
NMTAP	48	192	7
NMTAP	48	288	1
NMTAP	48	288	3
NMTAP	49	0	0
NMTAP	49	0	1
NMTAP	49	96	4
NMTAP	49	96	6
NMTAP	49	192	6
NMTAP	49	192	7
NMTAP	49	288	1
NMTAP	49	288	3
NMTAP	50	0	2
NMTAP	50	0	7
NMTAP	50	96	2
NMTAP	50	96	7
NMTAP	50	192	0
NMTAP	50	192	5
NMTAP	50	288	0
NMTAP	50	288	5
NMHLD	51	0	1	96
NMTAP	51	96	3
NMTAP	51	144	3
NMTAP	51	240	0
NMTAP	51	240	6
NMTAP	51	288	0
NMTAP	51	288	6
NMTAP	52	0	6
NMTAP	52	0	7
NMTAP	52	96	1
NMTAP	52	96	3
NMTAP	52	192	0
NMTAP	52	192	1
NMTAP	52	288	4
NMTAP	52	288	6
NMTAP	53	0	6
NMTAP	53	0	7
NMTAP	53	96	1
NMTAP	53	96	3
NMTAP	53	192	0
NMTAP	53	192	1
NMTAP	53	288	4
NMTAP	53	288	6
NMTAP	54	0	0
NMTAP	54	0	5
NMTAP	54	96	0
NMTAP	54	96	5
NMTAP	54	192	2
NMTAP	54	192	7
NMTAP	54	288	2
NMTAP	54	288	7
NMTAP	55	0	4
NMTAP	55	0	5
NMTAP	55	48	4
NMTAP	55	48	5
NMSTR	55	96	4
BRSUR	55	96	4	96	96	1
NMSTR	55	96	5
BRSCR	55	96	5	96	96	0
BXTAP	56	0	1
NMTAP	56	48	1
NMTAP	56	96	0
NMTAP	56	192	6
NMTAP	56	240	6
NMTAP	56	288	7
NMTAP	57	0	1
NMTAP	57	48	1
NMTAP	57	96	0
NMTAP	57	192	6
NMTAP	57	240	6
NMTAP	57	288	7
NMTAP	58	0	4
NMTAP	58	0	6
NMTAP	58	96	4
NMTAP	58	96	6
NMTAP	58	192	1
NMTAP	58	192	3
NMTAP	58	288	1
NMTAP	58	288	3
NMHLD	59	0	6	96
NMHLD	59	96	4	96
NMHLD	59	192	3	96
NMTAP	59	288	1
NMTAP	60	0	2
NMTAP	60	96	1
NMTAP	60	96	3
NMTAP	60	192	5
NMTAP	60	288	4
NMTAP	60	288	6
NMHLD	61	0	2	96
NMHLD	61	96	0	96
NMHLD	61	192	7	96
NMTAP	61	288	5
NMTAP	62	0	6
NMTAP	62	48	6
NMTAP	62	96	4
NMTAP	62	192	1
NMTAP	62	240	1
NMTAP	62	288	3
NMTAP	63	0	2
NMTAP	63	0	4
NMTAP	63	48	2
NMTAP	63	48	4
NMTAP	63	96	1
NMTAP	63	96	5
NMTAP	63	144	1
NMTAP	63	144	5
NMTTP	64	0	3	E	0	M1
NMTTP	64	0	4	E	0	M1
NMTTP	64	192	7	E	0	M1
NMTTP	64	288	6	E	0	M1
NMTTP	65	0	4	E	0	M1
NMTTP	65	0	5	E	0	M1
NMTTP	65	192	1	E	0	M1
NMTTP	65	288	2	E	0	M1
NMTTP	66	0	3	E	0	M1
NMTTP	66	0	4	E	0	M1
NMTTP	66	192	7	E	0	M1
NMTTP	66	288	6	E	0	M1
NMTTP	67	0	4	E	0	M1
NMTTP	67	0	5	E	0	M1
NMHLD	68	0	2	384
NMTTP	68	192	3	E	0	M1
NMHLD	69	0	5	384
NMTTP	69	192	5	E	0	M1
NMSTR	70	0	2
NMSUR	70	0	2	96	240	4
EXHLD	70	336	6	240
NMTAP	71	192	3
BRTAP	72	0	4
BRTAP	72	0	5
NMTAP	72	96	0
NMTAP	72	96	2
NMTAP	72	192	2
NMTAP	72	192	3
NMTAP	72	288	5
NMTAP	72	288	7
NMTAP	73	0	4
NMTAP	73	0	5
NMTAP	73	96	0
NMTAP	73	96	2
NMTAP	73	192	2
NMTAP	73	192	3
NMTAP	73	288	5
NMTAP	73	288	7
NMTAP	74	0	4
NMTAP	74	0	5
NMTAP	74	96	3
NMTAP	74	96	6
NMTAP	74	192	2
NMTAP	74	192	3
NMTAP	74	288	1
NMTAP	74	288	4
NMHLD	75	0	5	96
NMHLD	75	96	7	96
NMHLD	75	192	0	96
NMTAP	75	288	2
NMTAP	76	0	2
NMTAP	76	0	3
NMTAP	76	96	5
NMTAP	76	96	7
NMTAP	76	192	4
NMTAP	76	192	5
NMTAP	76	288	0
NMTAP	76	288	2
NMTAP	77	0	2
NMTAP	77	0	3
NMTAP	77	96	5
NMTAP	77	96	7
NMTAP	77	192	4
NMTAP	77	192	5
NMTAP	77	288	0
NMTAP	77	288	2
NMTAP	78	0	2
NMTAP	78	0	3
NMTAP	78	96	1
NMTAP	78	96	4
NMTAP	78	192	3
NMTAP	78	192	6
NMTAP	78	288	3
NMTAP	78	288	6
NMTAP	79	0	4
NMTAP	79	0	5
NMTAP	79	48	4
NMTAP	79	48	5
NMSTR	79	96	4
BRSUR	79	96	4	96	96	1
NMSTR	79	96	5
BRSCR	79	96	5	96	96	0
NMHLD	80	0	1	192
NMTAP	80	96	3
NMHLD	80	192	5	192
NMTAP	80	288	3
NMHLD	81	0	0	192
NMTAP	81	96	3
NMTAP	81	192	6
NMTAP	81	288	4
NMTAP	81	288	5
NMHLD	82	0	6	192
NMTAP	82	96	4
NMHLD	82	192	2	192
NMTAP	82	288	4
NMHLD	83	0	7	192
NMTAP	83	96	4
NMTAP	83	192	1
NMTAP	83	240	1
NMTAP	83	288	0
NMTAP	84	0	2
NMTAP	84	0	7
NMTAP	84	48	2
NMTAP	84	48	7
NMTAP	84	144	4
NMTAP	84	144	6
NMTAP	84	240	1
NMTAP	84	240	3
NMTAP	84	336	4
NMTAP	84	336	6
NMTAP	85	48	1
NMTAP	85	48	3
NMTAP	85	144	6
NMHLD	85	192	6	96
NMTAP	85	288	0
NMSTR	86	0	1
NMSCR	86	0	1	96	96	4
NMTAP	86	48	1
NMSTR	86	192	5
NMSCR	86	192	5	96	96	0
NMTAP	86	240	5
NMSTR	87	0	1
NMSCR	87	0	1	96	96	4
NMTAP	87	48	1
NMSTR	87	192	5
NMSCR	87	192	5	96	96	0
NMTAP	87	240	5
NMTAP	88	0	1
NMTAP	88	48	1
NMTAP	88	96	3
NMTAP	88	144	3
NMTAP	88	192	2
NMTAP	88	288	1
NMTAP	88	288	7
NMTAP	89	0	6
NMTAP	89	48	6
NMTAP	89	96	4
NMTAP	89	144	4
NMTAP	89	192	5
NMTAP	89	288	0
NMTAP	89	288	6
NMHLD	90	0	1	192
NMTAP	90	96	0
NMHLD	90	192	6	192
NMTAP	90	288	7
NMHLD	91	0	2	192
NMTAP	91	96	0
NMHLD	91	192	5	96
NMTAP	91	288	7
NMTAP	92	0	4
NMTAP	92	0	5
NMTAP	92	48	4
NMTAP	92	48	5
NMTAP	92	144	5
NMTAP	92	144	7
NMTAP	92	240	5
NMTAP	92	240	7
NMTAP	92	336	0
NMTAP	92	336	2
NMTAP	93	48	0
NMTAP	93	48	2
NMTAP	93	144	2
NMTAP	93	144	4
NMTAP	93	192	2
NMTAP	93	192	4
NMTAP	93	288	1
NMTAP	93	288	5
NMTAP	94	0	3
NMTAP	94	96	0
NMTAP	94	96	1
NMTAP	94	192	4
NMTAP	94	288	6
NMTAP	94	288	7
NMTAP	95	0	2
NMTAP	95	96	0
NMTAP	95	96	1
NMSTR	95	192	4
BRSLR	95	192	4	96	96	0

T_REC_TAP	433
T_REC_BRK	5
T_REC_XTP	8
T_REC_BXX	2
T_REC_HLD	46
T_REC_XHO	1
T_REC_BHO	0
T_REC_BXH	0
T_REC_STR	19
T_REC_BST	0
T_REC_XST	1
T_REC_XBS	0
T_REC_TTP	16
T_REC_THO	0
T_REC_SLD	15
T_REC_BSL	5
T_REC_ALL	551
T_NUM_TAP	477
T_NUM_BRK	12
T_NUM_HLD	47
T_NUM_SLD	15
T_NUM_ALL	551
T_JUDGE_TAP	484
T_JUDGE_HLD	127
T_JUDGE_SLD	20
T_JUDGE_ALL	631
TTM_EACHPAIRS	175
TTM_SCR_TAP	238500
TTM_SCR_BRK	31200
TTM_SCR_HLD	47000
TTM_SCR_SLD	22500
TTM_SCR_ALL	339200
TTM_SCR_S	327900
TTM_SCR_SS	338000
TTM_RAT_ACV	10035

