VERSION	0.00.00	1.04.00
FES_MODE	0
BPM_DEF	204.000	204.000	204.000	204.000
MET_DEF	4	4
RESOLUTION	384
CLK_DEF	384
COMPATIBLE_CODE	MA2

BPM	0	0	204.000
MET	0	0	4	4

NMTTP	1	0	7	E	0	M1
NMTTP	1	96	1	E	0	M1
NMTTP	1	192	7	B	0	M1
NMTTP	1	288	0	B	0	M1
NMTAP	2	0	5
NMTAP	2	48	5
NMTAP	2	96	3
NMTAP	2	144	3
NMTAP	2	192	4
NMTAP	2	240	4
NMTAP	2	288	2
NMSTR	3	0	1
NMSI_	3	0	1	96	48	3
NMTAP	3	0	3
NMTAP	3	96	4
NMTAP	3	144	5
NMSTR	3	192	6
NMSI_	3	192	6	96	48	4
NMTAP	3	288	3
NMTAP	3	336	2
NMTAP	4	0	1
NMTAP	4	48	1
NMTAP	4	96	3
NMTAP	4	144	2
NMTAP	4	192	6
NMTAP	4	240	6
NMTAP	4	288	4
NMTAP	4	336	5
NMSTR	5	0	1
NMSCR	5	0	1	96	48	3
NMTAP	5	96	4
NMTAP	5	144	5
NMSTR	5	192	6
NMSCL	5	192	6	96	48	4
NMTAP	5	288	3
NMTAP	5	336	2
NMTAP	6	0	1
NMTAP	6	48	1
NMTAP	6	96	3
NMTAP	6	144	2
NMTAP	6	192	5
NMTAP	6	240	5
NMTAP	6	288	4
NMTAP	6	336	6
NMSTR	7	0	1
NMSI_	7	0	1	96	48	3
NMTAP	7	96	0
NMTAP	7	144	7
NMSTR	7	192	6
NMSI_	7	192	6	96	48	4
NMTAP	7	288	7
NMTAP	7	336	0
NMSTR	8	0	1
NMSI_	8	0	1	96	48	6
NMTAP	8	48	1
NMTAP	8	96	4
NMTAP	8	144	4
NMSTR	8	192	5
NMSI_	8	192	5	96	48	2
NMTAP	8	240	5
NMTAP	8	288	0
NMTAP	8	336	0
NMSTR	9	0	1
NMSCR	9	0	1	96	48	3
NMTAP	9	96	0
NMTAP	9	144	7
NMSTR	9	192	6
NMSCL	9	192	6	96	48	4
NMTAP	9	288	7
NMTAP	9	336	0
NMTAP	10	0	1
NMTAP	10	48	1
NMTAP	10	96	6
NMTAP	10	144	6
NMTAP	10	192	0
NMTAP	10	240	7
BRTAP	10	288	1
BRTAP	10	288	6
NMTAP	11	0	3
NMSTR	11	0	5
BRSXR	11	0	5	96	144	6
NMTAP	11	288	1
NMSTR	12	0	0
NMSXL	12	0	0	96	192	3
NMTAP	12	0	7
NMTAP	12	288	5
NMSTR	13	0	4
BRSXL	13	0	4	96	120	4
BRSXR	13	0	4	96	120	4
EXTAP	13	288	6
NMSTR	14	0	7
NMSI_	14	0	7	96	96	4
NMSUR	14	0	7	96	96	4
NMTAP	14	288	3
NMTAP	14	288	5
NMTAP	15	0	2
NMSTR	15	0	6
NMSXL	15	0	6	96	192	3
NMTAP	15	288	1
NMSTR	16	0	0
NMSI_	16	0	0	96	96	4
NMTAP	16	0	4
CNSI_	16	192	4	0	72	2
NMTAP	16	288	5
NMTAP	17	0	2
NMTAP	17	96	2
NMTAP	17	96	3
NMTAP	17	192	3
NMTAP	17	192	4
NMSTR	17	288	4
NMSXL	17	288	4	96	96	6
NMSXR	17	288	4	96	96	2
NMTAP	17	288	5
NMHLD	18	192	5	192
EXTAP	18	288	7
EXTAP	18	312	0
EXTAP	18	336	1
EXTAP	18	360	2
EXSTR	19	0	3
NMSUR	19	0	3	96	192	0
NMTAP	19	96	5
NMTAP	19	192	5
NMTAP	19	288	5
NMSTR	20	0	5
NMSI_	20	0	5	96	96	1
NMTAP	20	96	2
CNSCL	20	192	1	0	192	3
NMTAP	20	192	2
NMTAP	20	288	2
NMSTR	21	0	2
NMSUR	21	0	2	96	192	4
NMTAP	21	96	4
NMTAP	21	192	5
NMTAP	21	288	6
NMSTR	22	0	5
NMSCL	22	0	5	96	96	2
NMSTR	22	96	2
NMSCR	22	96	2	96	96	5
NMTAP	22	192	6
NMTAP	22	288	0
NMTAP	23	0	2
NMTAP	23	0	6
NMSTR	23	96	5
NMSI_	23	96	5	96	48	7
NMTAP	23	192	4
NMSTR	23	288	5
NMSI_	23	288	5	96	48	0
NMTAP	24	0	4
NMSTR	24	96	5
NMSCR	24	96	5	96	48	0
NMTAP	24	192	3
NMSTR	24	288	2
NMSI_	24	288	2	96	48	7
NMTAP	25	0	5
NMTAP	25	96	6
NMTAP	25	192	0
NMTAP	25	192	5
NMSTR	25	288	2
NMSLR	25	288	2	96	144	0
NMSTR	25	288	4
NMSLL	25	288	4	96	144	6
NMTAP	26	288	1
NMTAP	26	288	7
NMTAP	27	0	2
NMTAP	27	0	6
NMTAP	27	144	1
NMHLD	27	192	1	192
NMTAP	27	336	2
NMHLD	28	0	2	192
NMTAP	28	144	3
NMTAP	28	192	3
NMTAP	28	288	2
NMTAP	28	288	3
NMTAP	29	0	2
NMTAP	29	0	3
EXTAP	29	144	6
EXHLD	29	192	6	192
EXTAP	29	336	5
EXHLD	30	0	5	192
EXTAP	30	144	4
EXTAP	30	192	4
NMTAP	30	288	4
NMTAP	30	288	5
NMTAP	31	0	3
NMTAP	31	0	4
NMTAP	31	96	1
NMTAP	31	96	2
NMTAP	31	192	0
NMTAP	31	192	7
NMTAP	31	288	5
NMTAP	31	288	6
NMTAP	32	0	3
NMTAP	32	0	4
NMTAP	32	48	2
NMTAP	32	96	1
NMTAP	32	96	4
NMTAP	32	144	5
NMTAP	32	192	3
NMTAP	32	192	6
NMTAP	32	240	2
NMTAP	32	288	1
NMTAP	32	288	5
NMTAP	32	336	6
NMTAP	33	0	0
NMTAP	33	0	7
NMTAP	33	144	6
NMTAP	33	144	7
NMTAP	33	192	0
NMTAP	33	192	5
NMTAP	33	336	0
NMTAP	33	336	1
NMTAP	34	0	2
NMSTR	34	0	7
NMSCL	34	0	7	96	48	4
NMSTR	34	96	0
NMSCR	34	96	0	96	48	3
NMTAP	34	192	7
NMSTR	34	288	2
NMSI_	34	288	2	96	48	7
NMSTR	34	288	6
NMSI_	34	288	6	96	48	3
BRTAP	35	0	2
BRTAP	35	0	6
NMTAP	35	96	0
NMTAP	35	96	4
NMTAP	35	192	1
NMTAP	35	192	7
NMTAP	35	240	2
NMTAP	35	240	6
NMSTR	35	288	5
NMSCR	35	288	5	96	96	1
NMSTR	36	0	1
NMSCL	36	0	1	96	96	5
NMTAP	36	96	4
NMSTR	36	192	2
NMSI_	36	192	2	96	48	4
NMTAP	36	288	2
NMSTR	36	288	6
NMSI_	36	288	6	96	48	2
NMTAP	37	0	0
NMTAP	37	0	6
NMTAP	37	96	1
NMTAP	37	144	2
NMTAP	37	192	5
NMTAP	37	240	6
NMSTR	37	288	3
NMSCL	37	288	3	96	24	2
NMTAP	37	288	7
NMSTR	38	0	7
NMSCL	38	0	7	96	24	6
CNSI_	38	24	2	0	48	0
CNSCL	38	72	0	0	24	7
NMSTR	38	96	3
NMSLL	38	96	3	96	72	7
CNSI_	38	120	6	0	48	4
CNSCL	38	168	4	0	24	3
BRTAP	38	192	7
CNSLL	38	264	7	0	72	3
NMTAP	39	0	7
NMTAP	39	96	1
NMTAP	39	144	1
NMTAP	39	192	5
NMTAP	39	240	4
NMTAP	39	288	3
NMSTR	39	288	6
BRSI_	39	288	6	96	48	2
NMSTR	40	0	1
BRSCL	40	0	1	96	24	0
NMTAP	40	0	6
CNSI_	40	120	0	0	24	4
CNSCR	40	144	4	0	48	5
NMTAP	40	192	6
NMTAP	40	288	6
NMTAP	40	288	7
NMTAP	41	0	0
NMTAP	41	0	5
NMTAP	41	96	1
NMTAP	41	144	1
NMTAP	41	192	3
NMTAP	41	240	2
NMSTR	41	288	2
BRSUR	41	288	2	96	96	4
NMSTR	42	0	4
BRSCR	42	0	4	96	96	2
NMTAP	42	96	7
NMTTP	42	192	0	C	1	M1
NMTAP	42	336	6
NMSTR	43	0	6
NMSI_	43	0	6	96	48	2
NMSTR	43	96	0
NMSI_	43	96	0	96	48	4
NMTAP	43	144	0
NMSTR	43	192	5
NMSI_	43	192	5	96	48	0
NMTAP	43	240	5
NMSTR	43	288	1
NMSI_	43	288	1	96	48	5
NMTAP	43	336	1
NMSTR	44	0	7
NMSI_	44	0	7	96	48	2
NMSI_	44	0	7	96	48	4
NMTAP	44	192	0
NMTAP	44	192	6
NMHLD	44	288	1	48
NMHLD	44	288	3	48
NMHLD	45	0	4	48
NMHLD	45	0	6	48
NMTAP	45	96	5
NMTAP	45	144	5
NMTAP	45	192	4
NMTAP	45	240	3
NMTAP	45	288	2
NMTAP	45	336	1
NMSTR	46	0	0
NMSCR	46	0	0	96	48	3
NMSTR	46	0	4
NMSCR	46	0	4	96	48	7
NMSTR	46	96	0
NMSV_	46	96	0	96	48	6
NMSTR	46	96	4
NMSV_	46	96	4	96	48	2
NMTAP	47	0	3
NMTAP	47	0	7
NMTAP	47	96	4
NMTAP	47	96	6
NMTAP	47	144	5
NMTAP	47	192	2
NMTAP	47	192	3
NMTAP	47	240	1
NMSTR	47	288	0
NMSCR	47	288	0	96	48	3
NMTAP	47	336	7
NMSTR	48	0	0
NMSCL	48	0	0	96	48	5
NMSTR	48	96	0
NMSI_	48	96	0	96	48	4
NMTAP	48	192	0
NMSTR	48	288	2
NMSI_	48	288	2	96	48	7
NMSTR	48	288	6
NMSI_	48	288	6	96	48	3
NMTAP	49	0	2
NMTAP	49	0	6
NMTAP	49	96	0
NMTAP	49	96	4
NMTAP	49	144	5
NMTAP	49	192	6
NMTAP	49	192	7
NMTAP	49	240	0
NMTAP	49	288	1
NMTAP	49	288	4
NMTAP	49	336	5
BRHLD	50	0	2	96
BRHLD	50	0	6	96
NMTAP	50	144	0
NMTAP	50	144	7
NMSTR	50	192	0
NMSI_	50	192	0	96	48	2
NMSTR	50	192	7
NMSI_	50	192	7	96	48	2
NMSTR	50	288	0
NMSI_	50	288	0	96	48	5
NMSTR	50	288	7
NMSI_	50	288	7	96	48	5
EXTAP	51	0	0
EXTAP	51	0	7
NMTAP	51	192	4
NMTAP	51	192	5
NMTAP	51	288	3
NMTAP	51	288	6
NMTAP	52	0	1
NMTAP	52	48	1
NMTAP	52	96	3
NMTAP	52	144	2
NMTAP	52	192	5
NMTAP	52	240	5
NMTAP	52	288	4
NMTAP	52	336	4
NMSTR	53	0	6
NMSCL	53	0	6	96	48	3
NMTAP	53	96	2
NMTAP	53	144	1
NMSTR	53	192	0
NMSCR	53	192	0	96	48	3
NMTAP	53	288	4
NMTAP	54	0	6
NMTAP	54	48	6
NMTAP	54	96	4
NMTAP	54	144	5
NMTAP	54	192	2
NMTAP	54	240	2
NMTAP	54	288	3
NMTAP	54	336	3
NMSTR	55	0	0
NMSUR	55	0	0	96	48	4
NMTAP	55	96	5
NMTAP	55	144	6
NMSTR	55	192	7
NMSUL	55	192	7	96	48	3
NMTAP	55	288	1
NMTAP	56	0	2
NMTAP	56	48	2
NMTAP	56	96	3
NMTAP	56	144	1
NMTAP	56	192	5
NMTAP	56	240	5
NMTAP	56	288	4
NMTAP	56	336	4
NMSTR	57	0	7
NMSUL	57	0	7	96	48	3
NMTAP	57	96	2
NMTAP	57	144	1
NMSTR	57	192	0
NMSUR	57	192	0	96	48	4
NMTAP	57	288	5
NMTAP	57	336	6
NMTAP	58	0	7
NMTAP	58	48	7
NMTAP	58	96	1
NMTAP	58	144	5
NMTAP	58	192	3
NMTAP	58	192	4
NMTAP	58	240	3
NMTAP	58	240	4
NMTAP	58	288	2
NMTAP	58	288	5
NMSTR	59	0	3
NMSUR	59	0	3	96	192	4
NMHLD	59	0	6	192
NMTAP	59	288	6
NMHLD	60	0	3	192
NMSTR	60	0	5
NMSI_	60	0	5	96	96	2
NMTAP	60	288	2
NMTAP	60	288	3
NMHLD	61	0	2	192
NMSTR	61	0	3
NMSCR	61	0	3	96	144	7
NMTAP	61	288	0
NMTAP	61	288	1
NMHLD	62	0	2	192
NMSTR	62	0	7
NMSI_	62	0	7	96	96	3
NMTAP	62	288	2
NMTAP	62	288	3
NMSTR	63	0	1
NMSCR	63	0	1	96	192	6
NMTAP	63	0	4
NMTAP	63	192	6
CNSCL	63	288	6	0	192	1
NMTAP	63	288	7
NMSTR	64	0	7
NMSI_	64	0	7	96	96	3
NMTAP	64	192	0
NMTAP	64	288	0
NMTAP	64	288	4
NMSTR	65	0	1
NMSXL	65	0	1	96	192	0
NMSTR	65	0	5
NMSXL	65	0	5	96	192	4
NMSTR	66	0	3
NMSCR	66	0	3	96	96	6
NMSTR	66	0	7
NMSCR	66	0	7	96	96	2
NMTAP	66	288	1
NMTAP	66	288	5
EXSTR	67	0	4
BRSI_	67	0	4	96	48	0
NMTAP	67	96	2
EXSTR	67	192	3
BRSI_	67	192	3	96	48	7
NMTAP	67	288	5
NMSTR	68	0	0
NMSV_	68	0	0	96	48	3
NMSTR	68	0	6
NMSV_	68	0	6	96	48	3
EXTAP	68	96	0
EXTAP	68	96	6
NMSTR	68	192	2
NMSI_	68	192	2	96	48	4
NMSTR	68	192	5
NMSI_	68	192	5	96	48	1
EXTAP	68	288	2
EXTAP	68	288	5
EXTAP	69	0	3
EXTAP	69	0	7
NMTAP	69	96	0
NMTAP	69	96	1
NMTAP	69	192	2
NMTAP	69	192	3
NMTAP	69	288	4
NMTAP	69	288	5
NMSTR	70	0	6
NMSI_	70	0	6	96	48	1
NMSTR	70	96	2
NMSI_	70	96	2	96	48	5
NMSTR	70	192	6
NMSI_	70	192	6	96	48	1
NMTAP	70	288	2
NMTAP	71	0	3
NMSTR	71	0	7
NMSCL	71	0	7	96	96	4
NMSTR	71	96	4
NMSI_	71	96	4	96	96	0
NMSTR	71	192	0
NMSCR	71	192	0	96	96	3
NMSTR	71	288	3
NMSI_	71	288	3	96	96	7
NMSTR	72	0	7
NMSXR	72	0	7	96	192	4
NMTAP	72	96	3
NMTAP	72	192	2
NMTAP	72	288	1
BXTAP	73	0	1
NMSTR	73	96	2
NMSI_	73	96	2	96	96	5
NMSTR	73	192	5
NMSI_	73	192	5	96	96	0
NMSTR	73	288	0
NMSI_	73	288	0	96	96	3
NMSTR	74	0	3
NMSI_	74	0	3	96	96	6
NMSTR	74	96	6
NMSI_	74	96	6	96	96	1
NMSTR	74	192	1
NMSI_	74	192	1	96	96	5
NMTAP	74	288	5
NMHLD	75	0	7	576
NMTAP	75	336	5
NMTAP	76	0	5
NMSTR	76	96	4
NMSI_	76	96	4	96	48	0
NMTAP	76	192	4
NMSTR	76	288	1
NMSI_	76	288	1	96	48	4
NMSTR	76	288	5
NMSI_	76	288	5	96	48	0
BRTAP	77	0	1
BRTAP	77	0	5
NMTAP	77	96	3
NMTAP	77	96	7
NMTAP	77	192	0
NMTAP	77	192	6
NMTAP	77	240	1
NMTAP	77	240	5
NMSTR	77	288	2
NMSCL	77	288	2	96	96	6
NMSTR	78	0	6
NMSCR	78	0	6	96	96	2
NMTAP	78	96	3
NMSTR	78	192	5
NMSI_	78	192	5	96	48	3
NMSTR	78	288	1
NMSI_	78	288	1	96	48	5
NMTAP	78	288	5
NMTAP	79	0	1
NMTAP	79	0	7
NMTAP	79	96	6
NMTAP	79	144	5
NMTAP	79	192	1
NMTAP	79	192	4
NMTAP	79	240	2
NMSTR	79	288	3
BRSCL	79	288	3	96	48	1
NMSTR	79	288	4
BRSCR	79	288	4	96	48	6
BRSTR	80	0	3
BRSSR	80	0	3	96	96	7
BRSTR	80	0	4
BRSSL	80	0	4	96	96	0
NMTAP	80	288	1
NMTAP	80	288	6
NMHLD	81	0	2	96
NMTAP	81	0	3
NMSTR	81	96	0
NMSCL	81	96	0	96	48	5
NMTAP	81	144	0
NMSTR	81	192	3
NMSCL	81	192	3	96	48	0
NMTAP	81	240	3
NMSTR	81	288	6
NMSI_	81	288	6	96	48	2
NMSTR	82	0	1
NMSI_	82	0	1	96	48	5
NMTAP	82	96	7
EXTAP	82	192	0
EXTAP	82	192	6
NMSTR	82	288	1
NMSI_	82	288	1	96	48	4
NMSTR	82	288	3
NMSI_	82	288	3	96	48	7
NMTAP	83	0	1
NMTAP	83	0	3
NMTAP	83	96	6
NMTAP	83	144	5
NMTAP	83	192	3
NMTAP	83	240	2
NMTAP	83	288	1
NMTAP	83	288	4
NMSTR	84	0	0
NMSCL	84	0	0	96	48	5
NMSCR	84	0	0	96	48	3
NMSTR	84	96	0
NMSF_	84	96	0	96	48	4
BRTAP	84	192	0
NMTAP	84	336	6
NMSTR	85	0	6
NMSLL	85	0	6	96	96	0
NMTAP	85	96	3
NMSTR	85	192	1
NMSLR	85	192	1	96	96	7
NMTAP	85	288	7
NMSTR	86	0	6
NMSXR	86	0	6	96	96	6
NMTAP	86	96	0
NMTAP	86	192	0
NMTAP	86	288	1
NMTAP	86	288	7
NMTAP	87	0	3
NMTAP	87	0	5
NMTAP	87	96	2
NMTAP	87	144	3
NMTAP	87	192	4
NMTAP	87	240	5
NMTAP	87	288	2
NMTAP	87	288	6
NMSTR	88	0	0
NMSI_	88	0	0	96	48	6
NMSTR	88	0	1
NMSI_	88	0	1	96	48	3
NMSTR	88	96	0
NMSI_	88	96	0	96	48	4
NMSTR	88	96	1
NMSI_	88	96	1	96	48	5
BRTAP	88	192	0
BRTAP	88	192	1
NMSTR	89	0	6
BRSI_	89	0	6	96	48	2
NMSTR	89	96	2
BRSCL	89	96	2	96	96	3
NMTAP	89	96	6
NMTAP	89	192	0
NMTAP	89	288	2
NMSTR	90	0	0
BRSI_	90	0	0	96	48	4
NMTAP	90	96	0
NMSTR	90	96	6
BRSI_	90	96	6	96	48	2
NMTAP	90	192	0
NMTAP	90	192	6
NMTAP	90	288	1
NMTAP	90	288	3
NMTAP	91	0	0
NMTAP	91	0	4
NMTAP	91	96	2
NMTAP	91	96	6
NMTAP	91	144	5
NMTAP	91	192	1
NMTAP	91	192	4
NMTAP	91	240	0
NMTAP	91	288	6
NMTAP	91	288	7
NMTAP	91	336	5
BRHLD	92	0	0	96
BRHLD	92	0	4	96
NMTAP	92	144	1
NMTAP	92	144	5
NMSTR	92	192	1
NMSV_	92	192	1	96	48	4
NMSTR	92	192	5
NMSI_	92	192	5	96	48	0
NMSTR	92	288	1
NMSCL	92	288	1	96	240	3
NMTAP	92	288	5
NMTTP	93	0	0	C	1	M1
CNSUL	93	240	3	0	240	2
NMTAP	94	192	1
NMTAP	94	192	3
NMTAP	94	288	1
NMTAP	94	288	3
NMTAP	95	0	2
NMTAP	95	24	3
NMTAP	95	48	2
NMTAP	95	144	1
NMTAP	95	144	4
NMHLD	95	192	1	48
NMHLD	95	192	4	48
NMHLD	95	288	6	48
NMHLD	95	288	7	48
NMTAP	96	0	5
NMTAP	96	24	4
NMTAP	96	48	5
NMTAP	96	144	3
NMTAP	96	144	6
NMHLD	96	192	3	48
NMHLD	96	192	6	48
NMHLD	96	288	0	48
NMHLD	96	288	1	48
NMTAP	97	0	2
NMTAP	97	24	3
NMTAP	97	48	2
NMTAP	97	144	0
NMTAP	97	144	1
NMHLD	97	192	0	48
NMHLD	97	192	1	48
NMHLD	97	288	6	48
NMHLD	97	288	7	48
NMTAP	98	0	5
NMTAP	98	24	4
NMTAP	98	48	5
NMTAP	98	144	6
NMTAP	98	144	7
NMHLD	98	192	6	48
NMHLD	98	192	7	48
NMHLD	98	288	0	48
NMHLD	98	288	1	48
NMTAP	99	0	2
NMTAP	99	24	3
NMTAP	99	48	1
NMTAP	99	144	0
NMTAP	99	144	6
NMHLD	99	192	0	48
NMHLD	99	192	6	48
NMHLD	99	288	2	48
NMHLD	99	288	3	48
NMTAP	100	0	5
NMTAP	100	24	4
NMTAP	100	48	6
NMTAP	100	144	1
NMTAP	100	144	7
NMHLD	100	192	1	48
NMHLD	100	192	7	48
NMHLD	100	288	4	48
NMHLD	100	288	5	48
EXTAP	101	0	2
EXSTR	101	0	3
NMSCR	101	0	3	96	48	6
NMSTR	101	96	0
NMSI_	101	96	0	96	48	4
NMTAP	101	144	0
NMTAP	101	192	7
NMTAP	101	240	7
NMTAP	101	288	3
NMSTR	102	0	1
NMSI_	102	0	1	96	48	4
NMSTR	102	0	5
NMSI_	102	0	5	96	48	1
NMSTR	102	96	1
BRSCL	102	96	1	96	96	2
NMTAP	102	96	5
NMTAP	102	192	3
BRTAP	102	288	0
NMTAP	103	0	1
NMTAP	103	0	3
NMTAP	103	96	6
NMTAP	103	96	7
NMTAP	103	144	5
NMTAP	103	192	3
NMTAP	103	192	4
NMTAP	103	240	2
NMTAP	103	288	0
NMSTR	103	288	1
NMSI_	103	288	1	96	48	4
NMTAP	104	0	1
NMSTR	104	0	5
NMSI_	104	0	5	96	48	0
NMSTR	104	96	3
NMSI_	104	96	3	96	48	0
NMSI_	104	96	3	96	48	6
NMTAP	104	96	5
NMTAP	104	192	3
NMSTR	105	0	7
NMSUL	105	0	7	96	96	3
NMSTR	105	96	3
NMSCL	105	96	3	96	96	7
NMSTR	105	192	7
NMSCL	105	192	7	96	96	3
NMSTR	105	288	3
BRSLR	105	288	3	96	96	7
NMSTR	106	0	7
NMSLR	106	0	7	96	96	3
NMTAP	106	96	3
NMTAP	106	192	7
NMSTR	106	288	4
NMSCL	106	288	4	96	48	1
NMSTR	106	288	5
NMSCR	106	288	5	96	48	0
NMTAP	107	0	4
NMTAP	107	0	5
NMSTR	107	96	2
NMSI_	107	96	2	96	48	6
NMSTR	107	96	3
NMSI_	107	96	3	96	48	7
NMTAP	107	192	2
NMTAP	107	192	3
NMSTR	107	288	4
BRSF_	107	288	4	96	48	0
NMTAP	107	288	5
NMTTP	108	0	4	A	1	M1
NMTTP	108	0	4	D	0	M1
NMTTP	108	0	5	D	0	M1
NMTAP	108	144	7
NMTAP	108	192	6
NMTAP	108	240	5
NMTAP	108	288	1
NMTAP	108	336	2
NMTAP	109	0	3
NMSTR	109	0	4
NMSCR	109	0	4	96	48	7
NMTAP	109	96	2
NMTAP	109	144	1
NMSTR	109	192	0
NMSCR	109	192	0	96	48	3
NMTAP	109	288	7
NMTAP	109	336	6
NMSTR	110	0	5
NMSI_	110	0	5	96	48	0
NMTAP	110	48	5
NMSTR	110	96	1
NMSI_	110	96	1	96	48	4
NMTAP	110	144	1
NMSTR	110	192	6
NMSI_	110	192	6	96	48	3
NMTAP	110	240	6
NMTAP	110	288	2
NMTAP	110	336	2
NMSTR	111	0	1
NMSI_	111	0	1	96	48	3
NMTAP	111	0	4
NMTAP	111	96	5
NMTAP	111	144	6
NMSTR	111	192	7
NMSI_	111	192	7	96	48	5
NMTAP	111	288	2
NMTAP	111	336	1
NMSTR	112	0	0
NMSI_	112	0	0	96	48	3
NMTAP	112	48	0
NMSTR	112	96	4
NMSI_	112	96	4	96	48	7
NMTAP	112	144	4
NMSTR	112	192	2
NMSI_	112	192	2	96	48	5
NMTAP	112	240	2
NMSTR	112	288	6
NMSI_	112	288	6	96	48	1
NMTAP	112	336	6
NMSTR	113	0	3
NMSI_	113	0	3	96	48	1
NMTAP	113	96	7
NMTAP	113	144	6
NMSTR	113	192	5
NMSI_	113	192	5	96	48	7
NMTAP	113	288	0
NMTAP	113	336	1
NMSTR	114	0	2
NMSI_	114	0	2	96	48	7
NMTAP	114	48	2
NMSTR	114	96	6
NMSI_	114	96	6	96	48	3
NMTAP	114	144	6
NMSTR	114	192	1
NMSI_	114	192	1	96	48	4
NMTAP	114	240	1
NMTAP	114	288	5
NMTAP	114	336	5
NMTAP	115	0	3
NMSTR	115	0	6
NMSI_	115	0	6	96	48	4
NMTAP	115	96	2
NMTAP	115	144	1
NMSTR	115	192	0
NMSI_	115	192	0	96	48	2
NMTAP	115	288	5
NMTAP	115	336	6
NMSTR	116	0	7
NMSI_	116	0	7	96	48	3
NMTAP	116	48	7
NMTAP	116	96	2
NMTAP	116	144	2
NMTAP	116	192	1
NMTAP	116	192	5
NMTAP	116	240	0
NMTAP	116	264	7
NMSTR	116	288	0
NMSI_	116	288	0	96	48	3
NMSI_	116	288	0	96	48	5
NMTAP	116	336	1
NMTAP	116	336	6
NMTAP	117	0	0

T_REC_TAP	452
T_REC_BRK	11
T_REC_XTP	20
T_REC_BXX	1
T_REC_HLD	37
T_REC_XHO	2
T_REC_BHO	4
T_REC_BXH	0
T_REC_STR	162
T_REC_BST	2
T_REC_XST	4
T_REC_XBS	0
T_REC_TTP	9
T_REC_THO	0
T_REC_SLD	155
T_REC_BSL	20
T_REC_ALL	879
T_NUM_TAP	647
T_NUM_BRK	38
T_NUM_HLD	39
T_NUM_SLD	155
T_NUM_ALL	879
T_JUDGE_TAP	661
T_JUDGE_HLD	86
T_JUDGE_SLD	175
T_JUDGE_ALL	922
TTM_EACHPAIRS	160
TTM_SCR_TAP	323500
TTM_SCR_BRK	98800
TTM_SCR_HLD	39000
TTM_SCR_SLD	232500
TTM_SCR_ALL	693800
TTM_SCR_S	669300
TTM_SCR_SS	690000
TTM_RAT_ACV	10055

