VERSION	0.00.00	1.04.00
FES_MODE	0
BPM_DEF	204.000	204.000	204.000	204.000
MET_DEF	4	4
RESOLUTION	384
CLK_DEF	384
COMPATIBLE_CODE	MA2

BPM	0	0	204.000
MET	0	0	4	4

NMHLD	1	0	3	480
NMHLD	2	0	4	96
NMTAP	2	192	3
NMTAP	2	192	4
NMTAP	2	288	3
NMTAP	2	288	4
EXTAP	3	0	2
NMTAP	3	96	1
NMTAP	3	192	7
NMTAP	3	288	0
NMTAP	3	288	6
NMTAP	4	0	5
NMTAP	4	96	6
NMTAP	4	192	0
NMTAP	4	288	1
NMTAP	4	288	7
NMTAP	5	0	2
NMTAP	5	96	1
NMTAP	5	192	7
NMTAP	5	288	0
NMTAP	5	288	6
NMHLD	6	0	1	96
NMHLD	6	0	7	96
NMTAP	6	192	2
NMTAP	6	192	6
NMTAP	7	0	2
NMTAP	7	96	1
NMTAP	7	192	7
NMTAP	7	288	0
NMTAP	7	288	6
NMTAP	8	0	5
NMTAP	8	96	6
NMTAP	8	192	0
NMTAP	8	288	1
NMTAP	8	288	7
NMTAP	9	0	2
NMTAP	9	96	2
NMTAP	9	96	3
NMTAP	9	192	5
NMTAP	9	288	4
NMSTR	9	288	5
NMSCL	9	288	5	96	192	2
NMTAP	10	288	0
NMHLD	11	0	1	192
NMHLD	11	192	3	192
NMTTP	12	0	2	E	0	M1
NMTTP	12	96	3	E	0	M1
NMTTP	12	192	4	E	0	M1
NMHLD	13	0	5	192
NMHLD	13	192	4	192
NMTTP	14	0	7	E	0	M1
NMTTP	14	96	6	E	0	M1
NMTTP	14	192	5	E	0	M1
NMHLD	15	0	2	192
NMHLD	15	192	3	192
NMTTP	16	0	1	E	0	M1
NMTTP	16	96	0	C	0	M1
NMTTP	16	192	5	E	0	M1
NMHLD	17	0	4	192
NMHLD	17	0	5	576
NMTHO	18	0	0	192	C	0	M1
NMTAP	19	0	6
NMTAP	19	96	6
NMTAP	19	192	6
NMTAP	19	192	7
NMTAP	19	288	6
NMTAP	19	288	7
NMTAP	20	0	0
NMTAP	20	96	1
NMTAP	20	96	3
NMTAP	20	192	2
NMTAP	20	192	4
NMTAP	20	288	2
NMTAP	20	288	4
NMTAP	21	0	5
NMTAP	21	96	5
NMTAP	21	192	4
NMTAP	21	192	5
NMTAP	21	288	4
NMTAP	21	288	5
NMHLD	22	0	3	96
NMHLD	22	0	6	96
NMHLD	22	192	4	96
NMHLD	22	192	5	96
NMTAP	23	0	3
NMTAP	23	96	3
NMTAP	23	192	2
NMTAP	23	192	4
NMTAP	23	288	1
NMTAP	23	288	3
NMTAP	24	0	0
NMTAP	24	96	0
NMTAP	24	192	1
NMTAP	24	192	7
NMTAP	24	288	1
NMTAP	24	288	7
NMHLD	25	0	0	96
NMHLD	25	0	6	96
NMHLD	25	192	6	96
NMHLD	25	192	7	96
NMTAP	26	0	4
NMTAP	26	0	5
NMTAP	26	96	4
NMTAP	26	96	5
BRTAP	26	192	3
BRTAP	26	192	6
NMSTR	27	0	2
NMSI_	27	0	2	96	192	5
NMSTR	28	0	6
NMSI_	28	0	6	96	192	3
NMSTR	29	0	1
NMSI_	29	0	1	96	192	4
NMSTR	30	0	5
NMSI_	30	0	5	96	192	2
NMTAP	31	0	1
NMTAP	31	96	1
NMHLD	31	192	2	96
NMHLD	31	192	3	96
NMTAP	32	0	4
NMTAP	32	96	4
NMHLD	32	192	3	96
NMHLD	32	192	5	96
NMTAP	33	0	3
NMHLD	33	0	4	192
NMHLD	33	192	3	192
NMTAP	34	0	4
NMTAP	34	96	3
NMTAP	34	96	4
EXTAP	34	192	1
EXTAP	34	192	6
BRTAP	35	0	0
BRTAP	35	0	1
NMTAP	35	96	2
NMTAP	35	96	7
NMTAP	35	192	6
NMTAP	35	192	7
NMTAP	35	288	0
NMTAP	35	288	5
NMTAP	36	0	4
NMTAP	36	0	5
NMTAP	36	96	3
NMTAP	36	96	6
NMTAP	36	192	2
NMTAP	36	192	3
NMTAP	36	288	1
NMTAP	36	288	4
NMHLD	37	0	1	96
NMTAP	37	96	0
NMHLD	37	192	6	96
NMTAP	37	288	7
NMTAP	38	0	4
NMTAP	38	0	5
NMSTR	38	96	4
NMSCL	38	96	4	96	96	1
NMSTR	38	96	5
NMSCR	38	96	5	96	96	0
EXTAP	39	0	2
EXTAP	39	0	7
NMTAP	39	96	2
NMTAP	39	96	7
NMTAP	39	192	1
NMTAP	39	192	6
NMTAP	39	288	0
NMTAP	39	288	5
NMTAP	40	0	1
NMTAP	40	0	4
NMTAP	40	96	2
NMTAP	40	96	3
NMTAP	40	192	3
NMTAP	40	192	6
NMTAP	40	288	4
NMTAP	40	288	5
NMHLD	41	0	3	96
NMHLD	41	96	2	96
NMHLD	41	192	1	96
NMTAP	41	288	0
BRTAP	42	0	1
BRTAP	42	0	7
BRTAP	42	96	3
BRTAP	42	96	5
BRTAP	42	192	2
BRTAP	42	192	6
NMHLD	43	0	6	96
NMTAP	43	96	7
NMHLD	43	192	1	96
NMTAP	43	288	0
NMTAP	44	0	2
NMTAP	44	0	3
NMTAP	44	96	1
NMTAP	44	96	4
NMTAP	44	192	4
NMTAP	44	192	5
NMTAP	44	288	3
NMTAP	44	288	6
NMTAP	45	0	6
NMTAP	45	0	7
NMTAP	45	96	6
NMTAP	45	96	7
NMTAP	45	192	4
NMTAP	45	192	5
NMTAP	45	288	2
NMTAP	45	288	3
NMTAP	46	0	0
NMTAP	46	0	1
NMSTR	46	96	0
NMSI_	46	96	0	96	96	4
NMSTR	46	96	1
NMSI_	46	96	1	96	96	5
NMHLD	47	0	6	96
NMTAP	47	96	7
NMTAP	47	192	0
NMTAP	47	192	5
NMTAP	47	288	2
NMTAP	47	288	3
NMHLD	48	0	1	96
NMTAP	48	96	0
NMTAP	48	192	2
NMTAP	48	192	7
NMTAP	48	288	4
NMTAP	48	288	5
NMSTR	49	0	3
NMSCL	49	0	3	96	96	0
NMSTR	49	192	7
NMSCL	49	192	7	96	96	4
BXHLD	50	0	2	144
EXTAP	50	144	3
EXTAP	50	192	3
NMTAP	50	288	2
NMTAP	50	288	4
BRTAP	51	0	0
BRTAP	51	0	6
NMTAP	51	192	5
NMTAP	51	288	6
NMTAP	51	288	7
NMTAP	52	0	0
NMTAP	52	96	0
NMTAP	52	192	1
NMTAP	52	192	7
NMTAP	52	288	2
NMTAP	52	288	6
NMHLD	53	0	5	96
NMTAP	53	96	4
NMHLD	53	192	2	96
NMTAP	53	288	3
NMTAP	54	0	0
NMTAP	54	0	1
NMTAP	54	96	0
NMTAP	54	96	1
NMTAP	54	192	2
NMTAP	54	192	7
NMHLD	55	0	6	96
NMTAP	55	96	7
NMHLD	55	192	1	96
NMTAP	55	288	0
NMHLD	56	0	6	96
NMTAP	56	96	4
NMHLD	56	192	1	96
NMTAP	56	288	3
NMHLD	57	0	5	96
NMTAP	57	96	4
NMHLD	57	192	2	96
NMTAP	57	288	3
NMTAP	58	0	4
NMTAP	58	48	3
NMTAP	58	96	4
BRTAP	58	192	2
BRTAP	58	192	5
EXSTR	59	0	5
NMSCL	59	0	5	96	144	2
NMTAP	59	288	1
NMSTR	60	0	1
NMSCL	60	0	1	96	144	6
NMTAP	60	288	5
NMSTR	61	0	5
NMSCL	61	0	5	96	144	2
NMTAP	61	288	1
NMSTR	62	0	1
NMSCL	62	0	1	96	144	6
NMTAP	62	288	5
EXTAP	63	0	4
EXSTR	63	0	5
NMSCR	63	0	5	96	144	0
NMTAP	63	288	1
NMTAP	64	0	0
NMSTR	64	0	1
NMSCR	64	0	1	96	144	4
NMTAP	64	288	5
NMSTR	65	0	4
BRSI_	65	0	4	96	96	2
NMTAP	65	0	5
CNSI_	65	192	2	0	96	0
CNSI_	65	288	0	0	96	6
EXTAP	66	192	0
EXTAP	66	192	7
BXTAP	67	0	1
NMHLD	67	96	1	96
NMHLD	67	192	0	96
NMHLD	67	288	7	96
NMHLD	68	0	6	96
NMHLD	68	96	5	96
NMHLD	68	192	4	96
NMHLD	68	288	3	96
NMHLD	69	0	2	96
NMHLD	69	96	1	96
NMHLD	69	192	0	96
NMHLD	69	288	7	96
NMHLD	70	0	6	96
NMHLD	70	96	5	96
NMHLD	70	192	4	96
NMHLD	70	288	3	96
EXHLD	71	0	2	96
NMHLD	71	96	1	96
NMHLD	71	192	0	96
NMHLD	71	288	7	96
NMHLD	72	0	6	96
NMHLD	72	96	5	96
NMHLD	72	192	4	96
NMHLD	72	288	3	96
NMHLD	73	0	2	96
NMHLD	73	96	1	96
NMHLD	73	192	0	96
NMHLD	73	288	7	96
NMHLD	74	0	6	96
NMHLD	74	96	5	96
NMHLD	74	192	4	96
NMTAP	74	288	3
NMHLD	75	0	2	384
BXHLD	75	0	5	192
BXTAP	76	0	5
BXTAP	76	96	5
EXTAP	76	192	2
BXTAP	76	192	5
EXTAP	76	288	0
EXTAP	76	288	7
BRTAP	77	0	0
BRTAP	77	0	1
NMTAP	77	96	4
NMTAP	77	96	5
NMTAP	77	192	6
NMTAP	77	192	7
NMTAP	77	288	2
NMTAP	77	288	3
NMTAP	78	0	0
NMTAP	78	0	1
NMTAP	78	96	6
NMTAP	78	96	7
NMTAP	78	192	4
NMTAP	78	192	5
NMTAP	78	288	2
NMTAP	78	288	3
NMTAP	79	0	1
NMTAP	79	0	4
BXTAP	79	96	2
BXTAP	79	96	3
BXTAP	79	192	4
BXTAP	79	192	5
BXTAP	79	288	6
BXTAP	79	288	7
BXTAP	80	0	0
BXTAP	80	0	1
BXSTR	80	96	2
BRSI_	80	96	2	96	96	7
BXTAP	80	96	3
EXHLD	81	0	6	96
NMHLD	81	96	4	96
NMHLD	81	192	3	96
NMTAP	81	288	1
NMHLD	82	0	1	96
NMHLD	82	96	3	96
NMHLD	82	192	4	96
NMTAP	82	288	6
NMTAP	83	0	6
NMTAP	83	0	7
NMTAP	83	96	0
NMTAP	83	96	5
NMTAP	83	192	0
NMTAP	83	192	1
NMTAP	83	288	2
NMTAP	83	288	7
BRTAP	84	0	0
BRTAP	84	0	6
BRTAP	84	96	2
BRTAP	84	96	4
BRTAP	84	192	1
BRTAP	84	192	5
EXHLD	85	0	1	96
NMTAP	85	96	3
NMHLD	85	192	6	96
NMTAP	85	288	4
NMTAP	86	0	2
NMTAP	86	0	3
NMTAP	86	96	0
NMTAP	86	96	1
NMTAP	86	192	6
NMTAP	86	192	7
NMTAP	86	288	4
NMTAP	86	288	5
NMHLD	87	0	1	96
NMTAP	87	96	3
NMHLD	87	192	5	96
NMTAP	87	288	3
NMTAP	88	0	1
NMTAP	88	0	4
NMTAP	88	96	2
NMSTR	88	96	3
NMSI_	88	96	3	96	96	7
EXTAP	89	0	0
EXTAP	89	0	6
NMTAP	89	96	5
NMTAP	89	144	4
NMTAP	89	192	5
NMTAP	89	288	3
NMTAP	89	288	6
NMTAP	90	0	1
NMTAP	90	0	7
NMTAP	90	96	2
NMTAP	90	144	3
NMTAP	90	192	2
NMTAP	90	288	1
NMTAP	90	288	4
NMSTR	91	0	5
NMSCR	91	0	5	96	96	0
NMSTR	91	192	2
NMSCR	91	192	2	96	96	5
EXHLD	92	0	6	144
EXTAP	92	144	7
EXTAP	92	192	7
BXTAP	92	288	0
BXTAP	92	288	5
EXSTR	93	0	1
NMSI_	93	0	1	96	96	4
NMSTR	93	192	7
NMSI_	93	192	7	96	96	3
NMSTR	94	0	0
NMSI_	94	0	0	96	96	4
NMSTR	94	192	6
NMSI_	94	192	6	96	96	3
NMSTR	95	0	0
NMSI_	95	0	0	96	96	4
NMSTR	95	192	7
NMSI_	95	192	7	96	96	3
NMSTR	96	0	1
NMSI_	96	0	1	96	96	4
BXTAP	96	192	7
NMTAP	97	0	5
NMTAP	97	48	4
NMTAP	97	96	5
NMTAP	97	192	3
NMTAP	97	192	6
NMTAP	97	288	4
NMTAP	97	288	5
NMTAP	98	0	2
NMTAP	98	48	3
NMTAP	98	96	2
NMTAP	98	192	1
NMTAP	98	192	4
NMTAP	98	288	2
NMTAP	98	288	3
NMTAP	99	0	5
NMTAP	99	48	4
NMTAP	99	96	5
NMTAP	99	192	3
NMTAP	99	192	6
NMSTR	99	288	2
BRSCL	99	288	2	96	192	5
NMTAP	99	288	5
EXTAP	100	288	3
EXTAP	100	288	4
EXTAP	101	0	1
EXTAP	101	0	6
NMTAP	101	96	2
NMTAP	101	96	3
NMTAP	101	192	0
NMTAP	101	192	7
NMTAP	101	288	4
NMTAP	101	288	5
NMHLD	102	0	6	96
NMTAP	102	0	7
NMTAP	102	96	4
NMTAP	102	192	0
NMHLD	102	192	1	96
NMTAP	102	288	3
NMTAP	103	0	4
NMTAP	103	0	6
NMTAP	103	96	0
NMTAP	103	96	7
NMTAP	103	192	1
NMTAP	103	192	3
NMTAP	103	288	3
NMTAP	103	288	4
BRTAP	104	0	4
BRTAP	104	0	6
BRTAP	104	96	0
BRTAP	104	96	7
BRTAP	104	192	2
BRTAP	104	192	6
EXTAP	105	0	0
EXTAP	105	0	7
NMTAP	105	96	2
NMTAP	105	96	3
NMTAP	105	192	0
NMTAP	105	192	7
NMTAP	105	288	4
NMTAP	105	288	5
NMHLD	106	0	2	96
NMHLD	106	96	0	96
NMHLD	106	192	7	96
NMTAP	106	288	5
NMTAP	107	0	4
NMTAP	107	0	6
NMTAP	107	96	4
NMTAP	107	96	6
NMTAP	107	192	0
NMTAP	107	192	7
NMTAP	107	288	1
NMTAP	107	288	3
NMTAP	108	0	3
NMTAP	108	0	4
NMSTR	108	96	5
NMSCL	108	96	5	96	96	2
BRTAP	109	0	0
BRTAP	109	0	1
NMTAP	109	96	0
NMTAP	109	96	1
NMTAP	109	192	2
NMTAP	109	192	7
NMTAP	109	288	4
NMTAP	109	288	5
NMHLD	110	0	6	288
NMTAP	110	96	7
NMTAP	110	192	0
NMTAP	110	288	7
NMTAP	111	0	6
NMTAP	111	0	7
NMTAP	111	96	6
NMTAP	111	96	7
NMTAP	111	192	0
NMTAP	111	192	5
NMTAP	111	288	2
NMTAP	111	288	3
NMHLD	112	0	1	288
NMTAP	112	96	0
NMTAP	112	192	7
NMTAP	112	288	0
NMSTR	113	0	7
NMSCL	113	0	7	96	96	4
NMSTR	113	192	0
NMSCR	113	192	0	96	96	3
NMHLD	114	0	5	288
NMTAP	114	96	4
NMTAP	114	192	3
NMTAP	114	288	4
NMTAP	115	0	3
NMTAP	115	0	6
NMTAP	115	96	3
NMTAP	115	96	6
NMTAP	115	192	1
NMTAP	115	192	4
NMTAP	115	288	1
NMTAP	115	288	4
NMTAP	116	0	0
NMTAP	116	0	6
NMTAP	116	48	0
NMTAP	116	48	6
NMTAP	116	96	0
NMTAP	116	96	6
NMTAP	116	192	1
NMTAP	116	192	7
NMTAP	116	240	1
NMTAP	116	240	7
NMSTR	116	288	1
BRSI_	116	288	1	96	48	5
NMTAP	116	288	7

T_REC_TAP	329
T_REC_BRK	30
T_REC_XTP	23
T_REC_BXX	16
T_REC_HLD	89
T_REC_XHO	4
T_REC_BHO	0
T_REC_BXH	2
T_REC_STR	30
T_REC_BST	0
T_REC_XST	3
T_REC_XBS	1
T_REC_TTP	9
T_REC_THO	1
T_REC_SLD	30
T_REC_BSL	4
T_REC_ALL	571
T_NUM_TAP	394
T_NUM_BRK	53
T_NUM_HLD	94
T_NUM_SLD	30
T_NUM_ALL	571
T_JUDGE_TAP	441
T_JUDGE_HLD	252
T_JUDGE_SLD	34
T_JUDGE_ALL	727
TTM_EACHPAIRS	165
TTM_SCR_TAP	197000
TTM_SCR_BRK	137800
TTM_SCR_HLD	94000
TTM_SCR_SLD	45000
TTM_SCR_ALL	473800
TTM_SCR_S	454450
TTM_SCR_SS	468500
TTM_RAT_ACV	10113

