VERSION	0.00.00	1.04.00
FES_MODE	0
BPM_DEF	204.000	204.000	204.000	204.000
MET_DEF	4	4
RESOLUTION	384
CLK_DEF	384
COMPATIBLE_CODE	MA2

BPM	0	0	204.000
MET	0	0	4	4

NMTAP	3	0	1
NMTAP	3	96	1
NMTAP	3	192	0
NMTAP	3	192	1
NMTAP	4	0	2
NMTAP	4	96	2
NMTAP	4	192	2
NMTAP	4	192	3
NMTAP	5	0	4
NMTAP	5	96	4
NMTAP	5	192	4
NMTAP	5	192	5
NMTAP	6	0	6
NMTAP	6	0	7
NMTAP	6	96	6
NMTAP	6	96	7
NMTAP	6	192	6
NMTAP	6	192	7
NMTAP	7	0	6
NMTAP	7	96	6
NMTAP	7	192	6
NMTAP	7	192	7
NMTAP	8	0	5
NMTAP	8	96	5
NMTAP	8	192	4
NMTAP	8	192	5
NMTAP	9	0	3
NMTAP	9	96	3
NMTAP	9	192	2
NMTAP	9	192	3
NMTAP	10	0	0
NMTAP	10	0	1
NMTAP	10	96	0
NMTAP	10	96	1
NMTAP	10	192	0
NMTAP	10	192	1
NMSTR	11	0	1
NMSI_	11	0	1	96	288	4
NMTAP	12	192	5
NMSTR	13	0	6
NMSI_	13	0	6	96	288	3
NMTAP	14	192	2
NMSTR	15	0	1
NMSI_	15	0	1	96	288	5
NMTAP	16	192	6
NMSTR	17	0	7
NMSI_	17	0	7	96	288	3
NMTAP	18	192	2
NMTAP	18	192	3
NMTAP	19	0	2
NMTAP	19	96	2
NMTAP	19	192	2
NMTAP	20	0	1
NMTAP	20	96	1
NMTAP	20	192	1
NMTAP	21	0	0
NMTAP	21	96	0
NMTAP	21	192	0
NMTAP	22	0	6
NMTAP	22	0	7
NMTAP	22	192	6
NMTAP	22	192	7
NMTAP	23	0	5
NMTAP	23	96	5
NMTAP	23	192	5
NMTAP	24	0	6
NMTAP	24	96	6
NMTAP	24	192	6
NMTAP	25	0	7
NMTAP	25	96	7
NMTAP	25	192	7
NMTAP	26	0	0
NMTAP	26	0	1
NMTAP	26	192	0
NMTAP	26	192	1
NMHLD	27	0	2	192
NMHLD	27	192	3	192
NMHLD	28	0	4	192
NMTAP	28	192	5
NMHLD	29	0	5	192
NMHLD	29	192	4	192
NMHLD	30	0	3	192
NMTAP	30	192	2
NMHLD	31	0	1	192
NMHLD	31	192	2	192
NMHLD	32	0	3	192
NMTAP	32	192	4
NMHLD	33	0	6	192
NMHLD	33	192	5	192
NMHLD	34	0	4	192
NMTAP	34	192	3
BXTAP	35	0	2
NMTAP	35	96	2
NMTAP	35	192	1
NMTAP	35	288	1
NMTAP	36	0	0
NMTAP	36	96	0
NMTAP	36	192	6
NMTAP	36	192	7
NMTAP	37	0	5
NMTAP	37	96	5
NMTAP	37	192	6
NMTAP	37	288	6
NMTAP	38	0	7
NMTAP	38	96	7
NMTAP	38	192	0
NMTAP	38	192	1
NMTAP	39	0	1
NMTAP	39	96	1
NMTAP	39	192	2
NMTAP	39	288	2
NMTAP	40	0	3
NMTAP	40	96	3
NMTAP	40	192	4
NMTAP	40	192	5
NMTAP	41	0	6
NMTAP	41	96	6
NMTAP	41	192	5
NMTAP	41	288	5
NMTAP	42	0	4
NMTAP	42	96	4
NMTAP	42	192	2
NMTAP	42	192	3
NMTAP	43	0	2
NMTAP	43	96	2
NMTAP	43	192	1
NMTAP	43	288	1
NMTAP	44	0	0
NMTAP	44	96	0
NMTAP	44	192	6
NMTAP	44	192	7
NMTAP	45	0	5
NMTAP	45	96	5
NMTAP	45	192	6
NMTAP	45	288	6
NMTAP	46	0	7
NMTAP	46	96	7
NMTAP	46	192	0
NMTAP	46	192	1
NMTAP	47	0	1
NMTAP	47	96	1
NMTAP	47	192	2
NMTAP	47	288	2
NMTAP	48	0	3
NMTAP	48	96	3
NMTAP	48	192	4
NMTAP	48	192	5
NMTAP	49	0	6
NMTAP	49	96	6
NMTAP	49	192	5
NMTAP	49	288	5
NMTAP	50	0	4
NMTAP	50	96	4
NMTAP	50	192	2
NMTAP	50	192	3
NMTAP	51	0	4
NMTAP	51	96	4
NMTAP	51	192	5
NMTAP	51	288	5
NMTAP	52	0	6
NMTAP	52	96	6
NMTAP	52	192	7
NMTAP	52	288	7
NMTAP	53	0	0
NMTAP	53	96	0
NMTAP	53	192	1
NMTAP	53	288	1
NMTAP	54	0	2
NMTAP	54	96	2
NMTAP	54	192	3
NMTAP	54	192	4
NMTAP	55	0	3
NMTAP	55	96	3
NMTAP	55	192	2
NMTAP	55	288	2
NMTAP	56	0	1
NMTAP	56	96	1
NMTAP	56	192	0
NMTAP	56	288	0
NMTAP	57	0	7
NMTAP	57	96	7
NMTAP	57	192	6
NMTAP	57	288	6
NMTAP	58	0	5
NMTAP	58	96	5
NMTAP	58	192	3
NMTAP	58	192	4
NMSTR	59	0	2
NMSUR	59	0	2	96	480	5
NMSTR	61	0	6
NMSUL	61	0	6	96	480	3
NMSTR	63	0	1
NMSUR	63	0	1	96	480	4
NMSTR	65	0	5
NMSUL	65	0	5	96	480	3
NMTTP	67	0	1	B	0	L1
NMTTP	67	96	2	B	0	L1
NMTTP	67	192	3	B	0	L1
NMTTP	68	0	6	B	0	L1
NMTTP	68	96	5	B	0	L1
NMTTP	68	192	4	B	0	L1
NMTTP	69	0	0	B	0	L1
NMTTP	69	96	1	B	0	L1
NMTTP	69	192	2	B	0	L1
NMTTP	69	288	3	B	0	L1
NMTTP	70	0	4	B	0	L1
NMTTP	70	0	5	B	0	L1
NMTTP	71	0	7	B	0	L1
NMTTP	71	96	6	B	0	L1
NMTTP	71	192	4	B	0	L1
NMTTP	71	192	5	B	0	L1
NMTTP	72	0	0	B	0	L1
NMTTP	72	96	1	B	0	L1
NMTTP	72	192	2	B	0	L1
NMTTP	72	192	3	B	0	L1
NMTTP	73	0	7	B	0	L1
NMTTP	73	96	6	B	0	L1
NMTTP	73	192	5	B	0	L1
NMTTP	73	288	4	B	0	L1
NMTTP	74	0	2	B	0	L1
NMTTP	74	0	3	B	0	L1
NMTHO	75	0	0	384	C	0	L1
EXTAP	77	0	1
NMTAP	77	96	1
NMTAP	77	192	0
NMTAP	77	192	1
NMTAP	77	288	0
NMTAP	77	288	1
NMTAP	78	0	7
NMTAP	78	96	7
NMTAP	78	192	6
NMTAP	78	192	7
NMTAP	79	0	5
NMTAP	79	96	5
NMTAP	79	192	6
NMTAP	79	192	7
NMTAP	79	288	6
NMTAP	79	288	7
NMTAP	80	0	0
NMTAP	80	96	0
NMTAP	80	192	0
NMTAP	80	192	1
NMTAP	81	0	1
NMTAP	81	96	1
NMTAP	81	192	2
NMTAP	81	192	3
NMTAP	81	288	2
NMTAP	81	288	3
NMTAP	82	0	4
NMTAP	82	96	4
NMTAP	82	192	4
NMTAP	82	192	5
NMTAP	83	0	6
NMTAP	83	96	6
NMTAP	83	192	4
NMTAP	83	192	5
NMTAP	83	288	4
NMTAP	83	288	5
NMTAP	84	0	3
NMTAP	84	96	3
NMTAP	84	192	2
NMTAP	84	192	3
NMTAP	85	0	2
NMTAP	85	96	2
NMTAP	85	192	0
NMTAP	85	192	1
NMTAP	85	288	0
NMTAP	85	288	1
NMTAP	86	0	7
NMTAP	86	96	6
NMTAP	86	192	4
NMTAP	86	192	5
NMTAP	87	0	5
NMTAP	87	96	5
NMTAP	87	192	6
NMTAP	87	192	7
NMTAP	87	288	6
NMTAP	87	288	7
NMTAP	88	0	0
NMTAP	88	96	1
NMTAP	88	192	2
NMTAP	88	192	3
NMTAP	89	0	1
NMTAP	89	96	1
NMTAP	89	192	2
NMTAP	89	192	3
NMTAP	89	288	2
NMTAP	89	288	3
NMTAP	90	0	4
NMTAP	90	96	5
NMTAP	90	192	6
NMTAP	90	192	7
NMTAP	91	0	6
NMTAP	91	96	6
NMTAP	91	192	4
NMTAP	91	192	5
NMTAP	91	288	4
NMTAP	91	288	5
NMTAP	92	0	3
NMTAP	92	96	2
NMTAP	92	192	0
NMTAP	92	192	1
NMTAP	93	0	0
NMTAP	93	96	1
NMTAP	93	192	2
NMTAP	93	288	3
NMTAP	94	0	4
NMTAP	94	96	5
NMTAP	94	192	6
NMTAP	94	192	7
NMTAP	95	0	7
NMTAP	95	96	6
NMTAP	95	192	5
NMTAP	95	288	4
NMTAP	96	0	3
NMTAP	96	96	2
NMTAP	96	192	0
NMTAP	96	192	1
NMTAP	97	0	0
NMTAP	97	96	1
NMTAP	97	192	2
NMTAP	97	288	3
NMTAP	98	0	4
NMTAP	98	96	5
NMTAP	98	192	6
NMTAP	98	288	7
NMTAP	99	0	0
NMTAP	99	96	1
NMTAP	99	192	2
NMTAP	99	288	3
NMTAP	100	0	3
NMTAP	100	0	4
NMTAP	100	96	3
NMTAP	100	96	4
NMTAP	100	192	2
NMTAP	100	192	5
NMTAP	101	0	2
NMTAP	101	96	2
NMTAP	101	192	2
NMTAP	101	288	2
NMTAP	101	288	3
NMTAP	102	0	1
NMTAP	102	96	1
NMTAP	102	192	1
NMTAP	102	288	0
NMTAP	102	288	1
NMTAP	103	0	7
NMTAP	103	96	7
NMTAP	103	192	7
NMTAP	103	288	6
NMTAP	103	288	7
NMTAP	104	0	5
NMTAP	104	96	5
BRTAP	104	192	4
BRTAP	104	192	5
NMTAP	105	0	5
NMTAP	105	96	5
NMTAP	105	192	5
NMTAP	105	288	4
NMTAP	105	288	5
NMTAP	106	0	6
NMTAP	106	96	6
NMTAP	106	192	6
NMTAP	106	288	6
NMTAP	106	288	7
NMTAP	107	0	0
NMTAP	107	96	0
NMTAP	107	192	0
NMTAP	107	288	0
NMTAP	107	288	1
NMTAP	108	0	2
NMTAP	108	96	2
NMTAP	108	192	2
NMTAP	108	192	3
NMHLD	109	0	2	192
NMTAP	109	192	3
NMTAP	110	0	2
NMTAP	110	96	2
NMTAP	110	192	2
NMTAP	110	192	3
NMHLD	111	0	1	192
NMTAP	111	192	0
NMTAP	112	0	1
NMTAP	112	96	1
NMTAP	112	192	0
NMTAP	112	192	1
NMHLD	113	0	6	192
NMTAP	113	192	7
NMTAP	114	0	6
NMTAP	114	96	6
NMTAP	114	192	6
NMTAP	114	192	7
NMHLD	115	0	5	192
NMTAP	115	192	4
NMTAP	116	0	5
NMTAP	116	96	5
NMTAP	116	192	4
NMTAP	116	192	5
BXTAP	117	0	3
BXTAP	117	0	4

T_REC_TAP	335
T_REC_BRK	2
T_REC_XTP	1
T_REC_BXX	3
T_REC_HLD	16
T_REC_XHO	0
T_REC_BHO	0
T_REC_BXH	0
T_REC_STR	8
T_REC_BST	0
T_REC_XST	0
T_REC_XBS	0
T_REC_TTP	26
T_REC_THO	1
T_REC_SLD	8
T_REC_BSL	0
T_REC_ALL	400
T_NUM_TAP	370
T_NUM_BRK	5
T_NUM_HLD	17
T_NUM_SLD	8
T_NUM_ALL	400
T_JUDGE_TAP	375
T_JUDGE_HLD	72
T_JUDGE_SLD	8
T_JUDGE_ALL	455
TTM_EACHPAIRS	69
TTM_SCR_TAP	185000
TTM_SCR_BRK	13000
TTM_SCR_HLD	17000
TTM_SCR_SLD	12000
TTM_SCR_ALL	227000
TTM_SCR_S	219750
TTM_SCR_SS	226500
TTM_RAT_ACV	10022

